osu file format v9

[General]
AudioFilename: byebye.mp3
AudioLeadIn: 0
PreviewTime: 77601
Countdown: 0
SampleSet: Soft
StackLeniency: 0.7
Mode: 0
LetterboxInBreaks: 1

[Editor]
DistanceSpacing: 1.2
BeatDivisor: 4
GridSize: 8

[Metadata]
Title:Sayonara Bye Bye
Artist:Mawatari Matsuko
Creator:taNa_Coppola
Version:Normal+
Source:YuYu Hakusho
Tags:

[Difficulty]
HPDrainRate:4
CircleSize:4
OverallDifficulty:6
ApproachRate:6
SliderMultiplier:1
SliderTickRate:1

[Events]
//Background and Video events
0,0,"img6ccbfc09o3pshc.jpg"
//Break Periods
2,8519,11695
//Storyboard Layer 0 (Background)
//Storyboard Layer 1 (Fail)
//Storyboard Layer 2 (Pass)
//Storyboard Layer 3 (Foreground)
//Storyboard Sound Samples
//Background Colour Transformations
3,100,163,162,255

[TimingPoints]
6722,399.414192517641,4,2,0,60,1,0
123650,-100,4,1,0,51,0,0
125048,-100,4,2,0,71,0,0
125947,-100,4,2,0,83,0,0
148314,-100,4,2,0,100,0,0

[Colours]
Combo1 : 162,217,32
Combo2 : 0,251,113

[HitObjects]
216,192,7720,1,0
272,192,7920,1,0
272,192,8319,1,0
256,192,12912,12,0,14710
216,192,15109,1,8
336,192,15509,2,0,B|336:80,2,100,0|8|0
336,192,16707,1,8
456,192,17106,2,0,B|456:304,1,100,0|8
344,328,17905,5,0
248,256,18305,1,8
152,328,18704,1,0
80,232,19103,2,0,B|80:168,2,50,8|0|0
80,120,19902,1,8
168,40,20302,5,0
224,40,20501,2,0,B|336:40,1,100
384,56,21100,1,0
464,144,21500,1,8
360,200,21899,1,0
440,288,22299,1,8
320,288,22698,5,0
200,288,23097,1,8
104,216,23497,5,0
96,96,23896,1,8
208,144,24296,2,0,B|320:144,1,100,0|8
352,256,25095,2,0,B|352:360,2,100,0|8|0
232,272,26293,5,8
112,272,26692,1,0
80,224,26892,6,0,B|80:112,1,100
80,124,27491,1,0
184,56,27890,1,8
264,144,28290,1,0
360,72,28689,2,0,B|424:40|472:80,1,100,8|0
408,176,29488,1,8
288,192,29888,5,0
168,192,30287,1,8
120,304,30686,6,0,B|336:304,2,200,0|0|0
208,224,32683,1,8
328,224,33083,2,0,B|328:168,2,50,0|0|8
392,224,33682,5,0
392,224,33882,2,0,B|440:176|416:112,1,100,0|8
328,56,34680,2,0,B|232:32|120:56,1,200,0|0
136,176,35879,1,8
256,176,36278,1,0
320,176,36478,1,0
376,176,36678,1,8
336,288,37077,6,0,B|440:240,2,100,0|8|0
216,288,38275,1,8
96,272,38675,2,0,B|48:232,1,50,0|0
112,208,39074,2,0,B|96:144,1,50,8|0
160,176,39473,2,0,B|272:176,1,100,0|8
376,176,40272,6,0,B|440:176,2,50,0|0|8
400,120,40871,1,0
376,64,41071,2,0,B|448:64,2,50,0|0|8
256,64,41870,2,0,B|152:64,1,100,0|8
136,120,42469,5,0
104,168,42669,1,0
96,288,43068,1,8
208,328,43468,2,0,B|416:328,2,200,0|0|0
208,264,45265,1,0
208,264,45664,2,0,B|208:192,1,50
272,200,46064,6,0,B|352:200|376:160,1,100
416,136,46663,2,0,B|416:208,1,50,4|0
416,248,47062,1,8
304,296,47462,5,0
184,296,47861,1,8
80,232,48261,2,0,B|80:112,2,100,0|8|0
80,296,49259,2,0,B|32:296,2,50,0|8|0
144,296,49858,2,0,B|344:296,1,200,0|0
280,192,51056,1,8
256,72,51456,6,0,B|128:72,2,100,0|8|0
376,80,52654,1,8
456,168,53054,1,0
392,272,53453,2,0,B|248:304|136:296|72:240,1,300,8|0
160,160,55051,2,0,B|232:160,1,50,8|0
328,160,55650,2,0,B|400:160,2,50,0|8|0
256,192,56249,12,0,57847
256,240,58246,1,8
256,184,58446,1,0
256,128,58645,2,0,B|208:128,2,50,0|0|8
256,72,59244,2,0,B|304:72,2,50,0|4|0
192,72,59844,1,8
72,72,60243,1,0
72,192,60642,1,8
72,312,61042,2,0,B|192:312|192:312|192:216|192:216|288:216|288:216|288:128,1,400,0|0
288,64,62839,6,0,B|216:64,1,50,0|8
176,64,63239,2,0,B|112:64,1,50
64,64,63638,2,0,B|8:64,2,50,0|8|0
104,104,64237,2,0,B|104:216,1,100,0|8
192,280,65036,5,0
264,184,65435,1,8
336,280,65835,2,0,B|416:344|416:344|480:264,2,200,4|0|0
256,192,67832,1,8
368,144,68231,1,0
288,48,68631,1,8
184,104,69030,2,0,B|112:104,1,50,0|0
72,104,69430,1,8
136,208,69829,5,0
136,328,70228,1,8
256,304,70628,6,0,B|256:184,1,100,0|8
256,80,71427,2,0,B|256:48|296:48,1,50
344,48,71826,1,8
448,104,72225,2,0,B|488:160|488:224|448:304,3,200,0|0|0|0
384,192,75021,1,8
264,192,75421,5,8
152,80,76220,1,0
152,136,76419,1,0
152,192,76619,1,8
152,248,76819,1,0
208,264,77018,6,0,B|264:312|264:312|312:264|312:264|384:264,1,200,4|0
416,224,78017,1,0
416,160,78217,1,8
416,104,78416,2,8,B|392:72|360:104,1,50,0|4
288,176,79015,5,8
200,96,79415,1,0
144,200,79814,1,8
64,112,80214,2,0,B|64:216,3,100,0|8|0|8
136,312,81811,2,0,B|240:272|352:312,1,200,0|0
424,224,83010,1,8
416,104,83409,2,0,B|376:64|368:112,1,50,0|0
256,72,84008,6,0,B|256:120,1,50
256,184,84408,2,0,B|256:232,1,50,0|8
152,296,85007,2,0,B|80:296,2,50,0|0|8
152,232,85606,2,0,B|208:232,2,50
152,168,86205,1,8
248,96,86604,6,0,B|368:120|368:120|368:168|368:168|408:184,1,200,0|0
456,192,87603,1,0
464,248,87803,1,4
352,288,88202,5,4
256,192,89001,1,0
192,192,89201,1,0
152,232,89400,1,8
96,232,89600,1,0
56,192,89800,2,0,B|56:96|120:40|184:40,2,200,0|8|4
352,128,92396,5,0
416,128,92596,1,8
456,240,92995,1,0
352,304,93394,1,8
240,256,93794,1,0
128,304,94193,1,8
48,216,94593,2,0,B|48:104,1,100,0|8
168,128,95391,5,0
288,128,95791,1,8
400,88,96190,6,0,B|464:152|464:216|400:272,1,200,0|0
312,328,97389,1,8
192,328,97788,2,0,B|80:328,2,100,0|8|0
200,208,98986,1,8
256,104,99386,5,0
368,72,99785,1,8
440,168,100184,1,0
376,272,100584,1,8
256,248,100983,2,0,B|152:248,1,100,0|8
96,80,101982,5,0
152,80,102181,2,0,B|224:48|280:96,1,100,8|0
304,96,102781,1,0
344,136,102980,2,0,B|432:112|456:168,1,100,8|0
440,208,103579,1,0
408,256,103779,2,0,B|312:296|216:288|200:272,1,200,8|8
64,192,105177,5,0
128,192,105377,1,8
248,192,105776,2,0,B|248:256,2,50,0|0|8
248,312,106575,1,0
248,192,106974,1,8
304,212,107174,2,0,B|368:120,2,100
264,256,108173,6,0,B|200:256,1,50
160,232,108572,2,8,B|120:200,1,50
80,160,108972,2,0,B|80:48,2,100,0|8|0
168,240,110170,1,8
288,240,110569,2,0,B|376:200|488:248,1,200,0|0
424,136,111767,1,8
336,64,112167,6,8,B|224:40|112:88,2,200,0|0|0
288,176,114164,1,8
288,296,114563,1,0
168,288,114963,2,0,B|80:288|72:232,1,100,8|0
88,136,115762,1,8
208,136,116161,1,0
256,248,116560,2,0,B|256:296,2,50,8|0|4
344,160,117359,5,8
384,112,117559,1,0
320,96,117759,2,0,B|264:72|200:112,1,100,0|8
120,160,118557,2,0,B|120:288,2,100,0|8|0
232,208,119756,1,8
336,152,120155,2,0,B|336:280,2,100,0|8|0
232,208,121353,1,8
256,192,121753,12,8,123750
256,192,124149,5,0
256,72,124549,1,8
256,192,124948,1,12
136,192,125348,1,8
256,192,125747,1,0
376,192,126146,1,8
256,192,126546,1,0
256,312,126945,1,4
136,304,127345,6,0,B|64:304,1,50
88,240,127744,2,0,B|144:240,1,50,8|0
136,176,128143,2,0,B|136:72,1,100,0|8
256,104,128942,1,0
256,224,129342,1,8
256,344,129741,2,0,B|208:368,2,50,0|0|8
368,296,130540,6,0,B|472:296,1,100,0|8
464,176,131339,2,0,B|424:120|376:168,1,100,0|8
336,200,131938,2,0,B|336:264,3,50,0|0|0|8
256,336,132936,2,0,B|176:360|128:328|88:272|88:208,1,200,0|0
128,136,134135,1,8
128,136,134534,5,0
368,160,135333,2,0,B|416:160,2,50,0|0|8
248,128,136132,2,0,B|248:240,1,100,0|8
256,288,136731,1,0
200,256,136931,1,0
152,288,137130,1,0
104,256,137330,1,8
56,288,137530,2,8,B|16:256,1,50,8|4
72,152,138129,5,8
192,152,138528,1,0
312,152,138928,2,0,B|264:152,2,50,8|0|0
432,152,139726,1,8
392,264,140126,2,0,B|272:272,1,100,0|8
184,320,140925,2,0,B|80:320,2,100,0|8|0
256,224,142123,1,8
256,224,142522,6,0,B|256:24,2,200,0|0|0
368,264,144519,1,8
272,336,144919,1,0
152,328,145318,1,8
88,232,145718,2,0,B|48:168|112:72,1,150,0|0
160,88,146516,1,0
224,88,146716,1,0
288,88,146916,1,8
376,192,147315,5,8
232,192,148114,1,0
168,192,148314,1,0
104,192,148514,1,8
104,248,148713,1,0
104,312,148913,2,0,B|328:312|328:312|328:312|328:312|328:312,1,200,0|0
256,160,150111,5,8
256,160,150511,5,4
