osu file format v9

[General]
AudioFilename: byebye.mp3
AudioLeadIn: 0
PreviewTime: 77601
Countdown: 0
SampleSet: Soft
StackLeniency: 0.7
Mode: 0
LetterboxInBreaks: 1

[Editor]
DistanceSpacing: 1.2
BeatDivisor: 4
GridSize: 8

[Metadata]
Title:Sayonara Bye Bye
Artist:Mawatari Matsuko
Creator:taNa_Coppola
Version:Insane
Source:YuYu Hakusho
Tags:

[Difficulty]
HPDrainRate:7
CircleSize:5
OverallDifficulty:8
ApproachRate:8
SliderMultiplier:1.3
SliderTickRate:1

[Events]
//Background and Video events
0,0,"img6ccbfc09o3pshc.jpg"
//Break Periods
2,8519,12162
//Storyboard Layer 0 (Background)
//Storyboard Layer 1 (Fail)
//Storyboard Layer 2 (Pass)
//Storyboard Layer 3 (Foreground)
//Storyboard Sound Samples
//Background Colour Transformations
3,100,163,162,255

[TimingPoints]
6722,399.414192517641,4,2,0,60,1,0
62540,-100,4,2,0,39,0,0
63539,-100,4,2,0,57,0,0
64537,-100,4,2,0,76,0,0
66035,-100,4,2,0,51,0,0
121753,-100,4,2,0,41,0,0
122352,-100,4,2,0,57,0,0
122951,-100,4,2,0,73,0,0
123750,-100,4,1,0,51,0,0
125348,-100,4,2,0,73,0,0
148813,-100,4,2,0,89,0,0
149612,-100,4,2,0,100,0,0

[Colours]
Combo1 : 162,217,32
Combo2 : 0,251,113

[HitObjects]
208,152,7720,5,0
304,152,7920,2,0,B|328:128,2,32.5
256,232,8319,5,4
256,192,12912,12,0,14510
176,192,14710,5,0
208,120,14909,1,0
288,120,15109,1,8
320,192,15309,1,0
288,264,15509,2,0,B|248:320|248:320|216:264,1,130,0|8
240,192,16307,5,0
272,192,16707,5,8
376,72,17106,6,0,B|304:72,1,65
311,72,17506,1,8
168,152,17905,1,0
112,96,18105,1,0
40,128,18305,1,8
40,208,18504,1,0
120,216,18704,2,0,B|120:288,2,65,0|0|8
360,304,19503,5,0
360,280,19603,1,0
360,256,19702,1,0
360,232,19802,1,0
360,208,19902,1,8
360,184,20002,1,0
360,160,20102,1,0
360,136,20202,1,0
360,112,20302,1,0
296,64,20501,6,0,B|224:64,1,65,0|8
176,120,20901,1,0
120,176,21100,1,0
192,200,21300,1,0
136,256,21500,1,8
176,320,21700,2,0,B|224:344|256:328,1,65
320,336,22099,2,0,B|368:336|376:312,1,65,0|8
376,311,22498,1,0
352,240,22698,6,0,B|352:112,1,130,0|8
160,240,23497,2,0,B|160:112,1,130,0|8
312,96,24296,5,0
376,56,24495,1,0
440,96,24695,1,8
384,152,24895,1,0
328,224,25095,6,0,B|264:224|264:224|256:208|256:208|248:240|248:240|240:224|240:224|168:224,2,195,0|0|4
256,88,26692,5,0
192,48,26892,2,0,B|152:72|160:112,1,65,0|8
80,96,27291,2,0,B|48:160|80:224,1,130
152,232,27890,1,8
96,288,28090,1,0
168,320,28290,1,0
240,280,28490,2,0,B|328:280,1,65,0|8
305,280,28889,1,0
272,192,29089,5,0
240,192,29488,5,8
360,96,29888,5,0
432,120,30087,2,0,B|464:152|456:184,1,65,0|8
424,248,30487,1,0
312,216,30686,6,0,B|192:128,1,130,0|8
80,312,31485,5,0
48,240,31685,1,0
112,200,31885,1,8
80,128,32084,1,0
176,64,32284,6,0,B|312:64,1,130,0|8
408,184,33083,1,0
392,184,33183,1,0
376,184,33283,1,0
360,184,33382,1,0
344,184,33482,1,8
264,184,33682,6,0,B|200:184,1,65,0|0
152,120,34081,1,0
72,136,34281,1,8
88,216,34481,2,0,B|88:272|152:264,1,65
200,256,34880,2,0,B|232:264|240:320,1,65,0|8
168,336,35280,1,0
256,288,35479,6,0,B|256:152,1,130,0|8
256,96,36278,2,0,B|256:232,1,130,0|8
392,304,37077,5,0
448,248,37277,1,0
448,168,37476,1,8
392,112,37676,1,0
320,144,37876,2,0,B|256:120|256:120|184:144,1,130,0|8
152,288,38675,5,0
80,256,38874,1,0
48,184,39074,1,8
80,112,39274,1,0
152,152,39473,2,0,B|216:128|280:160,1,130,0|8
278,159,40073,1,0
352,136,40272,6,0,B|432:120,1,65,0|0
384,192,40672,2,0,B|456:192,1,65,8|0
400,248,41071,2,0,B|464:280,1,65
384,304,41471,2,0,B|424:360,1,65,8|0
336,272,41870,5,4
256,136,42269,1,8
200,80,42469,1,0
124,96,42669,1,0
92,168,42868,1,0
116,244,43068,1,8
184,204,43268,1,0
264,204,43468,2,0,B|432:204|432:204|408:100|360:124|288:116|320:196|304:260|344:284|344:284|416:284,1,520,0|4
136,64,46064,5,0
88,128,46264,1,8
168,144,46463,1,0
168,144,46563,1,0
168,144,46663,1,0
112,200,46862,1,0
112,280,47062,1,8
368,96,47661,2,0,B|408:104|416:136,1,65,0|8
368,200,48061,1,0
432,240,48261,1,0
392,304,48460,2,0,B|336:336|264:312,1,130
112,296,49259,5,0
112,216,49459,1,8
200,88,49858,5,0
256,144,50058,1,0
312,88,50258,1,8
432,192,50657,2,0,B|440:280,1,65
312,160,51256,1,0
312,240,51456,2,0,B|312:320,1,65,0|0
152,312,52055,6,0,B|112:296|104:256,1,65
80,192,52454,2,0,B|64:152|72:120,1,65,0|8
120,72,52854,1,0
256,192,53054,12,0,55250
208,192,55650,5,0
256,128,55849,1,8
304,192,56049,1,0
256,256,56249,1,0
320,112,56648,2,0,B|296:40|184:40|176:128,1,195,8|0
160,192,57447,2,0,B|160:264,1,65,8|0
240,192,57847,1,0
272,192,58246,5,8
256,272,58446,5,0
320,232,58645,1,0
320,152,58845,1,0
256,112,59045,1,8
248,192,59244,1,0
168,192,59444,1,4
88,192,59644,1,0
88,192,59844,2,0,B|64:304|104:344,2,130
88,96,60842,5,0
168,96,61042,1,0
248,96,61242,1,0
336,144,61441,2,0,B|336:272,1,130,8|0
256,320,62040,1,0
176,320,62240,1,8
96,320,62440,1,0
96,208,62639,5,8
96,128,62839,1,0
96,208,63039,1,8
160,160,63239,1,0
96,208,63438,1,8
168,232,63638,5,0
96,208,63838,1,8
120,280,64037,1,0
96,208,64237,1,8
48,272,64437,1,0
96,208,64637,5,8
16,208,64836,1,0
96,208,65036,1,8
48,144,65236,1,0
96,208,65435,1,8
176,208,65635,5,0
256,208,65835,1,4
392,136,66234,6,0,B|392:264,1,130,8|0
480,264,67033,2,0,B|480:128,1,130,8|0
312,56,67832,5,8
248,104,68032,1,0
200,40,68231,1,0
144,96,68431,1,0
88,40,68631,1,8
88,40,68830,1,0
48,104,69030,2,0,B|32:144|56:168,1,65,0|0
152,192,69430,6,0,B|280:192,1,130,8|0
360,192,70029,2,0,B|384:168,2,32.5,0|0|8
272,320,70628,1,0
192,320,70827,1,0
400,320,71227,5,0
456,264,71427,1,0
384,248,71626,1,0
440,192,71826,2,0,B|440:128,1,65,8|0
400,56,72225,2,0,B|328:24|272:64,1,130,8|8
208,96,72825,1,0
136,72,73024,1,0
80,128,73224,1,0
80,128,73424,1,8
256,152,73823,5,0
304,216,74023,1,0
352,152,74222,1,8
408,208,74422,1,0
472,160,74622,1,0
496,232,74822,2,0,B|496:296,1,65,0|8
344,312,75421,5,8
228,328,76220,1,0
160,292,76419,1,0
228,256,76619,1,0
164,212,76819,1,0
240,192,77018,1,4
272,192,77418,5,8
312,256,77618,5,0
384,224,77817,1,0
384,144,78017,1,0
320,104,78217,1,8
248,136,78416,1,0
208,136,78516,1,0
168,136,78616,6,0,B|168:272,1,130,4|8
88,264,79415,2,0,B|88:128,1,130,0|8
216,48,80214,1,0
232,48,80314,1,0
248,48,80413,1,0
264,48,80513,1,0
280,48,80613,1,8
352,80,80813,5,0
408,136,81013,1,0
344,184,81212,1,0
408,232,81412,1,8
344,280,81612,1,0
272,312,81811,2,0,B|208:312,1,65,0|0
207,312,82211,1,8
256,96,82610,6,0,B|256:224,1,130,0|8
136,128,83409,1,0
136,208,83609,1,0
136,288,83808,1,8
208,320,84008,5,0
276,284,84208,1,0
348,312,84408,1,0
384,244,84607,1,8
316,208,84807,1,0
240,232,85007,6,0,B|240:104,2,130,0|8|0
160,232,86005,1,0
80,232,86205,2,0,B|80:88,2,130,8|0|8
112,304,87203,1,0
176,344,87403,1,0
232,288,87603,1,0
288,344,87803,1,8
440,328,88202,5,8
424,152,89001,1,0
360,104,89201,1,0
296,152,89400,1,8
360,200,89600,1,0
256,192,89700,12,4,91397
416,184,92396,5,0
472,128,92596,1,8
496,200,92795,1,0
448,264,92995,1,4
304,320,93394,1,8
152,280,93794,1,0
96,228,93994,1,0
160,184,94193,1,8
208,120,94393,1,0
240,192,94593,5,0
272,192,94992,5,8
408,120,95391,5,0
440,192,95591,1,0
416,264,95791,1,8
264,288,96190,1,0
184,280,96390,2,0,B|136:280|128:224,1,65,0|8
192,192,96789,1,0
192,96,96989,6,0,B|344:96,1,130,0|8
352,248,97788,2,0,B|216:248,1,130,8|8
144,248,98387,1,0
64,248,98587,1,0
104,184,98786,1,0
104,168,98886,1,0
104,152,98986,1,8
104,136,99086,1,0
104,120,99186,1,0
64,48,99386,5,0
136,24,99585,1,0
176,96,99785,1,8
240,48,99985,2,0,B|280:32|304:40,1,65
328,112,100384,2,0,B|368:176|328:264,1,130
272,192,100983,5,0
240,192,101383,5,8
136,72,101782,5,0
80,128,101982,1,0
144,176,102181,1,8
88,232,102381,1,0
224,312,102781,1,0
272,248,102980,1,8
328,304,103180,1,0
256,192,103380,12,4,104578
256,248,105177,5,0
192,200,105377,1,8
256,152,105577,1,0
304,88,105776,2,0,B|336:160|416:136,1,130,4|8
456,200,106375,1,0
456,200,106575,1,0
400,280,106775,5,0
336,328,106974,1,8
280,272,107174,1,0
216,320,107374,1,0
168,256,107574,1,0
128,256,107673,1,0
88,256,107773,1,8
56,184,107973,1,0
168,72,108372,5,0
224,128,108572,1,8
280,72,108772,1,0
336,128,108972,1,0
392,72,109171,2,0,B|464:72,2,65,0|8|0
424,152,109770,5,0
424,232,109970,1,0
424,312,110170,1,8
352,280,110369,1,0
272,280,110569,1,0
192,280,110769,1,0
152,280,110869,1,0
112,280,110969,1,8
72,216,111168,5,0
136,168,111368,1,0
72,128,111568,1,0
128,72,111767,2,0,B|168:40|192:72,1,65,8|0
256,104,112167,6,0,B|256:248,2,130,0|8|0
336,104,113165,1,0
416,104,113365,2,8,B|416:240,2,130,8|0|8
368,40,114364,1,0
328,104,114563,1,0
272,48,114763,5,0
192,48,114963,1,8
112,48,115162,1,0
112,48,115362,1,0
168,192,115762,2,0,B|128:248|128:248|176:296,2,130,8|0|8
168,192,116760,1,0
248,192,116960,5,0
280,192,117359,5,8
352,272,117559,5,0
296,328,117759,1,0
216,328,117958,1,0
160,272,118158,1,8
256,272,118358,1,0
256,192,118557,1,0
256,112,118757,1,0
176,120,118957,6,0,B|104:120,2,65,8|0|0
256,128,119556,1,0
336,120,119756,2,0,B|400:120,2,65,8|0|0
256,112,120355,1,0
256,192,120555,2,0,B|256:320,2,130,8|0|8
256,192,121553,1,0
208,112,121753,5,8
304,112,121952,1,0
200,184,122152,1,8
312,184,122352,1,0
208,256,122552,1,8
304,256,122751,1,0
200,184,122951,5,8
312,184,123151,1,0
208,112,123350,1,8
304,112,123550,1,0
384,64,123750,5,8
384,64,123950,1,0
384,152,124149,5,8
456,184,124349,1,0
416,248,124549,1,8
448,320,124748,1,0
376,352,124948,6,0,B|312:368|232:336,1,130,12|8
248,342,125547,1,0
232,264,125747,2,0,B|168:272|112:224,1,130,0|8
112,224,126346,1,0
160,144,126546,6,0,B|304:144,1,130,0|8
360,112,127145,6,0,B|408:64,1,65
296,168,127544,2,0,B|248:216,1,65,0|8
296,104,127944,2,0,B|232:40,1,65,0|0
360,176,128343,2,0,B|424:240,1,65,0|8
360,312,128743,5,0
416,264,128942,2,0,B|416:184,1,65
344,176,129342,2,0,B|344:248,1,65,8|0
272,192,129741,5,0
240,192,130140,5,8
192,128,130340,5,0
224,56,130540,1,0
144,48,130740,1,0
120,120,130939,2,0,B|88:104|56:128,1,65,8|0
96,200,131339,6,0,B|96:336,2,130,0|8|0
176,200,132337,1,0
256,200,132537,2,0,B|256:344,2,130,8|0|8
336,200,133536,1,0
400,160,133735,1,0
464,200,133935,2,0,B|464:264,1,65,0|8
352,272,134534,5,0
256,328,135333,1,0
200,272,135533,1,0
144,328,135732,1,8
72,296,135932,1,0
32,232,136132,1,4
56,80,136531,5,8
124,40,136731,1,0
144,116,136931,1,0
208,72,137130,1,0
276,112,137330,1,8
348,80,137530,1,0
388,80,137630,1,0
428,80,137729,5,4
424,240,138129,1,8
272,200,138528,2,0,B|216:256|144:192,2,130,0|8|0
272,120,139527,2,0,B|272:56,1,65,0|8
184,96,139926,5,0
128,40,140126,1,0
72,96,140326,1,0
128,152,140525,1,8
128,232,140725,1,0
128,312,140925,2,0,B|176:360,1,65,0|0
173,357,141324,1,8
384,312,141723,5,0
328,256,141923,1,0
400,224,142123,1,8
344,168,142323,1,0
272,192,142522,5,0
240,192,142922,5,8
176,144,143121,5,0
104,176,143321,2,0,B|72:128|112:96,1,65
24,80,143721,2,0,B|40:24|80:24,1,65,8|0
128,64,144120,2,0,B|256:64,2,130,0|8|0
128,144,145119,1,0
128,224,145318,2,0,B|256:224,2,130,8|0|8
136,304,146317,1,0
208,280,146516,1,0
264,336,146716,2,0,B|344:336,1,65,0|8
376,176,147315,5,8
256,248,148114,1,0
184,280,148314,1,0
112,256,148514,1,8
64,192,148713,1,0
88,120,148913,5,0
152,72,149113,1,0
208,128,149312,1,8
272,80,149512,1,0
336,120,149712,1,0
392,64,149911,1,0
456,112,150111,1,8
272,192,150511,5,4
