osu file format v14

[General]
AudioFilename: Mavis Fan & Leehom Wang - Snow Man.mp3
AudioLeadIn: 0
PreviewTime: 5851
Countdown: 0
SampleSet: Soft
StackLeniency: 0.7
Mode: 0
LetterboxInBreaks: 0
WidescreenStoryboard: 0

[Editor]
Bookmarks: 18777,31193,126382,217432
DistanceSpacing: 1
BeatDivisor: 4
GridSize: 4
TimelineZoom: 1

[Metadata]
Title:Xue Ren
TitleUnicode:雪人
Artist:Mavis Fan & Leehom Wang
ArtistUnicode:范晓萱 & 王力宏
Creator:Hollow Wings
Version:Normal
Source:
Tags:snowman snow man winter merry christmas to you 好想谈恋爱 不可能错过你
BeatmapID:550579
BeatmapSetID:237978

[Difficulty]
HPDrainRate:4.5
CircleSize:4
OverallDifficulty:4.5
ApproachRate:5
SliderMultiplier:1.49999990463257
SliderTickRate:1

[Events]
//Background and Video events
0,0,"Xue Ren.jpg",0,0
//Break Periods
//Storyboard Layer 0 (Background)
//Storyboard Layer 1 (Fail)
//Storyboard Layer 2 (Pass)
//Storyboard Layer 3 (Foreground)
//Storyboard Sound Samples

[TimingPoints]
2223,1034.66114847387,4,2,1,25,1,0
22916,-100,4,2,1,35,0,0
31193,-100,4,2,1,20,0,0
47748,-100,4,2,1,25,0,0
64302,-100,4,2,1,30,0,0
72579,-100,4,2,2,35,0,0
105689,-100,4,2,2,40,0,0
109827,-100,4,2,2,45,0,0
126382,-100,4,2,2,25,0,0
142936,-100,4,2,2,30,0,0
159491,-100,4,2,2,35,0,0
167768,-100,4,2,2,45,0,0
200877,-100,4,2,2,35,0,0
217432,-100,4,2,2,45,0,1
250541,-100,4,2,1,35,0,0
267096,-100,4,2,1,25,0,0
273304,-100,4,2,1,20,0,0

[Colours]
Combo1 : 17,177,255
Combo2 : 136,222,255

[HitObjects]
121,281,6361,5,2,0:0:0:0:
84,216,6878,1,0,0:0:0:0:
134,160,7395,1,0,0:0:0:0:
202,190,7912,1,0,0:0:0:0:
196,266,8430,1,0,0:0:0:0:
408,54,10500,5,0,0:0:0:0:
445,119,11017,1,0,0:0:0:0:
395,175,11534,1,0,0:0:0:0:
327,145,12051,1,0,0:0:0:0:
333,69,12569,1,0,0:0:0:0:
242,356,14638,5,2,0:0:0:0:
279,291,15155,1,0,0:0:0:0:
229,235,15672,1,0,0:0:0:0:
161,265,16189,1,0,0:0:0:0:
167,341,16707,1,0,0:0:0:0:
182,43,18777,5,0,0:0:0:0:
145,108,19294,1,0,0:0:0:0:
195,164,19811,1,0,0:0:0:0:
263,134,20328,1,0,0:0:0:0:
257,58,20846,1,0,0:0:0:0:
470,269,22916,5,2,0:0:0:0:
395,266,23433,1,0,0:0:0:0:
326,295,23950,1,0,0:0:0:0:
283,356,24467,1,0,0:0:0:0:
10,101,27054,5,0,0:0:0:0:
53,162,27571,1,0,0:0:0:0:
122,191,28088,1,0,0:0:0:0:
112,116,28605,1,0,0:0:0:0:
485,148,31193,6,0,L|479:236,1,74.9999952316284,2|0,0:0|0:0,0:0:0:0:
414,259,32228,2,0,L|408:347,1,74.9999952316284
204,19,35332,6,0,L|210:107,1,74.9999952316284,2|0,0:0|0:0,0:0:0:0:
275,130,36367,2,0,L|281:218,1,74.9999952316284
83,352,39470,6,0,P|40:288|73:220,1,149.999990463257,2|0,0:0|0:0,0:0:0:0:
116,282,41022,1,0,0:0:0:0:
189,298,41540,2,0,P|232:234|199:166,1,149.999990463257
66,226,43609,5,2,0:0:0:0:
66,226,45678,1,0,0:0:0:0:
66,226,47748,6,0,P|106:215|154:220,1,74.9999952316285,2|0,0:0|0:0,0:0:0:0:
175,225,48524,1,0,0:0:0:0:
204,247,48783,2,0,P|225:277|257:295,1,74.9999952316285
294,300,49558,1,0,0:0:0:0:
443,289,50593,1,0,0:0:0:0:
478,301,50852,2,0,L|481:339,2,37.4999976158143
402,289,51886,6,0,P|400:327|384:361,1,74.9999952316285,2|0,0:0|0:0,0:0:0:0:
312,339,52921,2,0,L|237:344,1,74.9999952316284
202,358,53697,1,0,0:0:0:0:
115,235,54732,1,0,0:0:0:0:
84,213,54990,2,0,L|46:216,2,37.4999976158142,0|0|0,0:0|0:0|0:0,0:0:0:0:
145,169,56025,6,0,P|200:168|250:193,1,112.499992847443,2|0,0:0|0:0,0:0:0:0:
281,215,57060,2,0,P|302:184|334:165,1,74.9999952316285
371,162,57836,1,0,0:0:0:0:
404,178,58094,2,0,P|421:113|395:67,1,112.499992847443,2|0,0:0|0:0,0:0:0:0:
395,37,59129,2,0,L|436:22,2,37.4999976158143
326,67,60164,6,0,L|251:72,1,74.9999952316284,2|0,0:0|0:0,0:0:0:0:
224,98,60940,1,0,0:0:0:0:
236,133,61198,2,0,P|271:152|312:151,1,74.9999952316285
321,186,61974,1,0,0:0:0:0:
322,224,62233,2,0,L|210:234,1,112.499992847443,2|0,0:0|0:0,0:0:0:0:
157,180,63526,2,0,L|119:176,1,37.4999976158142
71,231,64302,5,2,0:0:0:0:
118,288,64819,1,0,0:0:0:0:
187,316,65336,1,0,0:0:0:0:
260,300,65854,2,0,L|308:293,1,37.4999976158143,0|0,0:0|0:0,0:0:0:0:
446,287,67147,2,0,L|372:274,1,74.9999952316285
353,241,67923,1,0,0:0:0:0:
370,167,68441,5,2,0:0:0:0:
298,187,68958,2,0,L|260:190,1,37.4999976158142,0|0,0:0|0:0,0:0:0:0:
227,173,69475,1,0,0:0:0:0:
176,117,69993,2,0,L|138:120,1,37.4999976158142,0|0,0:0|0:0,0:0:0:0:
29,222,71286,1,0,0:0:0:0:
62,238,71545,2,0,L|150:232,1,74.9999952316284
185,175,72579,6,0,P|250:153|336:187,1,149.999990463257,2|8,0:0|0:0,0:0:0:0:
365,283,74390,1,0,0:0:0:0:
388,312,74649,2,0,L|476:306,1,74.9999952316284,2|0,0:0|0:0,0:0:0:0:
480,273,75425,1,0,0:0:0:0:
473,236,75683,2,0,L|503:210,2,37.4999976158143,8|0|0,0:0|0:0|0:0,0:0:0:0:
403,207,76718,6,0,P|342:201|297:229,1,112.499992847443,2|0,0:0|0:0,0:0:0:0:
275,255,77753,2,0,L|187:249,1,74.9999952316284,8|0,0:0|0:0,0:0:0:0:
186,215,78529,1,0,0:0:0:0:
152,198,78787,2,0,P|112:244|115:307,1,112.499992847443,2|0,0:0|0:0,0:0:0:0:
96,328,79822,2,0,L|58:331,2,37.4999976158142,8|0|0,0:0|0:0|0:0,0:0:0:0:
170,336,80857,6,0,P|222:319|252:273,1,112.499992847443,2|0,0:0|0:0,0:0:0:0:
249,234,81891,2,0,L|238:155,1,74.9999952316285,8|0,0:0|0:0,0:0:0:0:
251,124,82667,1,0,0:0:0:0:
241,87,82926,2,0,L|250:37,1,37.4999976158143,2|0,0:0|0:0,0:0:0:0:
319,29,83702,1,0,0:0:0:0:
355,38,83961,2,0,L|369:116,1,74.9999952316285,8|0,0:0|0:0,0:0:0:0:
390,141,84737,1,0,0:0:0:0:
394,178,84995,6,0,P|353:179|318:197,1,74.9999952316285,2|0,0:0|0:0,0:0:0:0:
286,203,85771,1,0,0:0:0:0:
253,184,86030,2,0,L|264:123,2,56.2499964237214,8|0|0,0:0|0:0|0:0,0:0:0:0:
216,192,87065,2,0,L|178:195,1,37.4999976158142,2|0,0:0|0:0,0:0:0:0:
142,184,87582,2,0,L|111:205,1,37.4999976158142,0|0,0:0|0:0,0:0:0:0:
74,212,88099,2,0,L|58:245,2,37.4999976158142,8|0|0,0:0|0:0|0:0,0:0:0:0:
83,137,89134,6,0,L|45:133,1,37.4999976158142,2|0,0:0|0:0,0:0:0:0:
36,207,89910,1,0,0:0:0:0:
74,212,90169,2,0,L|162:206,1,74.9999952316284,8|0,0:0|0:0,0:0:0:0:
185,212,90945,1,0,0:0:0:0:
216,191,91203,2,0,L|235:144,2,37.4999976158143,2|0|0,0:0|0:0|0:0,0:0:0:0:
224,227,91979,1,0,0:0:0:0:
242,259,92238,2,0,L|330:253,1,74.9999952316284,8|0,0:0|0:0,0:0:0:0:
390,239,93273,6,0,L|385:293,1,37.4999976158143,2|0,0:0|0:0,0:0:0:0:
402,349,94049,1,0,0:0:0:0:
364,345,94307,2,0,L|252:335,1,112.499992847443,8|0,0:0|0:0,0:0:0:0:
229,304,95342,2,0,L|191:300,1,37.4999976158142,2|0,0:0|0:0,0:0:0:0:
156,312,95859,2,0,L|125:290,1,37.4999976158142,0|0,0:0|0:0,0:0:0:0:
88,283,96377,2,0,L|72:249,2,37.4999976158142,8|0|0,0:0|0:0|0:0,0:0:0:0:
68,314,97153,1,0,0:0:0:0:
71,351,97411,6,0,L|33:354,1,37.4999976158142,2|0,0:0|0:0,0:0:0:0:
5,284,98187,1,0,0:0:0:0:
25,252,98446,2,0,P|36:213|39:173,1,74.9999952316285,8|0,0:0|0:0,0:0:0:0:
30,142,99222,1,0,0:0:0:0:
38,105,99481,2,0,L|16:60,2,37.4999976158143,2|0|0,0:0|0:0|0:0,0:0:0:0:
70,124,100257,1,0,0:0:0:0:
107,121,100515,2,0,L|144:108,1,37.4999976158143,8|0,0:0|0:0,0:0:0:0:
169,135,101033,2,0,L|257:129,1,74.9999952316284,0|2,0:0|0:0,0:0:0:0:
275,109,101809,5,0,0:0:0:0:
310,43,102326,1,0,0:0:0:0:
338,68,102585,2,0,L|426:62,1,74.9999952316284,8|0,0:0|0:0,0:0:0:0:
439,90,103361,1,0,0:0:0:0:
454,123,103619,2,0,L|444:161,1,37.4999976158143,2|0,0:0|0:0,0:0:0:0:
454,195,104137,2,0,L|463:231,1,37.4999976158143,0|0,0:0|0:0,0:0:0:0:
454,267,104654,2,0,L|444:305,2,37.4999976158143,0|0|0,0:0|0:0|0:0,0:0:0:0:
385,235,105689,5,4,0:0:0:0:
246,292,106723,1,8,0:0:0:0:
174,315,107241,2,0,P|120:316|61:292,1,112.499992847443,2|4,0:0|0:3,0:0:0:0:
37,270,108275,2,0,L|67:242,1,37.4999976158143,0|0,0:0|0:0,0:0:0:0:
85,213,108792,2,0,L|132:204,2,37.4999976158143,8|0|8,0:3|0:0|0:3,0:0:0:0:
125,276,109827,6,0,P|160:284|213:282,1,74.9999952316285,6|0,0:0|0:0,0:0:0:0:
263,246,110862,2,0,P|298:238|351:240,1,74.9999952316285,8|0,0:1|0:0,0:0:0:0:
373,247,111638,1,0,0:0:0:0:
394,277,111897,2,0,L|482:283,1,74.9999952316284,2|0,0:0|0:0,0:0:0:0:
491,252,112673,1,0,0:0:0:0:
483,215,112931,2,0,L|494:179,2,37.4999976158143,8|0|0,0:1|0:0|0:0,0:0:0:0:
409,197,113966,6,0,P|371:197|335:188,1,74.9999952316285,6|0,0:0|0:0,0:0:0:0:
295,177,114742,1,0,0:0:0:0:
254,172,115001,2,0,P|216:171|180:180,1,74.9999952316285,8|0,0:1|0:0,0:0:0:0:
149,208,115777,1,0,0:0:0:0:
141,248,116035,2,0,L|179:280,2,37.4999976158143,2|0|0,0:0|0:0|0:0,0:0:0:0:
101,259,116812,1,0,0:0:0:0:
61,272,117070,2,0,L|17:247,2,37.4999976158143,8|0|0,0:1|0:0|0:0,0:0:0:0:
55,312,117846,1,0,0:0:0:0:
37,349,118105,6,0,P|93:360|152:345,1,112.499992847443,6|0,0:0|0:0,0:0:0:0:
179,322,119139,2,0,P|216:312|267:316,1,74.9999952316285,8|0,0:1|0:0,0:0:0:0:
291,325,119915,1,0,0:0:0:0:
326,346,120174,2,0,L|377:355,2,37.4999976158143,2|0|0,0:0|0:0|0:0,0:0:0:0:
347,266,121209,2,0,P|387:266|434:258,1,74.9999952316285,8|0,0:1|0:0,0:0:0:0:
483,206,122243,6,0,P|492:153|479:88,1,112.499992847443,6|0,0:0|0:0,0:0:0:0:
456,63,123278,2,0,P|417:69|381:68,1,74.9999952316285,8|0,0:1|0:0,0:0:0:0:
345,47,124054,2,0,L|305:43,1,37.4999976158143,2|0,0:0|0:0,0:0:0:0:
233,80,124830,2,0,L|193:76,1,37.4999976158143,4|0,0:3|0:0,0:0:0:0:
159,96,125347,2,0,L|106:102,2,37.4999976158143,8|0|8,0:3|0:0|0:3,0:0:0:0:
208,152,126382,6,0,L|202:240,1,74.9999952316284,4|0,0:0|0:0,0:0:0:0:
146,275,127416,2,0,L|140:363,1,74.9999952316284,8|0,0:0|0:0,0:0:0:0:
175,364,128192,1,0,0:0:0:0:
212,359,128451,1,0,0:0:0:0:
237,331,128710,2,0,P|251:298|252:253,1,74.9999952316285
240,223,129486,1,8,0:0:0:0:
246,148,130003,2,0,P|243:108|254:62,1,74.9999952316285,0|2,0:0|0:0,0:0:0:0:
284,59,130779,6,0,L|297:19,1,37.4999976158143
358,64,131555,1,8,0:0:0:0:
422,26,132072,2,0,L|433:61,1,37.4999976158143
460,87,132590,2,0,L|499:89,2,37.4999976158143,2|0|0,0:0|0:0|0:0,0:0:0:0:
439,118,133366,1,0,0:0:0:0:
440,155,133624,2,0,L|463:191,2,37.4999976158143,8|0|0,0:0|0:0|0:0,0:0:0:0:
405,140,134400,1,0,0:0:0:0:
365,152,134659,6,0,L|376:226,1,74.9999952316285
350,258,135435,1,0,0:0:0:0:
361,297,135694,2,0,P|339:326|332:363,1,74.9999952316285,8|0,0:0|0:0,0:0:0:0:
296,353,136470,1,0,0:0:0:0:
267,328,136728,2,0,L|272:287,2,37.4999976158143,2|0|0,0:0|0:0|0:0,0:0:0:0:
233,344,137504,1,0,0:0:0:0:
197,331,137763,2,0,L|181:289,1,37.4999976158143,8|0,0:0|0:0,0:0:0:0:
154,272,138280,2,0,P|152:235|164:193,1,74.9999952316285,0|2,0:0|0:0,0:0:0:0:
196,185,139056,5,0,0:0:0:0:
205,148,139315,2,0,L|196:107,1,37.4999976158143,0|0,0:0|0:0,0:0:0:0:
169,85,139832,2,0,P|138:52|128:11,1,74.9999952316285,8|0,0:0|0:0,0:0:0:0:
95,40,140608,1,0,0:0:0:0:
57,37,140866,2,0,L|23:7,2,37.4999976158143,2|0|0,0:0|0:0|0:0,0:0:0:0:
39,70,141643,1,0,0:0:0:0:
58,102,141902,2,0,L|68:140,1,37.4999976158143,8|0,0:0|0:0,0:0:0:0:
93,165,142419,2,0,P|88:204|74:239,1,74.9999952316285,0|2,0:0|0:0,0:0:0:0:
72,274,143195,6,0,L|80:348,1,74.9999952316285
118,347,143971,2,0,P|146:324|158:289,1,74.9999952316285,8|0,0:0|0:0,0:0:0:0:
189,268,144747,1,0,0:0:0:0:
226,265,145006,1,2,0:0:0:0:
259,281,145264,2,0,L|267:322,2,37.4999976158143,0|0|0,0:0|0:0|0:0,0:0:0:0:
283,252,146040,2,0,L|295:177,1,74.9999952316285,8|0,0:1|0:0,0:0:0:0:
277,105,147075,5,2,0:0:0:0:
313,96,147334,2,0,L|325:21,1,74.9999952316285
360,35,148110,2,0,P|387:82|378:137,1,112.499992847443,8|0,0:0|0:0,0:0:0:0:
378,174,149144,1,2,0:0:0:0:
409,193,149402,2,0,L|457:189,2,37.4999976158143,0|0|0,0:0|0:0|0:0,0:0:0:0:
383,221,150179,2,0,L|345:224,2,37.4999976158143,8|0|0,0:1|0:0|0:0,0:0:0:0:
445,262,151214,5,2,0:0:0:0:
437,298,151472,2,0,L|399:301,1,37.4999976158143,0|0,0:0|0:0,0:0:0:0:
366,319,151990,1,0,0:0:0:0:
328,319,152248,2,0,L|308:231,1,74.9999952316285,8|0,0:0|0:0,0:0:0:0:
278,228,153024,1,0,0:0:0:0:
240,230,153283,2,0,L|230:269,2,37.4999976158143,2|0|0,0:0|0:0|0:0,0:0:0:0:
208,208,154059,1,0,0:0:0:0:
173,193,154317,2,0,L|172:153,2,37.4999976158143,8|0|0,0:1|0:0|0:0,0:0:0:0:
100,211,155352,5,2,0:0:0:0:
66,193,155610,2,0,L|58:118,1,74.9999952316285
79,87,156387,2,0,P|118:95|147:122,1,74.9999952316285,8|0,0:0|0:0,0:0:0:0:
178,131,157163,1,0,0:0:0:0:
215,125,157422,1,2,0:0:0:0:
244,101,157680,2,0,L|259:56,2,37.4999976158143,0|0|0,0:0|0:0|0:0,0:0:0:0:
254,137,158456,2,0,L|266:182,2,37.4999976158143,8|0|0,0:1|0:0|0:0,0:0:0:0:
302,194,159491,6,0,L|292:280,1,74.9999952316285,4|0,0:0|0:0,0:0:0:0:
367,276,160526,2,0,L|357:362,1,74.9999952316285,8|0,0:1|0:0,0:0:0:0:
395,354,161302,1,0,0:0:0:0:
432,348,161560,2,0,L|451:381,2,37.4999976158143,2|0|0,0:0|0:0|0:0,0:0:0:0:
454,317,162336,1,0,0:0:0:0:
461,280,162594,2,0,L|511:280,2,37.4999976158143,8|0|0,0:1|0:0|0:0,0:0:0:0:
432,210,163630,6,0,L|468:186,2,37.4999976158143,2|0|0,0:0|0:0|0:0,0:0:0:0:
360,188,164664,2,0,L|352:112,1,74.9999952316285,8|0,0:1|0:0,0:0:0:0:
315,122,165440,2,0,L|307:46,1,74.9999952316285,8|0,0:1|0:0,0:0:0:0:
270,56,166216,1,4,0:3:0:0:
233,46,166475,1,0,0:0:0:0:
206,19,166734,2,0,L|168:22,2,37.4999976158143,8|0|8,0:1|0:0|0:3,0:0:0:0:
174,95,167768,6,0,P|157:167|157:254,1,149.999990463257,4|8,0:0|0:1,0:0:0:0:
231,276,169320,2,0,L|232:328,1,37.4999976158143,0|0,0:0|0:0,0:0:0:0:
265,322,169838,2,0,L|288:366,2,37.4999976158143,2|0|0,0:0|0:0|0:0,0:0:0:0:
302,305,170614,1,0,0:0:0:0:
343,306,170872,2,0,L|380:319,2,37.4999976158143,8|0|0,0:1|0:0|0:0,0:0:0:0:
352,223,171907,5,2,0:0:0:0:
362,183,172166,2,0,L|352:139,1,37.4999976158143,0|0,0:0|0:0,0:0:0:0:
317,72,172942,1,8,0:1:0:0:
235,57,173459,2,0,L|206:81,1,37.4999976158143,0|0,0:0|0:0,0:0:0:0:
171,104,173976,1,2,0:0:0:0:
133,88,174234,2,0,L|121:38,2,37.4999976158143,0|0|0,0:0|0:0|0:0,0:0:0:0:
112,123,175011,2,0,L|100:167,1,37.4999976158143,8|0,0:1|0:0,0:0:0:0:
80,194,175528,2,0,L|93:269,1,74.9999952316285,0|2,0:0|0:0,0:0:0:0:
89,309,176304,5,0,0:0:0:0:
9,214,177080,1,8,0:1:0:0:
28,133,177598,2,0,L|58:107,1,37.4999976158143,0|0,0:0|0:0,0:0:0:0:
74,71,178115,1,2,0:0:0:0:
107,47,178374,2,0,P|131:83|136:118,1,74.9999952316285
127,154,179150,1,8,0:1:0:0:
163,228,179667,2,0,L|167:272,1,37.4999976158143,0|0,0:0|0:0,0:0:0:0:
183,302,180184,6,0,P|235:251|222:180,1,149.999990463257,6|8,0:0|0:1,0:0:0:0:
327,52,182254,1,2,0:0:0:0:
314,91,182512,2,0,P|314:131|335:168,1,74.9999952316285,8|0,0:1|0:0,0:0:0:0:
356,192,183288,2,0,P|359:231|344:276,1,74.9999952316285,8|4,0:3|0:3,0:0:0:0:
413,317,184323,6,0,P|431:282|441:245,1,74.9999952316285,4|0,0:0|0:0,0:0:0:0:
449,165,185358,2,0,P|445:124|434:91,1,74.9999952316285,8|0,0:1|0:0,0:0:0:0:
409,59,186134,1,0,0:0:0:0:
368,52,186392,1,2,0:0:0:0:
343,84,186650,2,0,L|345:133,2,37.4999976158143,0|0|0,0:0|0:0|0:0,0:0:0:0:
313,55,187427,1,8,0:1:0:0:
231,40,187944,2,0,L|217:126,1,74.9999952316285,0|2,0:0|0:0,0:0:0:0:
224,154,188720,6,0,P|239:208|239:270,1,112.499992847443,0|8,0:0|0:1,0:0:0:0:
191,330,190013,1,0,0:0:0:0:
135,268,190531,2,0,L|122:225,2,37.4999976158143,2|0|0,0:0|0:0|0:0,0:0:0:0:
114,304,191307,1,0,0:0:0:0:
77,323,191565,2,0,L|41:310,2,37.4999976158143,8|0|0,0:1|0:0|0:0,0:0:0:0:
157,341,192600,5,2,0:0:0:0:
189,315,192859,2,0,P|191:257|219:197,1,112.499992847443,0|8,0:0|0:1,0:0:0:0:
272,151,194152,1,0,0:0:0:0:
352,134,194669,1,2,0:0:0:0:
389,150,194928,2,0,L|409:198,2,37.4999976158143,0|0|0,0:0|0:0|0:0,0:0:0:0:
421,124,195704,2,0,P|415:79|397:37,1,74.9999952316285,8|0,0:1|0:0,0:0:0:0:
327,22,196739,6,0,L|326:67,2,37.4999976158143,2|0|0,0:0|0:0|0:0,0:0:0:0:
245,36,197773,2,0,L|250:80,2,37.4999976158143,8|0|0,0:1|0:0|0:0,0:0:0:0:
166,62,198808,2,0,L|180:116,2,37.4999976158143,2|0|0,0:0|0:0|0:0,0:0:0:0:
125,53,199584,1,0,0:0:0:0:
94,81,199843,2,0,L|102:136,2,37.4999976158143,8|0|0,0:1|0:0|0:0,0:0:0:0:
22,122,200877,6,0,P|34:194|95:236,1,149.999990463257,4|8,0:0|0:0,0:0:0:0:
134,307,202429,2,0,L|164:281,1,37.4999976158143,0|0,0:0|0:0,0:0:0:0:
202,271,202947,2,0,P|255:253|325:268,2,112.499992847443,2|0|0,0:0|0:0|0:0,0:0:0:0:
261,329,205016,6,0,P|189:344|128:304,1,149.999990463257,4|8,0:0|0:1,0:0:0:0:
127,221,206568,2,0,L|148:191,1,37.4999976158143,0|0,0:0|0:0,0:0:0:0:
150,149,207085,1,2,0:0:0:0:
154,108,207344,2,0,P|177:79|218:54,1,74.9999952316285,8|0,0:1|0:0,0:0:0:0:
231,23,208120,2,0,P|271:24|317:41,1,74.9999952316285,4|8,0:3|0:3,0:0:0:0:
386,23,209155,6,0,P|435:80|455:152,1,149.999990463257,4|8,0:0|0:1,0:0:0:0:
457,233,210707,2,0,L|428:257,1,37.4999976158143,0|0,0:0|0:0,0:0:0:0:
430,298,211224,2,0,P|376:308|334:345,1,112.499992847443,2|0,0:0|0:0,0:0:0:0:
293,334,212259,2,0,P|259:310|222:305,1,74.9999952316285,8|0,0:1|0:0,0:0:0:0:
144,304,213293,6,0,P|108:314|77:336,1,74.9999952316285,4|2,0:0|0:0,0:0:0:0:
19,277,214328,1,2,0:0:0:0:
39,241,214587,2,0,P|77:232|127:235,1,74.9999952316285,4|0,0:3|0:0,0:0:0:0:
140,201,215363,2,0,L|129:156,2,37.4999976158143,0|8|4,0:0|0:3|0:3,0:0:0:0:
225,230,216397,1,0,0:0:0:0:
307,195,216915,1,2,0:0:0:0:
319,151,217173,1,2,0:0:0:0:
298,111,217432,6,0,P|226:126|165:86,1,149.999990463257,6|8,0:0|0:1,0:0:0:0:
32,60,219243,1,0,0:0:0:0:
53,99,219501,2,0,P|66:133|69:185,1,74.9999952316285,2|0,0:0|0:0,0:0:0:0:
68,216,220277,2,0,L|48:257,1,37.4999976158143,0|8,0:0|0:1,0:0:0:0:
55,339,221053,2,0,L|93:330,1,37.4999976158143,0|0,0:0|0:0,0:0:0:0:
127,302,221571,6,0,P|188:341|259:326,1,149.999990463257,4|8,0:0|0:1,0:0:0:0:
296,242,223123,2,0,L|285:197,1,37.4999976158143,0|0,0:0|0:0,0:0:0:0:
313,169,223640,2,0,L|317:123,2,37.4999976158143,2|0|0,0:0|0:0|0:0,0:0:0:0:
352,190,224416,2,0,L|393:196,1,37.4999976158143,0|8,0:0|0:1,0:0:0:0:
486,43,225709,6,0,P|414:28|353:68,1,149.999990463257,2|8,0:0|0:1,0:0:0:0:
301,141,227261,2,0,L|309:177,1,37.4999976158143,0|0,0:0|0:0,0:0:0:0:
322,220,227779,2,0,L|313:256,1,37.4999976158143,2|0,0:0|0:0,0:0:0:0:
224,272,228555,2,0,L|232:308,1,37.4999976158143,0|8,0:0|0:1,0:0:0:0:
142,318,229331,2,0,L|131:363,1,37.4999976158143,0|0,0:0|0:0,0:0:0:0:
93,376,229848,6,0,P|72:342|72:298,1,74.9999952316285,4|0,0:0|0:0,0:0:0:0:
85,265,230624,1,0,0:0:0:0:
112,229,230883,2,0,P|140:221|170:218,2,56.2499964237214,4|0|0,0:0|0:0|0:0,0:0:0:0:
82,195,231917,2,0,L|71:150,1,37.4999976158143,0|8,0:0|0:1,0:0:0:0:
88,115,232435,1,0,0:0:0:0:
62,28,232952,1,4,0:3:0:0:
149,48,233469,1,8,0:1:0:0:
207,116,233987,6,0,P|268:155|339:140,1,149.999990463257,4|8,0:0|0:1,0:0:0:0:
415,89,235539,2,0,L|404:44,1,37.4999976158143,0|0,0:0|0:0,0:0:0:0:
450,47,236056,2,0,L|461:2,2,37.4999976158143,2|0|0,0:0|0:0|0:0,0:0:0:0:
487,72,236832,1,0,0:0:0:0:
496,116,237091,2,0,P|494:154|474:185,1,74.9999952316285,8|0,0:1|0:0,0:0:0:0:
387,205,238125,6,0,P|315:190|254:230,1,149.999990463257,4|8,0:0|0:1,0:0:0:0:
229,316,239677,2,0,L|237:352,1,37.4999976158143,0|0,0:0|0:0,0:0:0:0:
281,346,240194,2,0,L|316:375,2,37.4999976158143,2|0|0,0:0|0:0|0:0,0:0:0:0:
314,315,240971,1,0,0:0:0:0:
357,301,241230,2,0,P|396:299|438:317,1,74.9999952316285,8|0,0:1|0:0,0:0:0:0:
460,342,242005,1,0,0:0:0:0:
502,325,242264,6,0,P|503:288|489:236,1,74.9999952316285,4|0,0:0|0:0,0:0:0:0:
462,225,243040,1,0,0:0:0:0:
466,180,243299,1,8,0:1:0:0:
461,90,243816,2,0,L|472:45,1,37.4999976158143,0|0,0:0|0:0,0:0:0:0:
424,50,244333,2,0,L|413:5,2,37.4999976158143,2|0|0,0:0|0:0|0:0,0:0:0:0:
382,68,245110,1,0,0:0:0:0:
342,46,245368,2,0,P|304:42|266:55,1,74.9999952316285,8|0,0:1|0:0,0:0:0:0:
249,94,246144,1,0,0:0:0:0:
212,120,246403,6,0,P|260:146|316:142,1,112.499992847443,4|0,0:0|0:0,0:0:0:0:
360,155,247437,1,8,0:1:0:0:
201,239,248472,2,0,P|129:254|68:214,1,149.999990463257
128,45,250541,5,2,0:0:0:0:
122,121,251059,1,0,0:0:0:0:
190,151,251576,1,0,0:0:0:0:
240,95,252093,1,0,0:0:0:0:
203,30,252610,1,0,0:0:0:0:
380,271,254680,5,0,0:0:0:0:
343,206,255197,1,0,0:0:0:0:
393,150,255714,1,0,0:0:0:0:
461,180,256231,1,0,0:0:0:0:
455,256,256749,1,0,0:0:0:0:
394,350,257525,2,0,L|436:348,2,37.4999976158143
358,338,258301,1,0,0:0:0:0:
282,335,258818,5,2,0:0:0:0:
288,259,259336,1,0,0:0:0:0:
220,229,259853,1,0,0:0:0:0:
170,285,260370,1,0,0:0:0:0:
207,350,260887,1,0,0:0:0:0:
440,161,262957,5,0,0:0:0:0:
365,146,263474,1,0,0:0:0:0:
359,70,263992,1,0,0:0:0:0:
427,40,264509,1,0,0:0:0:0:
477,96,265026,1,0,0:0:0:0:
253,120,266578,2,0,L|242:75,1,37.4999976158143,0|0,0:0|0:0,0:0:0:0:
214,59,267096,5,2,0:0:0:0:
289,56,267613,1,0,0:0:0:0:
358,85,268130,1,0,0:0:0:0:
401,146,268647,1,0,0:0:0:0:
137,246,271234,5,0,0:0:0:0:
94,307,271751,1,0,0:0:0:0:
25,336,272268,1,0,0:0:0:0:
35,261,272785,1,0,0:0:0:0:
256,192,273304,12,0,279512,3:0:0:0:
