osu file format v12

[General]
AudioFilename: If It Takes A Lifetime.mp3
AudioLeadIn: 1996
PreviewTime: 27926
Countdown: 0
SampleSet: Soft
StackLeniency: 0.7
Mode: 0
LetterboxInBreaks: 1

[Editor]
DistanceSpacing: 0.8
BeatDivisor: 4
GridSize: 4

[Metadata]
Title:If It Takes A Lifetime
TitleUnicode:If It Takes A Lifetime
Artist:Matthew Taranto
ArtistUnicode:Matthew Taranto
Creator:CoroQuetz
Version:Normal
Source:Brawl in the Family
Tags:super mario bros 64 dire docks overworld theme bowser castle princess peach yoshi's island dialgadu77
BeatmapID:259869
BeatmapSetID:86077

[Difficulty]
HPDrainRate:4
CircleSize:4
OverallDifficulty:4
ApproachRate:4
SliderMultiplier:1
SliderTickRate:1

[Events]
//Background and Video events
0,0,"350montage.jpg",0,0
Video,0,"My Movie.avi"
//Break Periods
2,2620,3874
2,25819,26606
2,59398,62069
//Storyboard Layer 0 (Background)
//Storyboard Layer 1 (Fail)
//Storyboard Layer 2 (Pass)
//Storyboard Layer 3 (Foreground)
//Storyboard Sound Samples
//Background Colour Transformations
3,100,163,162,255

[TimingPoints]
339.149065440277,346.820809248555,4,2,0,50,1,0
5194,342.857142857143,4,2,0,50,1,0
9308,346.820809248555,4,2,0,50,1,0
10521,279.06976744186,4,2,0,50,1,1
17218,289.855072463768,4,2,0,50,1,0
20696,307.692307692308,4,2,0,50,1,1
27926,480,4,2,0,50,1,0
37526,375,4,2,0,50,1,0
40526,333.333333333333,4,2,0,50,1,0
41859,357.142857142857,4,2,0,50,1,0
44001,352.941176470588,4,2,0,50,1,0
44706,365.853658536585,4,2,0,50,1,0
47998,400,4,2,0,50,1,0
59198,441.176470588235,4,2,0,50,1,0
63389,545.454545454546,4,2,0,50,1,0
65979,769.230769230769,4,2,0,50,1,0
69248,857.142857142857,4,2,0,50,1,0
70962,631.578947368421,4,2,0,50,1,0
71593,705.882352941176,4,2,0,50,1,0

[Colours]
Combo1 : 255,255,255
Combo2 : 130,130,220

[HitObjects]
64,208,339,2,0,L|88:160,1,50
168,144,859,1,0,0:0:0:0:
240,184,1206,2,0,L|288:224,1,50
348,176,1726,1,0,0:0:0:0:
472,80,2420,1,14,0:0:0:0:
400,272,5194,6,0,P|360:304|304:304,1,100
240,272,5879,1,2,0:0:0:0:
164,240,6222,1,0,0:0:0:0:
92,200,6565,2,0,P|44:112|124:96,1,200,0|2,0:0|0:0,0:0:0:0:
280,72,7936,6,0,L|376:112,1,100
368,192,8622,1,2,0:0:0:0:
328,264,8965,1,0,0:0:0:0:
248,280,9308,2,0,P|112:264|112:224,1,200,0|2,0:0|0:0,0:0:0:0:
120,88,10521,5,8,0:0:0:0:
192,56,10800,1,0,0:0:0:0:
264,88,11079,1,8,0:0:0:0:
336,56,11358,1,0,0:0:0:0:
408,88,11637,2,0,P|456:168|400:256,1,200,8|0,0:0|0:0,0:0:0:0:
344,304,12474,1,8,0:0:0:0:
264,304,12753,1,4,0:0:0:0:
256,192,12893,12,0,13869,0:0:0:0:
32,192,14986,6,0,L|88:104,1,100
168,104,15544,2,0,L|216:192,1,100
296,192,16102,2,8,L|352:104,1,100
432,104,16660,2,8,L|480:192,1,100
464,264,17218,6,0,P|376:352|312:336,1,200
152,336,18377,2,0,P|96:336|64:216,1,200
216,176,19536,2,0,L|272:80,1,100
344,88,20116,1,0,0:0:0:0:
392,232,20696,6,0,L|344:288,1,50
280,272,21157,1,0,0:0:0:0:
200,272,21465,2,0,L|160:232,1,50,0|0,0:0|0:0,0:0:0:0:
104,184,21926,2,0,L|64:240,1,50
32,288,22388,2,0,L|-8:344,1,50
16,168,23157,6,0,L|56:112,1,50
96,64,23619,1,0,0:0:0:0:
168,112,23926,2,0,L|216:56,1,50
256,192,24388,12,0,25619,0:0:0:0:
8,184,27926,6,0,L|48:128,1,50
64,112,28406,1,0,0:0:0:0:
96,88,28646,1,0,0:0:0:0:
128,72,28886,1,0,0:0:0:0:
168,64,29126,1,0,0:0:0:0:
208,80,29366,1,0,0:0:0:0:
240,104,29606,1,0,0:0:0:0:
264,136,29846,1,0,0:0:0:0:
312,200,30326,1,0,0:0:0:0:
360,264,30806,1,0,0:0:0:0:
408,200,31286,1,0,0:0:0:0:
256,192,31766,12,0,33686,0:0:0:0:
72,200,34646,5,0,0:0:0:0:
232,216,35606,2,0,P|288:208|320:168,1,100
376,128,36566,2,0,L|440:224,1,100
384,304,37713,6,0,L|312:288,2,50
360,224,38463,2,0,L|288:208,2,50
336,144,39213,2,0,L|264:128,2,50
320,64,39963,2,0,L|248:48,2,50
232,56,40692,2,0,L|160:72,2,50,0|0|0,0:0|0:0|0:0,0:0:0:0:
232,136,41359,2,0,L|160:152,2,50,0|0|0,0:0|0:0|0:0,0:0:0:0:
240,216,42037,6,0,L|168:232,2,50,0|0|0,0:0|0:0|0:0,0:0:0:0:
248,296,42751,2,0,L|176:312,2,50,0|0|0,0:0|0:0|0:0,0:0:0:0:
192,232,43466,2,0,L|120:248,2,50,0|0|0,0:0|0:0|0:0,0:0:0:0:
144,168,44177,2,0,L|72:184,2,50,0|0|0,0:0|0:0|0:0,0:0:0:0:
96,104,44797,6,0,L|32:120,2,50,0|0|0,0:0|0:0|0:0,0:0:0:0:
48,40,45529,2,0,L|-16:56,2,50
112,40,46169,1,2,0:0:0:0:
256,192,47998,12,0,49198,0:0:0:0:
256,192,49598,5,4,0:0:0:0:
256,192,51198,12,0,52398,0:0:0:0:
256,192,52798,5,4,0:0:0:0:
256,192,54398,12,0,55598,0:0:0:0:
256,192,55998,5,4,0:0:0:0:
256,192,57598,12,0,58798,0:0:0:0:
256,192,59198,5,4,0:0:0:0:
96,160,63389,5,0,0:0:0:0:
112,192,63661,1,0,0:0:0:0:
144,216,63934,1,0,0:0:0:0:
232,224,64479,1,2,0:0:0:0:
440,184,65979,5,0,0:0:0:0:
392,120,66748,1,0,0:0:0:0:
320,96,67517,1,2,0:0:0:0:
160,128,69248,5,0,0:0:0:0:
200,208,70105,1,0,0:0:0:0:
272,288,70962,2,0,L|304:320,2,25
280,256,71593,2,0,L|320:200,2,50
232,216,72828,2,0,L|176:160,2,75
256,192,74416,12,0,75828,0:0:0:0:
256,192,77240,5,2,0:0:0:0:
