osu file format v12

[General]
AudioFilename: If It Takes A Lifetime.mp3
AudioLeadIn: 1996
PreviewTime: 27926
Countdown: 0
SampleSet: Soft
StackLeniency: 0.7
Mode: 0
LetterboxInBreaks: 1

[Editor]
DistanceSpacing: 0.8
BeatDivisor: 4
GridSize: 4

[Metadata]
Title:If It Takes A Lifetime
TitleUnicode:If It Takes A Lifetime
Artist:Matthew Taranto
ArtistUnicode:Matthew Taranto
Creator:CoroQuetz
Version:Easy
Source:Brawl in the Family
Tags:super mario bros 64 dire docks overworld theme bowser castle princess peach yoshi's island dialgadu77
BeatmapID:236020
BeatmapSetID:86077

[Difficulty]
HPDrainRate:2
CircleSize:3
OverallDifficulty:2
ApproachRate:2
SliderMultiplier:0.7
SliderTickRate:1

[Events]
//Background and Video events
0,0,"350montage.jpg",0,0
Video,0,"My Movie.avi"
//Break Periods
2,2620,3634
2,24587,26366
2,59398,61829
//Storyboard Layer 0 (Background)
//Storyboard Layer 1 (Fail)
//Storyboard Layer 2 (Pass)
//Storyboard Layer 3 (Foreground)
//Storyboard Sound Samples
//Background Colour Transformations
3,100,163,162,255

[TimingPoints]
339.149065440277,346.820809248555,4,2,0,50,1,0
5194,342.857142857143,4,2,0,50,1,0
9308,346.820809248555,4,2,0,50,1,0
10521,279.06976744186,4,2,0,50,1,1
17218,289.855072463768,4,2,0,50,1,0
20696,307.692307692308,4,2,0,50,1,1
27926,480,4,2,0,50,1,0
37526,375,4,2,0,50,1,0
40526,333.333333333333,4,2,0,50,1,0
41859,357.142857142857,4,2,0,50,1,0
44001,352.941176470588,4,2,0,50,1,0
44706,365.853658536585,4,2,0,50,1,0
47998,400,4,2,0,50,1,0
59198,441.176470588235,4,2,0,50,1,0
63389,545.454545454546,4,2,0,50,1,0
65979,769.230769230769,4,2,0,50,1,0
69248,857.142857142857,4,2,0,50,1,0
70962,631.578947368421,4,2,0,50,1,0
71593,705.882352941176,4,2,0,50,1,0

[Colours]
Combo1 : 255,255,255
Combo2 : 130,130,220

[HitObjects]
56,184,339,2,0,B|96:272|144:296,2,140
168,160,2420,1,10,0:0:0:0:
72,112,5194,6,0,P|120:64|184:96,3,140,0|2|0|2,0:0|0:0|0:0|0:0,0:0:0:0:
264,160,7936,6,0,P|312:208|376:176,2,140
372,184,10001,1,2,0:0:0:0:
312,272,10521,2,8,L|232:272,1,70
184,272,11079,2,8,L|104:272,1,70
56,272,11637,2,8,L|56:200,2,70
256,192,12753,12,0,13869,0:0:0:0:
16,176,14986,6,0,L|80:136,3,70
104,184,16102,2,0,L|168:144,3,70
208,120,17218,6,0,P|256:64|312:96,1,140
320,200,18377,2,0,P|368:256|424:224,1,140
384,336,19536,2,8,L|240:336,1,140
152,280,20696,6,8,L|80:152,1,140
152,72,21926,1,8,0:0:0:0:
264,88,22542,1,8,0:0:0:0:
224,192,23157,6,8,L|368:240,1,140
464,280,24387,1,6,0:0:0:0:
64,192,27926,6,0,P|112:112|160:96,1,140
284,96,29846,2,0,P|348:128|388:192,1,140
304,280,31766,2,0,P|232:312|176:288,2,140
216,192,34646,1,0,0:0:0:0:
144,80,35606,2,0,P|208:64|280:88,2,140
96,200,38276,5,0,0:0:0:0:
168,288,39026,1,0,0:0:0:0:
280,304,39776,1,0,0:0:0:0:
392,248,40526,1,4,0:0:0:0:
464,160,41192,1,4,0:0:0:0:
408,72,41859,5,4,0:0:0:0:
296,80,42573,1,0,0:0:0:0:
200,136,43287,1,0,0:0:0:0:
88,112,44001,1,0,0:0:0:0:
16,192,44706,1,4,0:0:0:0:
96,272,45437,1,4,0:0:0:0:
184,200,46169,1,4,0:0:0:0:
256,192,47998,12,0,48798,0:0:0:0:
256,192,49598,5,4,0:0:0:0:
256,192,51198,12,0,51998,0:0:0:0:
256,192,52798,5,4,0:0:0:0:
256,192,54398,12,0,55198,0:0:0:0:
256,192,55998,5,4,0:0:0:0:
256,192,57598,12,0,58398,0:0:0:0:
256,192,59198,5,4,0:0:0:0:
304,144,63389,6,0,L|336:112,2,35,2|0|2,0:0|0:0|0:0,0:0:0:0:
264,184,64479,1,2,0:0:0:0:
152,288,65979,1,0,0:0:0:0:
96,288,66748,1,0,0:0:0:0:
48,256,67517,1,2,0:0:0:0:
88,152,69248,5,0,0:0:0:0:
136,128,70105,1,0,0:0:0:0:
248,80,71593,2,0,L|288:144,1,70
296,176,72769,2,0,L|240:280,1,116.666666666667
256,192,74416,12,0,76534,0:0:0:0:
256,192,77240,5,4,0:0:0:0:
