osu file format v12

[General]
AudioFilename: If It Takes A Lifetime.mp3
AudioLeadIn: 1996
PreviewTime: 27926
Countdown: 0
SampleSet: Normal
StackLeniency: 0.7
Mode: 3
LetterboxInBreaks: 1
SpecialStyle: 0
WidescreenStoryboard: 0

[Editor]
DistanceSpacing: 0.8
BeatDivisor: 16
GridSize: 8

[Metadata]
Title:If It Takes A Lifetime
TitleUnicode:If It Takes A Lifetime
Artist:Matthew Taranto
ArtistUnicode:Matthew Taranto
Creator:CoroQuetz
Version:Allegro
Source:Brawl in the Family
Tags:super mario bros 64 dire docks overworld theme bowser castle princess peach yoshi's island dialgadu77
BeatmapID:236994
BeatmapSetID:86077

[Difficulty]
HPDrainRate:8
CircleSize:7
OverallDifficulty:8
ApproachRate:2
SliderMultiplier:0.7
SliderTickRate:1

[Events]
//Background and Video events
0,0,"350montage.jpg",0,0
Video,0,"My Movie.avi"
//Break Periods
2,2620,3519
2,24639,26366
//Storyboard Layer 0 (Background)
//Storyboard Layer 1 (Fail)
//Storyboard Layer 2 (Pass)
//Storyboard Layer 3 (Foreground)
//Storyboard Sound Samples
//Background Colour Transformations
3,100,163,162,255

[TimingPoints]
339.149065440277,346.820809248555,4,1,0,5,1,0
5194,342.857142857143,4,1,0,5,1,0
9308,346.820809248555,4,1,0,5,1,0
10521,279.06976744186,4,1,0,5,1,1
17218,289.855072463768,4,1,0,5,1,0
20696,307.692307692308,4,1,0,5,1,1
27926,480,4,1,0,5,1,0
37526,375,4,1,0,5,1,0
40526,333.333333333333,4,1,0,5,1,0
41859,357.142857142857,4,1,0,5,1,0
44001,352.941176470588,4,1,0,5,1,0
44706,365.853658536585,4,1,0,5,1,0
47998,400,4,1,0,5,1,0
59198,441.176470588235,4,1,0,5,1,0
63389,545.454545454546,4,1,0,5,1,0
65979,769.230769230769,4,1,0,5,1,0
69248,857.142857142857,4,1,0,5,1,0
70962,631.578947368421,4,1,0,5,1,0
71593,705.882352941176,4,1,0,5,1,0

[Colours]
Combo1 : 255,255,255
Combo2 : 130,130,220

[HitObjects]
256,192,339,1,0,0:0:0:0:
109,192,339,1,0,0:0:0:0:
256,192,512,1,0,0:0:0:0:
109,192,512,1,0,0:0:0:0:
256,192,859,1,0,0:0:0:0:
109,192,859,1,0,0:0:0:0:
109,192,1148,1,0,0:0:0:0:
256,192,1321,1,0,0:0:0:0:
402,192,1697,1,0,0:0:0:0:
256,192,1697,1,0,0:0:0:0:
402,192,2391,1,0,0:0:0:0:
256,192,2391,1,0,0:0:0:0:
109,192,2391,1,0,0:0:0:0:
109,192,5136,5,0,0:0:0:0:
256,192,5194,1,0,0:0:0:0:
109,192,5308,1,0,0:0:0:0:
475,192,5308,128,0,5594:0:0:0:0:
256,192,5594,1,0,0:0:0:0:
329,192,5908,1,0,0:0:0:0:
475,192,5908,1,0,0:0:0:0:
402,192,5908,128,0,6251:0:0:0:0:
475,192,6251,128,0,6565:0:0:0:0:
402,192,6565,128,0,6908:0:0:0:0:
182,192,6565,1,0,0:0:0:0:
256,192,7251,128,0,7594:0:0:0:0:
329,192,7251,1,0,0:0:0:0:
475,192,7251,1,0,0:0:0:0:
329,192,7936,128,0,8279:0:0:0:0:
182,192,7936,1,0,0:0:0:0:
475,192,7936,1,0,0:0:0:0:
109,192,8279,1,0,0:0:0:0:
109,192,8622,128,0,8879:0:0:0:0:
182,192,8879,1,0,0:0:0:0:
329,192,8908,128,0,9308:0:0:0:0:
256,192,9308,128,0,9654:0:0:0:0:
109,192,9308,1,0,0:0:0:0:
109,192,10001,128,0,10348:0:0:0:0:
256,192,10001,1,0,0:0:0:0:
402,192,10001,1,0,0:0:0:0:
109,192,10435,1,0,0:0:0:0:
36,192,10567,1,0,0:0:0:0:
182,192,10567,1,0,0:0:0:0:
329,192,10567,1,0,0:0:0:0:
36,192,10823,1,0,0:0:0:0:
329,192,10823,1,0,0:0:0:0:
475,192,10823,1,0,0:0:0:0:
109,192,11102,1,0,0:0:0:0:
182,192,11102,1,0,0:0:0:0:
329,192,11102,1,0,0:0:0:0:
109,192,11381,1,0,0:0:0:0:
329,192,11381,1,0,0:0:0:0:
475,192,11381,1,0,0:0:0:0:
182,192,11683,1,0,0:0:0:0:
329,192,11683,1,0,0:0:0:0:
36,192,11986,1,0,0:0:0:0:
182,192,12125,1,0,0:0:0:0:
182,192,12427,1,0,0:0:0:0:
329,192,12427,1,0,0:0:0:0:
329,192,12544,1,0,0:0:0:0:
475,192,12544,1,0,0:0:0:0:
36,192,12823,1,0,0:0:0:0:
182,192,12823,1,0,0:0:0:0:
329,192,12823,1,0,0:0:0:0:
109,192,13241,1,0,0:0:0:0:
182,192,13497,1,0,0:0:0:0:
256,192,13637,1,0,0:0:0:0:
182,192,13753,1,0,0:0:0:0:
36,192,13939,1,0,0:0:0:0:
109,192,14334,1,0,0:0:0:0:
182,192,14614,1,0,0:0:0:0:
256,192,14753,1,0,0:0:0:0:
182,192,14869,1,0,0:0:0:0:
36,192,15032,1,0,0:0:0:0:
182,192,15032,1,0,0:0:0:0:
182,192,15172,1,0,0:0:0:0:
182,192,15311,1,0,0:0:0:0:
109,192,15451,1,0,0:0:0:0:
182,192,15451,1,0,0:0:0:0:
329,192,15590,1,0,0:0:0:0:
182,192,15707,1,0,0:0:0:0:
256,192,15822,1,0,0:0:0:0:
329,192,15823,1,0,0:0:0:0:
182,192,15962,1,0,0:0:0:0:
36,192,16101,1,0,0:0:0:0:
329,192,16102,1,0,0:0:0:0:
329,192,16265,1,0,0:0:0:0:
329,192,16404,1,0,0:0:0:0:
109,192,16544,1,0,0:0:0:0:
329,192,16544,1,0,0:0:0:0:
475,192,16683,1,0,0:0:0:0:
182,192,16799,1,0,0:0:0:0:
329,192,16800,1,0,0:0:0:0:
256,192,16938,1,0,0:0:0:0:
475,192,16939,1,0,0:0:0:0:
182,192,17055,1,0,0:0:0:0:
329,192,17055,1,0,0:0:0:0:
36,192,17217,1,0,0:0:0:0:
182,192,17218,1,0,0:0:0:0:
256,192,17362,1,0,0:0:0:0:
182,192,17652,128,0,17942:0:0:0:0:
329,192,17652,1,0,0:0:0:0:
256,192,17942,1,0,0:0:0:0:
182,192,18087,1,0,0:0:0:0:
109,192,18401,1,0,0:0:0:0:
256,192,18401,1,0,0:0:0:0:
329,192,18570,1,0,0:0:0:0:
256,192,18860,128,0,19150:0:0:0:0:
402,192,18860,1,0,0:0:0:0:
329,192,19150,1,0,0:0:0:0:
402,192,19271,1,0,0:0:0:0:
475,192,19416,1,0,0:0:0:0:
182,192,19560,1,0,0:0:0:0:
256,192,19560,128,0,19850:0:0:0:0:
402,192,19560,128,0,19850:0:0:0:0:
329,192,19850,1,0,0:0:0:0:
475,192,20140,128,0,20430:0:0:0:0:
329,192,20140,128,0,20430:0:0:0:0:
402,192,20140,1,0,0:0:0:0:
109,192,20747,1,0,0:0:0:0:
256,192,20747,1,0,0:0:0:0:
36,192,20747,1,0,0:0:0:0:
109,192,20901,1,0,0:0:0:0:
256,192,20901,1,0,0:0:0:0:
182,192,21080,1,0,0:0:0:0:
109,192,21234,1,0,0:0:0:0:
256,192,21234,1,0,0:0:0:0:
402,192,21388,1,0,0:0:0:0:
109,192,21542,1,0,0:0:0:0:
256,192,21542,1,0,0:0:0:0:
182,192,21696,1,0,0:0:0:0:
329,192,21696,1,0,0:0:0:0:
402,192,21978,1,0,0:0:0:0:
36,192,21978,1,0,0:0:0:0:
329,192,22131,1,0,0:0:0:0:
182,192,22285,1,0,0:0:0:0:
182,192,22439,1,0,0:0:0:0:
109,192,22593,1,0,0:0:0:0:
329,192,22593,1,0,0:0:0:0:
182,192,22849,1,0,0:0:0:0:
36,192,23208,1,0,0:0:0:0:
109,192,23208,1,0,0:0:0:0:
256,192,23208,1,0,0:0:0:0:
109,192,23362,1,0,0:0:0:0:
256,192,23362,1,0,0:0:0:0:
182,192,23490,1,0,0:0:0:0:
109,192,23644,1,0,0:0:0:0:
256,192,23644,1,0,0:0:0:0:
109,192,23824,1,0,0:0:0:0:
256,192,23824,1,0,0:0:0:0:
329,192,23824,1,0,0:0:0:0:
182,192,24080,1,0,0:0:0:0:
329,192,24080,1,0,0:0:0:0:
182,192,24413,1,0,0:0:0:0:
475,192,24439,1,0,0:0:0:0:
36,192,27926,5,0,0:0:0:0:
182,192,28166,1,0,0:0:0:0:
36,192,28166,1,0,0:0:0:0:
256,192,28436,1,0,0:0:0:0:
402,192,28436,128,0,28676:0:0:0:0:
329,192,28676,1,0,0:0:0:0:
402,192,28916,1,0,0:0:0:0:
475,192,29156,1,0,0:0:0:0:
402,192,29366,1,0,0:0:0:0:
256,192,29366,128,0,29606:0:0:0:0:
329,192,29606,1,0,0:0:0:0:
256,192,29876,1,0,0:0:0:0:
36,192,29876,1,0,0:0:0:0:
182,192,30086,1,0,0:0:0:0:
182,192,30326,1,0,0:0:0:0:
256,192,30326,128,0,30566:0:0:0:0:
36,192,30776,1,0,0:0:0:0:
475,192,31286,1,0,0:0:0:0:
36,192,31766,128,0,32006:0:0:0:0:
182,192,31766,128,0,32006:0:0:0:0:
109,192,31766,1,0,0:0:0:0:
256,192,32006,1,0,0:0:0:0:
402,192,32216,1,0,0:0:0:0:
36,192,32486,128,0,32726:0:0:0:0:
182,192,32486,128,0,32726:0:0:0:0:
402,192,32486,128,0,32726:0:0:0:0:
329,192,33026,1,0,0:0:0:0:
182,192,33266,1,0,0:0:0:0:
256,192,33536,1,0,0:0:0:0:
36,192,33686,1,0,0:0:0:0:
182,192,33926,1,0,0:0:0:0:
329,192,34166,1,0,0:0:0:0:
402,192,34406,1,0,0:0:0:0:
475,192,34676,1,0,0:0:0:0:
329,192,34676,128,0,34916:0:0:0:0:
182,192,34676,128,0,34916:0:0:0:0:
329,192,35426,1,0,0:0:0:0:
256,192,35666,1,0,0:0:0:0:
36,192,35666,128,0,35906:0:0:0:0:
329,192,35906,1,0,0:0:0:0:
402,192,36146,1,0,0:0:0:0:
109,192,36146,1,0,0:0:0:0:
256,192,36386,1,0,0:0:0:0:
36,192,36626,1,0,0:0:0:0:
36,192,36866,1,0,0:0:0:0:
182,192,37046,1,0,0:0:0:0:
36,192,37286,1,0,0:0:0:0:
36,192,37466,1,0,0:0:0:0:
182,192,37666,1,0,0:0:0:0:
329,192,37901,1,0,0:0:0:0:
36,192,37901,1,0,0:0:0:0:
402,192,38088,1,0,0:0:0:0:
36,192,38088,1,0,0:0:0:0:
36,192,38276,1,0,0:0:0:0:
182,192,38463,1,0,0:0:0:0:
329,192,38651,1,0,0:0:0:0:
36,192,38651,1,0,0:0:0:0:
402,192,38838,1,0,0:0:0:0:
36,192,38838,1,0,0:0:0:0:
36,192,39026,128,0,39401:0:0:0:0:
182,192,39026,128,0,39401:0:0:0:0:
256,192,39213,1,0,0:0:0:0:
329,192,39401,1,0,0:0:0:0:
475,192,39588,1,0,0:0:0:0:
36,192,39776,128,0,40151:0:0:0:0:
182,192,39776,128,0,40151:0:0:0:0:
256,192,39963,1,0,0:0:0:0:
329,192,40151,1,0,0:0:0:0:
475,192,40338,1,0,0:0:0:0:
182,192,40526,128,0,40859:0:0:0:0:
36,192,40526,128,0,40859:0:0:0:0:
256,192,40692,1,0,0:0:0:0:
329,192,40859,1,0,0:0:0:0:
475,192,40984,1,0,0:0:0:0:
36,192,41192,128,0,41526:0:0:0:0:
182,192,41192,128,0,41526:0:0:0:0:
256,192,41359,1,0,0:0:0:0:
329,192,41526,1,0,0:0:0:0:
475,192,41651,1,0,0:0:0:0:
109,192,41859,128,0,42216:0:0:0:0:
182,192,42082,1,0,0:0:0:0:
329,192,42216,1,0,0:0:0:0:
475,192,42417,1,0,0:0:0:0:
109,192,42573,128,0,42930:0:0:0:0:
182,192,42751,1,0,0:0:0:0:
329,192,42918,1,0,0:0:0:0:
475,192,43085,1,0,0:0:0:0:
109,192,43287,128,0,43644:0:0:0:0:
182,192,43466,1,0,0:0:0:0:
329,192,43622,1,0,0:0:0:0:
475,192,43778,1,0,0:0:0:0:
109,192,44001,128,0,44111:0:0:0:0:
182,192,44111,1,0,0:0:0:0:
329,192,44265,1,0,0:0:0:0:
475,192,44442,1,0,0:0:0:0:
109,192,44442,1,0,0:0:0:0:
182,192,44618,128,0,44980:0:0:0:0:
256,192,44843,1,0,0:0:0:0:
402,192,45026,1,0,0:0:0:0:
475,192,45186,1,0,0:0:0:0:
182,192,45437,128,0,45803:0:0:0:0:
256,192,45620,1,0,0:0:0:0:
329,192,45780,1,0,0:0:0:0:
402,192,45963,1,0,0:0:0:0:
329,192,46192,1,0,0:0:0:0:
475,192,46192,1,0,0:0:0:0:
36,192,48073,1,0,0:0:0:0:
182,192,48073,1,0,0:0:0:0:
36,192,48198,1,0,0:0:0:0:
182,192,48298,1,0,0:0:0:0:
36,192,48298,1,0,0:0:0:0:
256,192,48398,1,0,0:0:0:0:
109,192,48398,1,0,0:0:0:0:
329,192,48498,1,0,0:0:0:0:
182,192,48498,1,0,0:0:0:0:
402,192,48598,1,0,0:0:0:0:
256,192,48598,1,0,0:0:0:0:
329,192,48698,1,0,0:0:0:0:
475,192,48698,1,0,0:0:0:0:
256,192,48798,1,0,0:0:0:0:
109,192,48798,1,0,0:0:0:0:
182,192,48898,1,0,0:0:0:0:
329,192,48898,1,0,0:0:0:0:
256,192,48998,1,0,0:0:0:0:
402,192,48998,1,0,0:0:0:0:
329,192,49098,1,0,0:0:0:0:
475,192,49098,1,0,0:0:0:0:
402,192,49198,1,0,0:0:0:0:
475,192,49298,1,0,0:0:0:0:
475,192,49573,1,0,0:0:0:0:
329,192,49573,1,0,0:0:0:0:
182,192,49573,1,0,0:0:0:0:
256,192,50398,1,0,0:0:0:0:
36,192,51148,1,0,0:0:0:0:
182,192,51148,1,0,0:0:0:0:
329,192,51148,1,0,0:0:0:0:
36,192,51273,1,0,0:0:0:0:
36,192,51398,1,0,0:0:0:0:
109,192,51498,1,0,0:0:0:0:
36,192,51598,1,0,0:0:0:0:
182,192,51598,1,0,0:0:0:0:
109,192,51698,1,0,0:0:0:0:
256,192,51698,1,0,0:0:0:0:
182,192,51798,1,0,0:0:0:0:
329,192,51798,1,0,0:0:0:0:
256,192,51898,1,0,0:0:0:0:
402,192,51898,1,0,0:0:0:0:
329,192,51998,1,0,0:0:0:0:
475,192,51998,1,0,0:0:0:0:
182,192,52098,1,0,0:0:0:0:
329,192,52098,1,0,0:0:0:0:
256,192,52198,1,0,0:0:0:0:
402,192,52198,1,0,0:0:0:0:
329,192,52298,1,0,0:0:0:0:
475,192,52298,1,0,0:0:0:0:
402,192,52398,1,0,0:0:0:0:
475,192,52498,1,0,0:0:0:0:
475,192,52723,1,0,0:0:0:0:
329,192,52723,1,0,0:0:0:0:
182,192,52723,1,0,0:0:0:0:
36,192,54373,1,0,0:0:0:0:
109,192,54373,1,0,0:0:0:0:
36,192,54598,1,0,0:0:0:0:
36,192,54798,1,0,0:0:0:0:
109,192,54898,1,0,0:0:0:0:
182,192,54998,1,0,0:0:0:0:
256,192,55098,1,0,0:0:0:0:
329,192,55198,1,0,0:0:0:0:
402,192,55298,1,0,0:0:0:0:
109,192,55298,1,0,0:0:0:0:
182,192,55398,1,0,0:0:0:0:
256,192,55498,1,0,0:0:0:0:
329,192,55598,1,0,0:0:0:0:
402,192,55698,1,0,0:0:0:0:
475,192,55798,1,0,0:0:0:0:
475,192,55948,1,0,0:0:0:0:
329,192,55948,1,0,0:0:0:0:
182,192,55948,1,0,0:0:0:0:
475,192,56798,1,0,0:0:0:0:
36,192,57548,1,0,0:0:0:0:
182,192,57548,1,0,0:0:0:0:
36,192,57673,1,0,0:0:0:0:
36,192,57798,1,0,0:0:0:0:
36,192,57898,1,0,0:0:0:0:
182,192,57898,1,0,0:0:0:0:
109,192,57998,1,0,0:0:0:0:
256,192,57998,1,0,0:0:0:0:
182,192,58098,1,0,0:0:0:0:
329,192,58098,1,0,0:0:0:0:
256,192,58198,1,0,0:0:0:0:
402,192,58198,1,0,0:0:0:0:
329,192,58298,1,0,0:0:0:0:
475,192,58298,1,0,0:0:0:0:
36,192,58398,1,0,0:0:0:0:
182,192,58398,1,0,0:0:0:0:
109,192,58498,1,0,0:0:0:0:
256,192,58498,1,0,0:0:0:0:
182,192,58598,1,0,0:0:0:0:
329,192,58598,1,0,0:0:0:0:
256,192,58698,1,0,0:0:0:0:
402,192,58698,1,0,0:0:0:0:
329,192,58798,1,0,0:0:0:0:
475,192,58798,1,0,0:0:0:0:
402,192,58898,1,0,0:0:0:0:
475,192,58998,1,0,0:0:0:0:
475,192,59123,1,0,0:0:0:0:
329,192,59123,1,0,0:0:0:0:
256,192,59123,1,0,0:0:0:0:
36,192,61045,1,0,0:0:0:0:
402,192,63423,1,0,0:0:0:0:
256,192,63423,1,0,0:0:0:0:
329,192,63695,1,0,0:0:0:0:
182,192,63695,1,0,0:0:0:0:
256,192,64002,1,0,0:0:0:0:
402,192,64036,1,0,0:0:0:0:
36,192,64479,1,0,0:0:0:0:
182,192,64479,1,0,0:0:0:0:
329,192,64479,1,0,0:0:0:0:
109,192,65979,1,0,0:0:0:0:
256,192,65979,1,0,0:0:0:0:
402,192,65979,1,0,0:0:0:0:
475,192,66748,1,0,0:0:0:0:
329,192,66748,1,0,0:0:0:0:
182,192,66748,1,0,0:0:0:0:
256,192,67565,1,0,0:0:0:0:
329,192,67613,1,0,0:0:0:0:
475,192,67613,1,0,0:0:0:0:
475,192,69248,1,0,0:0:0:0:
36,192,69248,1,0,0:0:0:0:
182,192,70105,1,0,0:0:0:0:
402,192,70105,1,0,0:0:0:0:
402,192,71040,1,0,0:0:0:0:
329,192,71159,1,0,0:0:0:0:
256,192,71277,1,0,0:0:0:0:
36,192,71554,128,0,72828:0:0:0:0:
329,192,71554,1,0,0:0:0:0:
182,192,71554,1,0,0:0:0:0:
402,192,71945,1,0,0:0:0:0:
256,192,71945,1,0,0:0:0:0:
329,192,72343,1,0,0:0:0:0:
182,192,72343,1,0,0:0:0:0:
109,192,72828,1,0,0:0:0:0:
256,192,72828,1,0,0:0:0:0:
402,192,72828,128,0,74416:0:0:0:0:
182,192,73313,1,0,0:0:0:0:
329,192,73313,1,0,0:0:0:0:
256,192,73843,1,0,0:0:0:0:
109,192,73843,1,0,0:0:0:0:
182,192,74416,1,0,0:0:0:0:
36,192,74416,1,0,0:0:0:0:
475,192,74416,128,0,74769:0:0:0:0:
109,192,74769,1,0,0:0:0:0:
182,192,75034,1,0,0:0:0:0:
256,192,75298,1,0,0:0:0:0:
329,192,75563,1,0,0:0:0:0:
402,192,75828,1,0,0:0:0:0:
329,192,76122,1,0,0:0:0:0:
475,192,76122,1,0,0:0:0:0:
402,192,76445,1,0,0:0:0:0:
109,192,77107,1,0,0:0:0:0:
256,192,77151,1,0,0:0:0:0:
475,192,77151,1,0,0:0:0:0:
