osu file format v12

[General]
AudioFilename: If It Takes A Lifetime.mp3
AudioLeadIn: 1996
PreviewTime: 27926
Countdown: 0
SampleSet: None
StackLeniency: 0.7
Mode: 3
LetterboxInBreaks: 1
SpecialStyle: 0
WidescreenStoryboard: 1

[Editor]
DistanceSpacing: 0.8
BeatDivisor: 16
GridSize: 8

[Metadata]
Title:If It Takes A Lifetime
TitleUnicode:If It Takes A Lifetime
Artist:Matthew Taranto
ArtistUnicode:Matthew Taranto
Creator:CoroQuetz
Version:Adiago
Source:Brawl in the Family
Tags:super mario bros 64 dire docks overworld theme bowser castle princess peach yoshi's island dialgadu77
BeatmapID:330812
BeatmapSetID:86077

[Difficulty]
HPDrainRate:8
CircleSize:7
OverallDifficulty:8
ApproachRate:2
SliderMultiplier:0.7
SliderTickRate:1

[Events]
//Background and Video events
0,0,"350montage.jpg",0,0
Video,0,"My Movie.avi"
//Break Periods
2,2620,3519
2,24639,26606
//Storyboard Layer 0 (Background)
//Storyboard Layer 1 (Fail)
//Storyboard Layer 2 (Pass)
//Storyboard Layer 3 (Foreground)
//Storyboard Sound Samples
//Background Colour Transformations
3,100,163,162,255

[TimingPoints]
339.149065440277,346.820809248555,4,1,0,5,1,0
5194,342.857142857143,4,1,0,5,1,0
9308,346.820809248555,4,1,0,5,1,0
10521,279.06976744186,4,1,0,5,1,1
17218,289.855072463768,4,1,0,5,1,0
20696,307.692307692308,4,1,0,5,1,1
27926,480,4,1,0,5,1,0
37526,375,4,1,0,5,1,0
40526,333.333333333333,4,1,0,5,1,0
41859,357.142857142857,4,1,0,5,1,0
44001,352.941176470588,4,1,0,5,1,0
44706,365.853658536585,4,1,0,5,1,0
47998,400,4,1,0,5,1,0
59198,441.176470588235,4,1,0,5,1,0
63389,545.454545454546,4,1,0,5,1,0
65979,769.230769230769,4,1,0,5,1,0
69248,857.142857142857,4,1,0,5,1,0
70962,631.578947368421,4,1,0,5,1,0
71593,705.882352941176,4,1,0,5,1,0

[Colours]
Combo1 : 255,255,255
Combo2 : 130,130,220

[HitObjects]
256,192,339,1,0,0:0:0:0:
256,192,512,1,0,0:0:0:0:
256,192,859,1,0,0:0:0:0:
109,192,1148,1,0,0:0:0:0:
256,192,1321,1,0,0:0:0:0:
402,192,1697,1,0,0:0:0:0:
402,192,2391,1,0,0:0:0:0:
475,192,5308,5,0,0:0:0:0:
402,192,5908,1,0,0:0:0:0:
475,192,6251,1,0,0:0:0:0:
402,192,6565,1,0,0:0:0:0:
256,192,7251,1,0,0:0:0:0:
329,192,7965,1,0,0:0:0:0:
109,192,8622,1,0,0:0:0:0:
329,192,8908,1,0,0:0:0:0:
256,192,9308,1,0,0:0:0:0:
109,192,10001,1,0,0:0:0:0:
329,192,10567,1,0,0:0:0:0:
475,192,10823,1,0,0:0:0:0:
182,192,11102,1,0,0:0:0:0:
475,192,11381,1,0,0:0:0:0:
329,192,11683,1,0,0:0:0:0:
182,192,12427,1,0,0:0:0:0:
475,192,12544,1,0,0:0:0:0:
36,192,12823,1,0,0:0:0:0:
36,192,13939,1,0,0:0:0:0:
36,192,15032,1,0,0:0:0:0:
182,192,15032,1,0,0:0:0:0:
329,192,15590,1,0,0:0:0:0:
329,192,15823,1,0,0:0:0:0:
329,192,16102,1,0,0:0:0:0:
475,192,16683,1,0,0:0:0:0:
475,192,16939,1,0,0:0:0:0:
36,192,17218,1,0,0:0:0:0:
182,192,17652,1,0,0:0:0:0:
36,192,18087,1,0,0:0:0:0:
256,192,18401,1,0,0:0:0:0:
402,192,18860,1,0,0:0:0:0:
329,192,19150,1,0,0:0:0:0:
402,192,19560,1,0,0:0:0:0:
475,192,20140,1,0,0:0:0:0:
256,192,20747,1,0,0:0:0:0:
256,192,20901,1,0,0:0:0:0:
256,192,21234,1,0,0:0:0:0:
256,192,21542,1,0,0:0:0:0:
329,192,21696,1,0,0:0:0:0:
402,192,21978,1,0,0:0:0:0:
329,192,22131,1,0,0:0:0:0:
182,192,22439,1,0,0:0:0:0:
109,192,22593,1,0,0:0:0:0:
256,192,23208,1,0,0:0:0:0:
256,192,23362,1,0,0:0:0:0:
256,192,23644,1,0,0:0:0:0:
256,192,23824,1,0,0:0:0:0:
329,192,24080,1,0,0:0:0:0:
475,192,24439,1,0,0:0:0:0:
182,192,28166,5,0,0:0:0:0:
256,192,28436,1,0,0:0:0:0:
329,192,28676,1,0,0:0:0:0:
402,192,28916,1,0,0:0:0:0:
475,192,29156,1,0,0:0:0:0:
402,192,29366,1,0,0:0:0:0:
329,192,29606,1,0,0:0:0:0:
256,192,29876,1,0,0:0:0:0:
182,192,30326,1,0,0:0:0:0:
36,192,30776,1,0,0:0:0:0:
475,192,31286,1,0,0:0:0:0:
182,192,31766,1,0,0:0:0:0:
36,192,31766,1,0,0:0:0:0:
36,192,32486,1,0,0:0:0:0:
182,192,32486,1,0,0:0:0:0:
36,192,33686,1,0,0:0:0:0:
182,192,33926,1,0,0:0:0:0:
329,192,34166,1,0,0:0:0:0:
402,192,34406,1,0,0:0:0:0:
475,192,34676,1,0,0:0:0:0:
329,192,35426,1,0,0:0:0:0:
256,192,35666,1,0,0:0:0:0:
329,192,35906,1,0,0:0:0:0:
402,192,36146,1,0,0:0:0:0:
256,192,36386,1,0,0:0:0:0:
36,192,36626,1,0,0:0:0:0:
182,192,37666,1,0,0:0:0:0:
329,192,37901,1,0,0:0:0:0:
402,192,38088,1,0,0:0:0:0:
182,192,38463,1,0,0:0:0:0:
329,192,38651,1,0,0:0:0:0:
402,192,38838,1,0,0:0:0:0:
256,192,39213,1,0,0:0:0:0:
329,192,39401,1,0,0:0:0:0:
475,192,39588,1,0,0:0:0:0:
256,192,39963,1,0,0:0:0:0:
329,192,40151,1,0,0:0:0:0:
475,192,40338,1,0,0:0:0:0:
256,192,40692,1,0,0:0:0:0:
329,192,40859,1,0,0:0:0:0:
475,192,40984,1,0,0:0:0:0:
256,192,41359,1,0,0:0:0:0:
329,192,41526,1,0,0:0:0:0:
475,192,41651,1,0,0:0:0:0:
182,192,42082,1,0,0:0:0:0:
329,192,42216,1,0,0:0:0:0:
475,192,42417,1,0,0:0:0:0:
182,192,42751,1,0,0:0:0:0:
329,192,42918,1,0,0:0:0:0:
475,192,43085,1,0,0:0:0:0:
182,192,43466,1,0,0:0:0:0:
329,192,43622,1,0,0:0:0:0:
475,192,43778,1,0,0:0:0:0:
182,192,44111,1,0,0:0:0:0:
329,192,44265,1,0,0:0:0:0:
475,192,44442,1,0,0:0:0:0:
256,192,44843,1,0,0:0:0:0:
402,192,45026,1,0,0:0:0:0:
475,192,45186,1,0,0:0:0:0:
256,192,45620,1,0,0:0:0:0:
329,192,45780,1,0,0:0:0:0:
402,192,45963,1,0,0:0:0:0:
329,192,46192,1,0,0:0:0:0:
475,192,46192,1,0,0:0:0:0:
36,192,48073,128,0,49573:0:0:0:0:
256,192,49573,1,0,0:0:0:0:
36,192,50398,1,0,0:0:0:0:
182,192,51148,128,0,51973:0:0:0:0:
329,192,51973,128,0,52723:0:0:0:0:
475,192,52723,128,0,54398:0:0:0:0:
256,192,54398,1,0,0:0:0:0:
36,192,55198,128,0,55948:0:0:0:0:
182,192,55948,1,0,0:0:0:0:
475,192,56748,128,0,57548:0:0:0:0:
329,192,57548,128,0,58798:0:0:0:0:
256,192,59123,128,0,60521:0:0:0:0:
36,192,61045,128,0,63423:0:0:0:0:
402,192,63423,1,0,0:0:0:0:
329,192,63695,1,0,0:0:0:0:
402,192,64036,1,0,0:0:0:0:
182,192,64479,1,0,0:0:0:0:
256,192,65979,1,0,0:0:0:0:
329,192,66748,1,0,0:0:0:0:
402,192,67613,1,0,0:0:0:0:
475,192,69248,1,0,0:0:0:0:
402,192,70105,1,0,0:0:0:0:
402,192,71040,1,0,0:0:0:0:
329,192,71159,1,0,0:0:0:0:
256,192,71277,1,0,0:0:0:0:
329,192,71554,1,0,0:0:0:0:
402,192,71945,1,0,0:0:0:0:
329,192,72343,1,0,0:0:0:0:
256,192,72828,1,0,0:0:0:0:
329,192,73313,1,0,0:0:0:0:
256,192,73843,1,0,0:0:0:0:
36,192,74416,1,0,0:0:0:0:
109,192,77107,1,0,0:0:0:0:
256,192,77107,1,0,0:0:0:0:
475,192,77107,1,0,0:0:0:0:
