osu file format v5

[General]
AudioFilename: 08-MATTAFIX _ Big City Life.mp3
AudioLeadIn: 0
PreviewTime: -1
Countdown: 2
SampleSet: Normal
StackLeniency: 0.7
Mode: 0
LetterboxInBreaks: 1
EditorBookmarks: 58712,59747,63022,65436,106638,110948,155770,181629,182146,205937,207316

[Metadata]
Title:Big City Life
Artist:Mattafix
Creator:ERFRATTA
Version:BIG NORMAL
Source:
Tags:

[Difficulty]
HPDrainRate:8
CircleSize:6
OverallDifficulty:6
SliderMultiplier:1.5
SliderTickRate:4

[Events]
//Background and Video events
0,0,"Hong Kong Island At Night.jpg"
//Break Periods
2,33994,40158
2,41925,45675
2,50465,56283
2,59853,61707
2,73645,76189
2,83989,85842
2,111399,122562
2,126225,128252
2,130880,132561
2,150706,152559
2,167428,170143
2,207423,209794
//Storyboard Layer 0 (Background)
//Storyboard Layer 1 (Failing)
//Storyboard Layer 2 (Passing)
//Storyboard Layer 3 (Foreground)
//Storyboard Sound Samples
//Background Colour Transformations
3,100,163,162,255

[TimingPoints]
9660,689.575910814849,4,1,0,100,1

[Colours]
Combo1 : 128,0,255
Combo2 : 0,255,0
Combo3 : 255,255,255
Combo4 : 0,0,174

[HitObjects]
368,96,12418,1,0
384,120,12591,1,8
368,96,12763,1,8
424,296,14143,1,0
448,168,14487,1,0
320,320,15866,5,8
328,288,16039,5,0
320,320,16211,5,8
88,136,17072,1,0
292,233,17590,5,0
292,233,17935,1,0
352,232,18280,1,0
320,184,18625,1,0
320,240,18970,1,0
176,344,19831,5,0
224,272,21038,5,0
256,216,21383,1,0
247,331,21900,1,0
271,261,22073,1,0
150,218,22762,5,8
104,161,23107,5,2
304,156,25175,5,0
40,88,26727,5,0
64,112,26899,1,0
40,88,27072,1,0
32,56,27244,1,0
128,64,28106,5,0
232,176,28968,5,0
327,190,29313,1,0
160,56,30692,5,0
224,176,31037,1,0
96,48,31726,5,0
128,48,32071,5,2
72,80,32415,5,8
128,96,32760,5,0
184,104,33105,5,8
144,144,33449,5,2
88,128,33794,5,8
240,256,40863,6,2,B|247:126,1,112.5
59,334,46379,6,4,B|172:174,1,187.5
168,181,47931,5,8
256,192,48621,12,0,50345
96,168,57068,6,0,B|265:266,1,187.5
152,200,58619,6,4,B|152:256|152:256|208:240|208:240|192:192|192:192|176:232|176:232|176:224|176:216|176:216|184:224,1,225
128,256,62757,6,0,B|184:256|200:168|312:168|312:168|312:136|312:136|310:206|310:206|311:212|311:212|312:208,2,300
424,264,67929,5,8
240,256,68964,5,2
176,88,69998,5,4
104,184,70688,5,0
336,128,72066,5,4
320,248,72757,5,8
328,160,73445,5,4
368,80,76893,5,0
341,82,77238,5,4
400,80,77583,5,0
157,70,79996,5,0
157,70,80513,1,4
72,40,81030,1,0
128,24,81375,1,0
232,216,82410,6,0,B|362:61,1,187.5
336,96,83789,5,8
216,32,86892,5,0
216,88,87237,5,0
184,56,87754,5,0
120,56,88099,5,0
144,112,88444,5,0
88,96,88961,5,0
184,72,89306,6,0,B|416:232,1,262.5
400,72,91374,1,4
304,144,92409,1,0
168,144,93616,5,0
264,144,93961,1,0
200,144,94306,1,0
128,152,94823,1,8
176,120,95168,5,0
232,56,95513,5,8
216,112,95857,5,4
296,40,96202,5,8
176,112,96547,5,4
184,168,96892,5,8
128,144,97236,5,4
264,80,97753,5,8
256,192,98098,12,0,100166
160,304,100511,6,4,B|160:32|160:32|216:32|272:32|272:32|272:104|272:104|272:143|272:143|200:144|200:144|200:208|280:208|280:296|248:299|176:304,1,787.5
360,8,104821,5,4
272,16,105166,5,4
312,8,105511,5,4
408,8,105856,5,4
256,192,107234,12,0,108096
120,312,108614,6,0,B|176:312|176:312|184:80|312:104|312:104|264:312|432:280|392:280,1,562.5
120,48,123612,6,0,B|120:368|120:368|296:368|296:360|288:360|280:352|272:360,1,487.5
344,192,128956,5,0
288,120,129473,1,2
224,176,129990,1,0
280,280,130680,1,0
264,56,133611,6,4,B|184:64|264:72|248:40|240:56|168:64,1,112.5
352,24,135335,5,4
328,40,135507,1,4
296,88,135852,1,8
288,56,136369,1,2
496,56,137748,6,0,B|496:208,1,150
256,192,139127,12,8,141196
368,80,141886,5,0
341,82,142231,5,4
400,80,142576,5,0
152,200,142920,6,0,B|192:200,4,37.5,0|0|0|0|0
168,40,144127,6,0,B|168:80|184:72|192:48|208:48|224:56|136:72|128:48|120:40|144:16|88:8|104:16|48:24|216:80|208:80|192:72,1,225
256,192,147058,12,0,150506
256,192,153264,12,0,155161
248,40,156712,5,0
320,96,157229,5,0
224,80,157574,5,0
232,48,158091,5,0
320,72,158608,5,0
272,184,159298,5,0
272,64,159987,5,0
352,152,160677,5,0
240,128,161366,5,8
240,128,161539,5,8
384,88,162401,5,0
416,80,162573,5,8
384,80,162745,5,0
440,80,163090,5,0
384,160,163435,5,0
400,104,163780,5,0
456,128,164125,5,8
384,160,164642,5,0
352,168,164814,5,0
432,120,165331,5,0
432,152,165504,1,0
440,272,166193,1,2
264,168,166883,5,2
288,224,167228,5,4
208,112,170848,6,0,B|216:152|240:104|272:104,1,75,8|8
280,192,171882,6,4,B|288:272|288:272|392:272|392:272|392:176|392:176|312:176|312:176|312:224|312:240|312:240|360:240|336:216|336:208|336:208|336:192,1,487.5
256,192,174985,12,0,176537
128,56,177916,5,4
168,8,178261,1,8
120,56,178605,1,4
392,104,179640,5,4
448,104,179985,5,8
408,152,180330,5,4
264,112,181019,5,0
320,120,181364,1,0
144,88,182054,5,0
144,88,182226,5,0
112,88,182398,6,0,B|152:88|152:24|176:48|176:24|176:24|168:24|168:24|160:24,1,75
280,248,183433,5,0
328,280,183777,5,8
280,240,184122,1,0
320,280,184467,1,8
256,208,185157,5,0
256,144,185501,5,0
312,168,185846,5,8
256,184,186191,5,0
320,40,186537,5,0
288,96,186881,5,0
336,64,187226,5,0
360,48,187399,5,0
160,56,188260,5,0
96,64,188605,5,0
176,112,189122,5,0
176,80,189295,5,0
112,72,189640,5,8
184,168,190329,5,0
224,136,190674,5,0
248,192,191019,5,0
288,136,191708,5,0
224,128,192053,5,0
280,144,192398,5,0
256,88,192743,5,8
264,232,193605,5,0
352,232,194122,5,0
304,200,194467,5,0
304,256,194811,5,0
352,232,194983,5,0
176,136,195846,5,0
232,136,196191,5,0
200,80,196535,5,0
208,176,196707,5,0
304,112,197570,5,8
304,112,197915,5,8
216,120,198259,5,4
216,120,198432,5,8
176,160,198776,5,0
152,80,199293,5,8
256,192,200156,12,0,204982
256,192,205500,12,4,205845
208,160,206189,6,0,B|248:160,6,37.5
200,360,210326,6,0,B|192:8|280:8|336:40|320:128|232:144|384:152|328:200|328:200|192:360|160:376,1,712.5
256,192,214636,12,0,215842
136,112,217221,5,8
176,72,217566,5,0
120,56,217910,5,0
176,32,218256,5,0
224,64,218601,5,0
280,88,218945,5,8
264,64,219118,5,0
256,192,219635,12,0,223083
256,192,223945,12,0,226186
256,192,226531,12,0,228945
256,192,229979,12,0,232393
