osu file format v11

[General]
AudioFilename: 01 - SEE YOU ~TV size~.mp3
AudioLeadIn: 2000
PreviewTime: 53500
Countdown: 0
SampleSet: Soft
StackLeniency: 0.7
Mode: 0
LetterboxInBreaks: 0

[Editor]
DistanceSpacing: 1
BeatDivisor: 4
GridSize: 4

[Metadata]
Title:SEE YOU (TV Size)
TitleUnicode:SEE YOU (TV Size)
Artist:Matsushita Yuya
ArtistUnicode:松下優也
Creator:athiota33
Version:Normal
Source:Natsuyuki Rendezvous
Tags:opening shikyu mintong89
BeatmapID:167500
BeatmapSetID:55168

[Difficulty]
HPDrainRate:4
CircleSize:3
OverallDifficulty:4
ApproachRate:5
SliderMultiplier:0.8
SliderTickRate:1

[Events]
//Background and Video events
Video,-1700,"video OP.avi"
0,0,"BG.jpg"
//Break Periods
//Storyboard Layer 0 (Background)
//Storyboard Layer 1 (Fail)
//Storyboard Layer 2 (Pass)
//Storyboard Layer 3 (Foreground)
//Storyboard Sound Samples
//Background Colour Transformations
3,100,163,162,255

[TimingPoints]
279,416.666666666667,4,2,1,45,1,0
6945,-100,4,2,2,35,0,0
7049,-100,4,2,1,35,0,0
7779,-100,4,2,1,30,0,0
8612,-100,4,2,1,45,0,0
9445,-100,4,2,1,35,0,0
12362,-100,4,2,1,20,0,0
12466,-100,4,2,1,35,0,0
12779,-100,4,2,1,20,0,0
12883,-100,4,2,1,35,0,0
13612,-100,4,2,2,35,0,0
13716,-100,4,2,1,40,0,0
16112,-100,4,2,1,50,0,0
16216,-100,4,2,1,40,0,0
20279,-100,4,2,2,45,0,0
20383,-100,4,2,1,45,0,0
23612,-100,4,2,1,45,0,0
24445,-100,4,2,1,55,0,0
25279,-100,4,2,2,65,0,0
25383,-100,4,2,1,45,0,0
26945,-100,4,2,2,65,0,0
27049,-100,4,2,1,45,0,0
31945,-100,4,2,2,45,0,0
32049,-100,4,2,1,45,0,0
33612,-100,4,2,1,35,0,0
33716,-100,4,2,1,50,0,0
34445,-100,4,2,1,60,0,0
34549,-100,4,2,1,50,0,0
36112,-100,4,2,1,60,0,0
36216,-100,4,2,1,50,0,0
36945,-100,4,2,1,45,0,0
37049,-100,4,2,1,65,0,0
38612,-100,4,2,1,65,0,0
38716,-100,4,2,1,55,0,0
40279,-100,4,2,1,50,0,0
40383,-100,4,2,1,60,0,0
43612,-100,4,2,1,55,0,0
43716,-100,4,2,1,65,0,0
46945,-100,4,2,1,60,0,0
46997,-100,4,2,1,60,0,0
50279,-100,4,2,1,55,0,0
50383,-100,4,2,1,65,0,0
51945,-100,4,2,1,60,0,0
52674,-100,4,2,1,70,0,0
53612,-100,4,2,1,80,0,1
54445,-100,4,2,2,80,0,1
56945,-100,4,2,1,80,0,1
57779,-100,4,2,2,80,0,1
60279,-100,4,2,1,80,0,1
60695,-100,4,2,2,80,0,1
63612,-100,4,2,1,80,0,1
64445,-100,4,2,2,80,0,1
67779,-100,4,2,2,80,0,1
70279,-100,4,2,1,80,0,1
70383,-100,4,2,1,60,0,1
71112,-100,4,2,2,80,0,1
73612,-100,4,2,1,60,0,1
73716,-100,4,2,1,80,0,1
74445,-100,4,2,2,80,0,1
76945,-100,4,2,1,80,0,1
77779,-100,4,2,2,80,0,1
78612,-100,4,2,2,75,0,1
79862,-100,4,2,2,50,0,1
80279,-100,4,2,1,50,0,0
80331,-100,4,2,1,45,0,0
85279,-100,4,2,1,50,0,0
85695,-100,4,2,1,40,0,0
86112,-100,4,2,1,30,0,0
86529,-100,4,2,1,20,0,0
86945,-100,4,2,1,10,0,0

[Colours]
Combo1 : 207,138,244
Combo2 : 142,253,142
Combo3 : 129,129,252
Combo4 : 248,233,126

[HitObjects]
68,328,279,2,0,B|36:280|36:232|68:176,1,160,8|2,0:0|0:0,0:0:0
104,106,1529,1,0,0:0:0
180,132,1945,2,0,B|216:112|256:136|292:156|336:132,1,160,8|2,0:0|0:0,0:0:0
408,104,3195,1,0,0:0:0
448,172,3612,5,8,0:0:0
392,232,4029,2,0,B|356:212|312:224,1,80,0|2,0:0|0:0,0:3:0
248,268,4862,1,0,0:0:0
176,308,5279,2,0,B|134:319|98:299,2,80,8|0|2,0:0|0:0|0:0,0:0:0
53,205,6945,5,4,0:0:0
150,78,7779,2,0,B|226:114|306:82,1,160,2|2,0:0|0:0,0:0:0
454,25,9445,2,0,B|490:101|458:181,1,160,2|2,0:0|0:0,0:0:0
384,216,10695,6,0,B|336:216|304:248,1,80,0|2,0:0|0:0,0:0:0
260,304,11529,1,0,0:0:0
184,276,11945,2,0,B|120:276|80:220,2,120,2|2|2,0:0|0:0|0:0,0:0:0
264,276,13612,6,0,B|352:272|384:184,1,160,4|2,0:0|0:0,0:0:0
408,108,14862,1,0,0:0:0
328,112,15278,2,0,B|248:153|168:112,1,160,2|2,0:0|0:0,0:0:0
120,56,16528,2,0,P|92:92,1,40
68,116,16945,6,0,B|58:156|80:194|80:194|104:231|92:270,1,160,2|2,0:0|0:0,0:0:0
28,316,18195,1,0,0:0:0
104,348,18612,2,0,B|144:360|184:348,1,80,2|0,0:0|0:0,0:0:0
196,312,19237,2,0,P|256:300|316:316,1,120,2|0,0:0|0:0,0:0:0
384,277,20279,6,0,P|463:267|497:199,1,160,4|2,0:0|0:0,0:0:0
416,200,21529,1,0,0:0:0
444,124,21945,2,0,P|365:134|336:208,1,160,2|2,0:0|0:0,0:0:0
306,278,23195,1,0,0:0:0
244,329,23612,6,0,B|208:348|164:332,1,80,2|0,0:0|0:0,0:0:0
128,260,24445,2,0,B|165:243|208:260,1,80,2|0,0:0|0:0,0:0:0
244,188,25279,2,0,B|300:220|352:188|352:188|400:192,1,160,4|2,0:0|0:0,0:0:0
448,128,26529,1,0,0:0:0
508,184,26945,1,4,0:0:0
460,248,27362,6,0,P|428:268|384:272,2,80,0|2|0,0:0|0:0|0:0,0:0:0
400,192,28612,2,0,P|360:196|324:220,1,80
252,192,29445,1,2,0:0:0
180,156,29862,6,0,B|144:180|104:180,1,80,0|2,0:0|0:0,0:0:0
44,236,30695,2,0,B|44:276|68:312,1,80,0|2,0:0|0:0,0:0:0
128,366,31529,1,0,0:0:0
196,324,31945,2,0,B|264:380|348:344,1,160,4|2,0:0|0:0,0:0:0
424,320,33195,1,0,0:0:0
436,240,33612,6,0,B|424:201|448:164|470:126|460:84,1,160,4|2,0:0|0:0,0:0:0
396,35,34862,1,0,0:0:0
325,72,35279,2,0,B|241:96|169:44,1,160,2|2,0:0|0:0,0:0:0
96,28,36529,1,0,0:0:0
40,84,36945,6,0,B|8:116|8:164,2,80,4|0|2,0:0|0:0|0:0,0:0:0
112,124,38195,1,0,0:0:0
180,164,38612,2,0,B|220:180|260:176,1,80,2|0,0:0|0:0,0:0:0
304,244,39445,2,0,B|280:259|263:259,2,40,2|0|0,0:0|0:0|0:0,0:0:0
380,216,40278,6,0,B|444:168|468:84,1,160,4|2,0:0|0:0,0:0:0
416,24,41528,1,0,0:0:0
356,80,41945,2,0,B|272:100|204:44,1,160,2|2,0:0|0:0,0:0:0
128,28,43195,1,0,0:0:0
80,92,43612,6,0,B|48:164|76:256,2,160,4|2|2,0:0|0:0|0:0,0:0:0
128,28,45695,1,0,0:0:0
197,67,46112,2,0,B|237:83|277:71,1,80,2|0,0:0|0:0,0:0:0
356,80,46945,6,0,B|436:100|484:176,2,160,4|2|2,0:0|0:0|0:0,0:0:0
276,72,49028,1,0,0:0:0
216,124,49445,2,0,B|184:156|140:160,1,80,2|0,0:0|0:0,0:0:0
72,128,50278,5,6,0:0:0
52,288,51112,1,2,0:0:0
200,228,51945,6,0,B|240:216|284:228,1,80,4|0,0:0|0:0,0:0:0
316,244,52570,2,0,P|384:228|424:188,1,120,4|8,0:0|0:0,0:0:0
380,124,53612,6,0,B|308:92|224:120,1,160,4|8,0:0|0:0,0:0:0
156,76,54862,1,0,0:0:0
100,136,55278,2,0,B|84:180|52:208,1,80,8|0,0:0|0:0,0:0:0
68,284,56112,2,0,B|84:328|116:356,1,80,8|0,0:0|0:0,0:0:0
192,356,56945,6,0,B|268:384|352:352,2,160,4|8|2,0:0|0:0|0:0,0:0:0
132,300,59028,2,4,B|88:292|56:316,1,80,0|8,0:0|0:0,0:0:0
32,236,59862,1,0,0:0:0
64,216,60070,1,8,0:0:0
100,196,60278,6,0,P|136:176|176:136,1,80,4|0,0:0|0:0,0:0:0
200,80,61112,2,0,P|280:76,1,80,8|0,0:0|0:0,0:0:0
320,76,61737,2,0,B|368:120|352:188,1,120,8|0,0:0|0:0,0:0:0
316,256,62778,2,0,B|306:292|270:319,1,80,8|0,0:0|0:0,0:0:0
192,336,63612,6,0,B|151:353|107:335,2,80,4|0|8,0:0|0:0|0:0,0:0:0
240,272,64862,1,0,0:0:0
240,272,65070,2,0,B|280:254|324:272,1,80,8|8,0:0|0:0,0:0:0
360,272,65695,2,0,P|404:244|422:223,1,80,0|8,0:0|0:0,0:0:0
412,144,66528,1,0,0:0:0
336,172,66945,6,0,B|267:220|183:187,1,160,4|8,0:0|0:0,0:0:0
128,128,68195,1,0,0:0:0
100,204,68612,2,0,B|114:244|153:263,1,80,8|0,0:0|0:0,0:0:0
184,284,69237,2,0,P|240:264|296:280,1,120,2|0,0:0|0:0,0:0:0
328,304,70070,1,0,0:0:0
360,328,70278,6,0,B|441:301|483:227,1,160,4|8,0:0|0:0,0:0:0
476,152,71528,1,0,0:0:0
408,112,71945,2,0,B|368:104|340:68,1,80,8|0,0:0|0:0,0:0:0
264,52,72778,2,0,B|224:41|185:61,1,80,8|0,0:0|0:0,0:0:0
148,76,73403,1,8,0:0:0
112,92,73612,6,0,B|100:131|124:168|146:206|136:248,1,160,4|8,0:0|0:0,0:0:0
92,316,74862,2,0,P|108:328|128:332,1,40,0|8,0:0|0:0,0:0:0
164,344,75278,2,0,B|235:348|296:311,2,120,0|8|0,0:0|0:0|0:0,0:0:0
88,316,76945,6,0,P|84:224,1,80,4|0,0:0|0:0,0:0:0
84,196,77570,1,0,0:0:0
88,156,77778,2,0,P|157:119|230:151,1,160,8|8,0:0|0:0,0:0:0
304,172,79029,6,0,P|329:175|360:170,2,40,0|0|8,0:0|0:0|0:0,0:0:0
256,236,79862,1,8,0:0:0
208,172,80279,1,4,0:0:0
316,56,81112,6,0,B|365:82|425:34|473:54,1,160,2|8,0:0|0:0,0:0:0
512,124,82362,1,0,0:0:0
472,192,82779,2,0,B|424:212|364:164|315:191,1,160,2|8,0:0|0:0,0:0:0
268,128,84029,5,2,0:0:0
192,153,84445,1,2,0:0:0
192,233,84862,1,2,0:0:0
269,258,85279,1,0,0:0:0
256,192,85487,12,2,87153,0:0:0
