osu file format v14

[General]
AudioFilename: koiniochitara.mp3
AudioLeadIn: 0
PreviewTime: 39934
Countdown: 0
SampleSet: Soft
StackLeniency: 0.7
Mode: 0
LetterboxInBreaks: 0
EpilepsyWarning: 1
WidescreenStoryboard: 0

[Editor]
Bookmarks: 523,5228,9934,21699,40522,61699,82875,93464
DistanceSpacing: 1.4
BeatDivisor: 4
GridSize: 4
TimelineZoom: 1

[Metadata]
Title:Koi ni Ochitara image version
TitleUnicode:恋におちたら image version
Artist:Matsushita Nao
ArtistUnicode:松下奈緒
Creator:Mako Sakata
Version:Normal
Source:
Tags:Rizen dolce Crystal Kay Williams Call me Miss... 恋におちたら When I Fall in Love 僕の成功の秘密 Boku no Seikou Himitsu Epic Records Japan Sony Music Piano Violin Valentine
BeatmapID:865693
BeatmapSetID:397751

[Difficulty]
HPDrainRate:4
CircleSize:3
OverallDifficulty:4
ApproachRate:4
SliderMultiplier:1.3
SliderTickRate:1

[Events]
//Background and Video events
0,0,"color.jpg",0,0
//Break Periods
//Storyboard Layer 0 (Background)
//Storyboard Layer 1 (Fail)
//Storyboard Layer 2 (Pass)
//Storyboard Layer 3 (Foreground)
//Storyboard Sound Samples

[TimingPoints]
523,588.235294117647,4,2,1,40,1,0
21699,-100,4,2,1,50,0,0
40522,-100,4,1,1,50,0,0
54640,-100,4,2,1,50,0,0
59346,-100,4,1,1,50,0,0
61699,-100,4,2,1,60,0,1
82875,-100,4,2,1,50,0,0
89934,-100,4,2,1,30,0,0

[Colours]
Combo1 : 145,229,103
Combo2 : 255,140,179
Combo3 : 187,103,229
Combo4 : 140,236,255

[HitObjects]
240,272,9934,53,2,0:0:0:0:
184,344,10228,2,0,P|244:364|302:338,1,130,2|0,0:0|0:0,0:0:0:0:
346,258,11111,1,2,0:0:0:0:
284,192,11405,2,0,L|276:60,1,130,2|0,0:0|0:0,0:0:0:0:
360,28,12287,5,2,0:0:0:0:
440,72,12581,2,0,L|447:201,1,130,2|0,0:0|0:0,0:0:0:0:
404,284,13464,2,0,P|372:292|340:284,1,65,2|2,0:0|0:0,0:0:0:0:
260,244,14052,2,0,P|228:236|196:244,1,65
116,284,14640,5,2,0:0:0:0:
36,240,14934,2,0,L|44:108,1,130,2|0,0:0|0:0,0:0:0:0:
124,68,15817,1,2,0:0:0:0:
196,124,16111,2,0,P|256:144|314:118,1,130,2|0,0:0|0:0,0:0:0:0:
252,52,16994,5,2,0:0:0:0:
256,192,17140,12,2,20522,0:0:0:0:
408,184,21699,6,0,L|415:313,1,130,2|8,0:0|0:0,0:0:0:0:
338,364,22581,2,0,P|276:376|224:340,1,130,2|0,0:0|0:0,0:0:0:0:
296,284,23464,1,10,0:0:0:0:
316,196,23758,6,0,L|308:66,1,130,2|0,0:0|0:0,0:0:0:0:
220,48,24640,1,10,0:0:0:0:
139,92,24934,2,0,P|77:104|26:67,1,130,2|0,0:0|0:0,0:0:0:0:
97,12,25817,1,10,0:0:0:0:
139,92,26111,6,0,L|131:221,1,130,2|0,0:0|0:0,0:0:0:0:
68,288,26993,1,10,0:0:0:0:
112,364,27287,2,0,P|176:372|244:368,1,130,2|0,0:0|0:0,0:0:0:0:
305,303,28170,2,0,L|301:239,1,65,10|2,0:0|0:0,0:0:0:0:
296,148,28758,5,2,0:0:0:0:
424,16,29346,1,10,0:0:0:0:
472,192,29934,1,2,0:0:0:0:
296,148,30522,2,0,L|232:144,1,65,10|2,0:0|0:0,0:0:0:0:
180,220,31111,6,0,P|199:279|179:343,1,130,0|10,0:0|0:0,0:0:0:0:
112,280,31993,2,0,P|92:220|112:156,1,130,2|0,0:0|0:0,0:0:0:0:
156,80,32875,1,10,0:0:0:0:
236,124,33170,6,0,L|365:116,1,130,2|0,0:0|0:0,0:0:0:0:
448,156,34052,1,10,0:0:0:0:
424,243,34346,2,0,B|424:288|424:288|452:320|440:368,1,130,2|0,0:0|0:0,0:0:0:0:
352,344,35228,2,0,L|288:340,1,65,10|2,0:0|0:0,0:0:0:0:
232,268,35817,6,0,B|232:223|232:223|260:191|248:143,1,130,2|8,0:0|0:0,0:0:0:0:
160,168,36699,2,0,L|28:160,1,130,2|0,0:0|0:0,0:0:0:0:
52,72,37581,2,0,L|116:76,1,65,8|2,0:0|0:0,0:0:0:0:
204,48,38170,6,0,P|267:37|327:60,2,130,2|8|2,0:0|0:0|0:0,0:0:0:0:
96,192,39934,1,8,0:0:0:0:
216,328,40522,5,0,0:0:0:0:
296,284,40817,2,0,P|344:280|391:291,2,97.5,0|0|0,0:0|0:0|0:0,0:0:0:0:
216,328,41993,1,0,0:0:0:0:
144,272,42287,2,0,L|148:208,1,65,8|0,2:0|0:0,0:0:0:0:
204,136,42875,5,0,0:0:0:0:
288,168,43170,2,0,P|336:172|383:161,2,97.5,0|0|0,0:0|0:0|0:0,0:0:0:0:
204,136,44346,2,0,L|208:72,1,65,0|8,0:0|2:0,0:0:0:0:
28,48,45228,5,0,0:0:0:0:
40,140,45522,2,0,L|48:244,2,97.5
112,84,46699,1,0,0:0:0:0:
168,156,46993,2,0,L|172:220,1,65,8|0,2:0|0:0,0:0:0:0:
244,276,47581,5,0,0:0:0:0:
324,232,47875,2,0,L|316:128,2,97.5
244,276,49052,2,0,L|240:340,1,65,0|8,0:0|2:0,0:0:0:0:
416,316,49934,6,0,L|420:252,1,65,0|0,0:0|0:0,0:0:0:0:
408,160,50522,2,0,P|375:164|344:157,1,65,8|0,2:0|0:0,0:0:0:0:
264,112,51111,2,0,P|201:99|143:127,1,130,0|8,0:0|2:0,0:0:0:0:
212,188,51993,1,0,0:0:0:0:
168,268,52287,6,0,L|172:332,1,65,0|0,0:0|0:0,0:0:0:0:
264,332,52875,2,0,L|260:268,1,65,8|0,2:0|0:0,0:0:0:0:
316,196,53464,2,0,P|378:183|436:211,1,130,0|8,0:0|2:0,0:0:0:0:
368,272,54346,1,0,0:0:0:0:
316,196,54640,6,0,L|300:66,1,130,2|8,1:2|0:0,0:0:0:0:
213,43,55522,2,0,B|165:31|133:59|133:59|88:59,1,130,2|0,0:0|0:0,0:0:0:0:
191,212,56699,6,0,B|239:224|271:196|271:196|316:196,1,130,2|0,0:0|0:0,0:0:0:0:
392,244,57581,1,10,0:0:0:0:
476,208,57875,2,0,B|460:160|476:112|476:112|492:60|478:17,1,195,2|8,0:0|0:0,0:0:0:0:
304,60,59346,6,0,P|256:68|208:60,2,97.5,0|0|0,0:0|0:0|0:0,0:0:0:0:
323,148,60522,2,0,P|260:159|196:149,1,130,0|2,0:0|2:0,0:0:0:0:
28,220,61699,6,0,L|24:284,1,65,6|0,0:0|0:0,0:0:0:0:
116,288,62287,2,0,L|120:224,1,65,10|0,0:0|0:0,0:0:0:0:
200,177,62875,2,0,P|253:212|316:200,1,130,2|10,0:0|0:0,0:0:0:0:
272,120,63758,1,0,0:0:0:0:
328,48,64052,6,0,P|361:44|392:51,1,65,2|0,0:0|0:0,0:0:0:0:
469,97,64640,2,0,B|460:136|468:160|468:160|480:188|468:224,1,130,10|2,0:0|0:0,0:0:0:0:
388,268,65522,2,0,L|388:332,2,65,0|10|0,0:0|0:0|0:0,0:0:0:0:
308,224,66405,6,0,P|245:213|185:236,1,130,2|10,0:0|0:0,0:0:0:0:
96,256,67287,2,0,P|63:257|32:247,1,65,0|2,0:0|0:0,0:0:0:0:
76,168,67875,2,0,L|72:104,2,65,0|10|2,0:0|0:0|0:0,0:0:0:0:
96,256,68758,5,2,0:0:0:0:
224,124,69346,1,10,0:0:0:0:
272,300,69934,1,2,0:0:0:0:
96,256,70522,2,0,P|63:257|32:247,1,65,10|2,0:0|0:0,0:0:0:0:
76,168,71111,6,0,L|80:104,1,65,2|0,0:0|0:0,0:0:0:0:
172,96,71699,2,0,L|168:160,1,65,10|0,0:0|0:0,0:0:0:0:
248,204,72287,2,0,P|310:192|363:227,1,130,2|10,0:0|0:0,0:0:0:0:
293,285,73170,1,0,0:0:0:0:
216,336,73464,6,0,P|183:340|152:333,1,65,2|0,0:0|0:0,0:0:0:0:
88,268,74052,2,0,B|76:232|100:196|100:196|96:140,1,130,10|2,0:0|0:0,0:0:0:0:
168,88,74934,2,0,L|164:24,2,65,0|10|0,0:0|0:0|0:0,0:0:0:0:
244,140,75817,6,0,B|292:152|324:124|324:124|369:124,1,130,2|10,0:0|0:0,0:0:0:0:
452,160,76699,2,0,P|444:192|452:224,1,65,0|2,0:0|0:0,0:0:0:0:
492,304,77287,2,0,P|500:336|492:368,2,65,0|10|0,0:0|0:0|0:0,0:0:0:0:
407,336,78170,6,0,P|348:348|319:294,1,130,2|8,0:0|0:0,0:0:0:0:
356,212,79052,2,0,P|367:148|355:84,1,130,2|0,0:0|0:0,0:0:0:0:
288,24,79934,1,8,0:0:0:0:
208,68,80228,6,0,B|160:84|112:68|112:68|60:52|17:66,1,195,2|8,0:0|0:0,0:0:0:0:
56,244,81699,1,2,0:0:0:0:
208,344,82287,1,8,0:0:0:0:
220,164,82875,5,2,0:0:0:0:
256,192,83022,12,2,89934,0:0:0:0:
