osu file format v12

[General]
AudioFilename: 19. - kemu feat..mp3
AudioLeadIn: 0
PreviewTime: 82135
Countdown: 0
SampleSet: Soft
StackLeniency: 0.7
Mode: 0
LetterboxInBreaks: 1
WidescreenStoryboard: 0

[Editor]
Bookmarks: 130708,214076
DistanceSpacing: 1.8
BeatDivisor: 4
GridSize: 4

[Metadata]
Title:Chikyuu Saigo no Kokuhaku wo
TitleUnicode:地球最後の告白を
Artist:Matsushita
ArtistUnicode:松下
Creator:Silver Crow
Version:Collab
Source:Nico Nico
Tags:cxzaq412
BeatmapID:338730
BeatmapSetID:135163

[Difficulty]
HPDrainRate:6
CircleSize:4
OverallDifficulty:7
ApproachRate:9
SliderMultiplier:1.8
SliderTickRate:1

[Events]
//Background and Video events
0,0,"tikyuu saigono kokuhakuwo.jpg",0,0
//Break Periods
//Storyboard Layer 0 (Background)
//Storyboard Layer 1 (Fail)
//Storyboard Layer 2 (Pass)
//Storyboard Layer 3 (Foreground)
//Storyboard Sound Samples
//Background Colour Transformations
3,100,0,0,0

[TimingPoints]
820,428.571428571429,4,2,1,40,1,0
6605,-80,4,2,1,40,0,0
7034,-66.6666666666667,4,2,1,40,0,0
7462,-100,4,2,1,40,0,0
12391,-200,4,2,1,40,0,0
14105,-100,4,2,1,40,0,0
21445,315.789473684211,4,1,1,40,1,0
31234,-100,4,2,1,40,0,0
41497,-133.333333333333,4,2,1,40,0,0
41971,-100,4,2,1,40,0,0
42760,-133.333333333333,4,2,1,40,0,0
43234,-100,4,2,1,40,0,0
44023,-133.333333333333,4,2,1,40,0,0
44497,-100,4,2,1,40,0,0
51129,-100,4,1,1,40,0,0
52234,-100,4,2,1,40,0,0
61234,-100,4,1,1,40,0,0
61866,-100,4,2,1,40,0,0
70708,-200,4,2,1,40,0,0
71339,-100,4,2,1,40,0,0
71971,-100,4,1,1,40,0,0
77023,-200,4,2,1,40,0,0
77655,-200,4,2,1,10,0,0
77813,-100,4,2,1,10,0,0
79550,-100,4,1,1,60,0,0
81129,-100,4,1,1,10,0,0
82076,-100,4,2,1,40,0,1
99760,-133.333333333333,4,2,1,40,0,1
100234,-100,4,2,1,40,0,1
103550,-100,4,2,1,40,0,0
108602,-133.333333333333,4,2,1,40,0,0
108918,-100,4,2,1,40,0,0
109234,-80,4,2,1,40,0,0
109550,-100,4,2,1,40,0,0
114918,-133.333333333333,4,2,1,40,0,0
124550,-100,4,2,1,40,0,0
130076,-100,4,1,1,40,0,0
135129,-100,4,1,1,40,0,0
140181,-200,4,2,1,40,0,0
142076,-100,4,2,1,40,0,0
142708,-100,4,1,1,40,0,0
144602,-200,4,2,1,40,0,0
144839,-100,4,1,1,40,0,0
145234,-100,4,2,1,40,0,1
149971,-133.333333333333,4,2,1,40,0,1
150287,-100,4,2,1,40,0,1
154076,-100,4,1,1,40,0,1
155181,-200,4,2,1,40,0,1
155497,-100,4,2,1,40,0,1
155655,-100,4,2,1,60,0,1
155734,-100,4,2,1,40,0,1
160234,-200,4,2,1,40,0,1
161023,-100,4,2,1,40,0,1
163550,-200,4,2,1,40,0,1
164181,-100,4,2,1,40,0,1
165129,-100,4,1,1,40,0,1
167971,-100,4,1,1,40,0,0
170497,-100,4,2,1,40,0,0
172708,-100,4,1,1,40,0,0
174208,-100,4,2,1,40,0,0
187076,-100,4,2,1,10,0,0
187234,-100,4,2,1,40,0,0
187392,-100,4,2,1,10,0,0
187550,-100,4,2,1,40,0,0
187708,-100,4,2,1,10,0,0
187866,-100,4,2,1,40,0,0
188023,-100,4,2,1,10,0,0
188181,-100,4,2,1,40,0,0
190076,-133.333333333333,4,2,1,40,0,0
191023,-133.333333333333,4,2,1,30,0,0
191339,-133.333333333333,4,2,1,40,0,0
191497,-133.333333333333,4,2,1,30,0,0
192602,-133.333333333333,4,2,1,40,0,0
192760,-133.333333333333,4,2,1,30,0,0
193866,-133.333333333333,4,2,1,40,0,0
194023,-133.333333333333,4,2,1,30,0,0
195129,-133.333333333333,4,2,1,40,0,0
195760,-133.333333333333,4,2,1,30,0,0
196392,-133.333333333333,4,2,1,40,0,0
196550,-133.333333333333,4,2,1,30,0,0
197655,-133.333333333333,4,2,1,40,0,0
197813,-133.333333333333,4,2,1,30,0,0
199550,-133.333333333333,4,2,1,50,0,0
200497,-100,4,2,1,40,0,0
200655,-100,4,1,1,40,0,0
205866,-200,4,2,1,40,0,0
205866,-200,4,2,1,40,0,0
206655,-100,4,2,1,40,0,0
208076,-100,4,1,1,40,0,0
212181,-100,4,1,1,40,0,1
227181,-133.333333333333,4,1,1,40,0,1
227497,-100,4,1,1,40,0,1
229550,-133.333333333333,4,1,1,40,0,1
229787,-100,4,1,1,10,0,1
229866,-133.333333333333,4,1,1,40,0,1
230339,-100,4,1,1,40,0,1
233497,-133.333333333333,4,1,1,40,0,1
233813,-100,4,1,1,40,0,1
234602,-133.333333333333,4,1,1,40,0,1
234918,-100,4,1,1,40,0,1
238550,-100,4,2,1,10,0,1
238708,-100,4,2,1,40,0,0

[Colours]
Combo1 : 255,128,192
Combo2 : 0,128,255
Combo3 : 255,0,0

[HitObjects]
84,88,820,2,0,P|112:124|160:144,1,90
216,176,1248,2,0,P|300:212|356:284,1,180
352,352,1891,1,0,0:0:0:0:
280,348,2105,2,0,P|256:316|264:268,1,90
296,204,2534,2,0,P|320:164|312:120,1,90
288,96,2855,1,0,0:0:0:0:
260,72,2962,2,0,P|348:52|436:76,1,180
392,136,3605,2,0,P|352:124|304:132,1,90
120,248,4248,6,0,P|162:260|206:252,1,90
220,324,4677,2,0,B|272:312|280:264|280:264|324:236|368:260,1,180
432,228,5320,1,0,0:0:0:0:
432,228,5748,2,0,L|496:152,1,90
480,88,6177,2,0,P|444:104|420:152,1,90
368,76,6605,2,0,P|344:128|352:196,1,112.5
268,108,7034,2,0,P|264:176|292:248,1,135.000005149842
336,292,7462,1,0,0:0:0:0:
324,304,7570,1,0,0:0:0:0:
308,312,7677,1,0,0:0:0:0:
292,316,7784,1,0,0:0:0:0:
276,312,7891,1,0,0:0:0:0:
256,192,8105,12,0,9391,0:0:0:0:
140,108,9820,6,0,P|136:148|164:188,1,90
232,212,10248,2,0,P|320:228|328:312,1,180
384,356,10891,1,0,0:0:0:0:
440,312,11105,2,0,L|472:268,3,45
468,240,11534,2,0,P|464:144|392:104,1,180
352,48,12177,1,0,0:0:0:0:
268,136,12391,6,0,P|272:232|344:272,1,180
112,120,14105,6,0,P|140:156|184:164,1,90
244,128,14534,2,0,B|288:116|332:132|332:132|356:184|336:232,1,180
304,284,15177,2,0,P|348:296|392:272,1,90
352,340,15605,2,0,P|264:324|192:372,1,180
192,371,16248,1,0,0:0:0:0:
256,192,16677,12,0,19034,0:0:0:0:
104,60,21445,2,0,B|144:85|184:73|184:73|240:77|256:137,1,180,2|0,0:0|0:0,0:0:0:0:
408,324,22076,2,0,B|368:299|328:311|328:311|272:307|256:247,1,180,2|0,0:0|0:0,0:0:0:0:
164,308,22550,1,0,0:0:0:0:
164,308,22629,1,0,0:0:0:0:
164,308,22708,2,0,P|144:264|160:216,1,90,2|0,0:0|0:0,0:0:0:0:
80,84,23023,2,0,P|120:96|148:136,1,90
52,84,23339,6,0,P|124:36|216:56,1,180,2|0,0:0|0:0,0:0:0:0:
460,300,23971,2,0,P|388:348|296:328,1,180,2|0,0:0|0:0,0:0:0:0:
300,331,24445,1,0,0:0:0:0:
192,332,24602,1,0,0:0:0:0:
196,288,24681,1,0,0:0:0:0:
216,248,24760,1,0,0:0:0:0:
252,220,24839,1,0,0:0:0:0:
296,212,24918,1,0,0:0:0:0:
340,224,24997,1,0,0:0:0:0:
380,248,25076,5,2,0:0:0:0:
248,32,25392,1,2,0:0:0:0:
100,236,25708,1,2,0:0:0:0:
100,236,26023,6,0,P|176:272|272:264,2,180,8|0|0,0:0|0:0|0:0,0:0:0:0:
312,172,26813,2,0,P|272:160|224:176,1,90,8|0,0:0|0:0,0:0:0:0:
364,116,27129,2,0,B|404:176|364:224|364:224|392:248|392:248|440:232,1,180,0|8,0:0|0:0,0:0:0:0:
320,284,27602,1,0,0:0:0:0:
320,284,27681,1,0,0:0:0:0:
320,284,27760,2,0,L|392:344,1,90
252,228,28076,2,0,P|228:184|232:144,1,90,8|0,0:0|0:0,0:0:0:0:
132,40,28392,2,0,L|172:68,3,45
200,84,28708,2,0,L|236:56,3,45,8|0|0|0,0:0|0:0|0:0|0:0,0:0:0:0:
268,40,29023,6,0,L|296:76,1,45,0|0,0:0|0:0,0:0:0:0:
372,40,29181,2,0,L|364:88,1,45
436,120,29339,2,0,L|396:152,1,45,8|0,0:0|0:0,0:0:0:0:
432,228,29497,2,0,L|384:220,1,45
312,208,29655,2,0,L|320:252,1,45
232,240,29813,2,0,L|216:284,1,45
144,240,29971,2,0,L|104:268,1,45,8|0,0:0|0:0,0:0:0:0:
96,176,30129,2,0,L|48:168,1,45
32,120,30287,5,0,0:0:0:0:
32,120,30366,1,0,0:0:0:0:
32,120,30445,1,0,0:0:0:0:
32,120,30523,1,0,0:0:0:0:
32,120,30602,1,8,0:0:0:0:
32,120,30681,1,0,0:0:0:0:
32,120,30760,1,0,0:0:0:0:
120,56,30918,1,8,0:0:0:0:
132,164,31076,1,8,0:0:0:0:
364,300,31392,5,0,0:0:0:0:
364,300,31550,2,0,L|260:300,2,90,4|0|2,0:0|0:0|0:0,0:0:0:0:
436,248,32023,1,0,0:0:0:0:
392,168,32181,1,2,0:0:0:0:
300,168,32339,1,0,0:0:0:0:
248,240,32497,2,0,P|196:212|180:176,1,90,2|0,0:0|0:0,0:0:0:0:
92,172,32813,6,0,P|144:104|248:88,1,180,2|2,0:0|0:0,0:0:0:0:
412,100,33287,2,0,P|360:32|256:16,2,180
420,188,33997,1,0,0:0:0:0:
420,188,34076,6,0,B|340:264|340:264|252:288,1,180,8|2,0:0|0:0,0:0:0:0:
92,172,34550,2,0,B|172:96|172:96|260:72,2,180
112,284,35339,5,2,0:0:0:0:
192,324,35497,1,0,0:0:0:0:
280,312,35655,1,2,0:0:0:0:
348,252,35813,1,0,0:0:0:0:
400,180,35971,6,0,L|452:96,1,90,2|8,0:0|0:0,0:0:0:0:
336,24,36287,2,0,L|284:108,1,90,2|8,0:0|0:0,0:0:0:0:
160,140,36602,2,0,P|176:60|264:12,1,180,2|2,0:0|0:0,0:0:0:0:
328,72,37076,1,0,0:0:0:0:
328,72,37234,1,2,0:0:0:0:
308,252,37550,5,2,0:0:0:0:
268,332,37708,2,0,P|128:328|80:204,1,270,0|2,0:0|0:0,0:0:0:0:
160,116,38339,2,0,P|240:104|356:132,2,180,0|0|8,0:0|0:0|0:0,0:0:0:0:
96,180,39129,5,2,0:0:0:0:
104,268,39287,1,8,0:0:0:0:
188,296,39445,1,2,0:0:0:0:
264,248,39602,1,0,0:0:0:0:
320,320,39760,2,0,P|368:336|428:336,2,90,2|0|2,0:0|0:0|0:0,0:0:0:0:
248,156,40392,6,0,P|296:120|348:112,1,90,2|0,0:0|0:0,0:0:0:0:
348,140,40629,1,0,0:0:0:0:
384,144,40708,1,2,0:0:0:0:
452,84,40866,1,8,0:0:0:0:
376,36,41023,1,2,0:0:0:0:
288,52,41181,5,8,0:0:0:0:
236,124,41339,1,2,0:0:0:0:
164,68,41497,2,0,P|124:172|160:268,1,202.500007724762,12|2,0:0|0:0,0:0:0:0:
150,255,42129,1,0,0:0:0:0:
328,264,42445,6,0,L|448:264,1,90,0|2,0:0|0:0,0:0:0:0:
284,264,42760,2,0,P|204:200|204:96,1,202.500007724762,12|2,0:0|0:0,0:0:0:0:
328,64,43392,1,0,0:0:0:0:
332,80,43708,1,0,0:0:0:0:
340,96,44023,6,0,P|336:192|252:272,1,202.500007724762,8|2,0:0|0:0,0:0:0:0:
200,292,44655,1,0,0:0:0:0:
128,284,44971,1,8,0:0:0:0:
100,216,45287,1,8,0:0:0:0:
172,104,45445,5,2,0:0:0:0:
300,228,45602,1,0,0:0:0:0:
128,284,45760,1,2,0:0:0:0:
276,128,45918,1,0,0:0:0:0:
232,301,46076,1,2,0:0:0:0:
98,180,46234,1,8,0:0:0:0:
232,301,46392,5,2,0:0:0:0:
268,312,46471,1,0,0:0:0:0:
304,308,46550,1,8,0:0:0:0:
336,292,46629,1,0,0:0:0:0:
364,268,46708,6,0,P|408:192|380:96,1,180,10|2,0:0|0:0,0:0:0:0:
320,80,47339,1,8,0:0:0:0:
284,76,47655,1,8,0:0:0:0:
248,72,47971,1,8,0:0:0:0:
212,68,48287,1,8,0:0:0:0:
176,64,48602,1,8,0:0:0:0:
40,72,48760,6,0,L|120:144,2,90,0|4|0,0:0|0:0|0:0,0:0:0:0:
40,72,49234,1,8,0:0:0:0:
68,156,49392,1,0,0:0:0:0:
140,212,49550,1,8,0:0:0:0:
228,216,49708,1,0,0:0:0:0:
312,180,49866,6,0,L|360:104,1,90,8|0,0:0|0:0,0:0:0:0:
420,224,50181,2,0,L|372:300,1,90,8|0,0:0|0:0,0:0:0:0:
208,224,50497,2,0,L|284:272,1,90,8|0,0:0|0:0,0:0:0:0:
184,364,50813,2,0,L|108:316,1,90,8|0,0:0|0:0,0:0:0:0:
72,240,51129,5,0,0:0:0:0:
88,248,51208,1,0,0:0:0:0:
112,256,51287,1,0,0:0:0:0:
140,256,51366,1,0,0:0:0:0:
176,252,51445,1,0,0:0:0:0:
208,232,51523,1,0,0:0:0:0:
240,200,51602,1,0,0:0:0:0:
252,156,51681,1,0,0:0:0:0:
240,104,51760,2,0,B|224:88|224:88|260:64|360:64|396:100,1,180,0|0,0:0|0:0,0:0:0:0:
464,248,52234,5,0,0:0:0:0:
464,248,52392,2,0,L|416:164,1,90,8|0,0:0|0:0,0:0:0:0:
368,268,52708,2,0,L|412:348,1,90,8|0,0:0|0:0,0:0:0:0:
164,288,53023,2,0,P|260:288|324:344,2,180,8|8|8,0:0|0:0|0:0,0:0:0:0:
72,228,53813,1,0,0:0:0:0:
72,228,53971,2,0,P|100:192|152:180,1,90,8|0,0:0|0:0,0:0:0:0:
360,56,54287,2,0,P|288:108|196:100,1,180,8|8,0:0|0:0,0:0:0:0:
299,263,54760,2,0,P|279:223|240:204,1,90,0|8,0:0|0:0,0:0:0:0:
359,322,55076,2,0,P|320:302|300:263,1,90,0|8,0:0|0:0,0:0:0:0:
400,228,55392,2,0,B|448:240|456:280|456:280|528:240|528:160|472:112,1,270,0|8,0:0|0:0,0:0:0:0:
280,40,56181,5,8,0:0:0:0:
248,60,56497,1,8,0:0:0:0:
228,92,56813,2,0,B|172:176|328:200|240:244,1,180,8|8,0:0|0:0,0:0:0:0:
164,312,57287,1,0,0:0:0:0:
88,236,57445,1,8,0:0:0:0:
60,340,57602,1,0,0:0:0:0:
164,312,57760,1,8,0:0:0:0:
164,312,57839,1,0,0:0:0:0:
164,312,57918,6,0,P|252:328|344:312,1,180
480,208,58392,2,0,L|408:272,2,90,8|0|8,0:0|0:0|0:0,0:0:0:0:
304,256,58866,2,0,L|368:192,2,90,0|8|0,0:0|0:0|0:0,0:0:0:0:
428,104,59339,1,8,0:0:0:0:
348,32,59497,1,0,0:0:0:0:
256,88,59655,1,8,0:0:0:0:
164,32,59813,1,0,0:0:0:0:
84,104,59971,1,8,0:0:0:0:
28,236,60129,6,0,B|76:272|128:244|128:244|156:252|160:284,1,135,2|0,0:0|0:0,0:0:0:0:
164,272,60445,1,0,0:0:0:0:
180,280,60523,1,0,0:0:0:0:
200,280,60602,2,0,P|248:296|268:328,1,90,8|0,0:0|0:0,0:0:0:0:
404,308,60918,2,0,P|356:292|336:260,1,90,8|0,0:0|0:0,0:0:0:0:
225,128,61234,1,0,0:0:0:0:
228,136,61313,1,0,0:0:0:0:
232,144,61392,1,0,0:0:0:0:
236,152,61471,1,0,0:0:0:0:
240,160,61550,1,0,0:0:0:0:
244,168,61629,1,0,0:0:0:0:
248,176,61708,1,0,0:0:0:0:
252,184,61787,1,0,0:0:0:0:
256,192,61866,6,0,L|352:192,1,90,8|0,0:0|0:0,0:0:0:0:
346,192,62181,1,8,0:0:0:0:
452,212,62339,1,0,0:0:0:0:
404,308,62497,2,0,L|224:308,1,180,8|8,0:0|0:0,0:0:0:0:
224,308,62971,1,0,0:0:0:0:
124,264,63129,2,0,P|108:308|128:352,2,90,8|0|8,0:0|0:0|0:0,0:0:0:0:
96,48,63760,6,0,P|128:104|192:124,1,135,8|0,0:0|0:0,0:0:0:0:
228,132,64076,2,0,P|272:144|292:184,1,90,8|0,0:0|0:0,0:0:0:0:
200,236,64392,2,0,P|168:264|120:264,1,90,8|0,0:0|0:0,0:0:0:0:
312,148,64708,2,0,P|344:120|392:120,2,90,8|0|8,0:0|0:0|0:0,0:0:0:0:
464,72,65181,1,0,0:0:0:0:
476,108,65260,1,0,0:0:0:0:
472,144,65339,1,8,0:0:0:0:
452,176,65418,1,0,0:0:0:0:
424,196,65497,2,0,B|380:256|432:328|432:328|376:320,1,180
200,236,65971,2,0,L|288:260,1,90,8|0,0:0|0:0,0:0:0:0:
140,288,66287,5,8,0:0:0:0:
120,212,66445,2,0,L|72:196,1,45
48,176,66602,2,0,L|40:128,1,45,8|0,0:0|0:0,0:0:0:0:
64,104,66760,2,0,P|136:56|224:76,1,180
324,252,67234,1,8,0:0:0:0:
324,252,67392,2,0,B|252:220|272:140|272:140|232:156,1,180
348,172,67866,1,8,0:0:0:0:
348,172,68023,2,0,L|436:140,1,90,0|8,0:0|0:0,0:0:0:0:
164,212,68339,6,0,L|76:244,1,90,0|8,0:0|0:0,0:0:0:0:
44,228,68576,1,0,0:0:0:0:
36,192,68655,2,0,P|64:112|112:100,1,135,0|0,0:0|0:0,0:0:0:0:
144,100,68971,2,0,P|188:100|224:68,1,90,0|8,0:0|0:0,0:0:0:0:
392,56,69287,1,0,0:0:0:0:
392,56,69366,1,0,0:0:0:0:
392,56,69445,2,0,P|316:80|256:160,1,180,8|8,0:0|0:0,0:0:0:0:
156,196,69918,1,0,0:0:0:0:
200,292,70076,1,8,0:0:0:0:
300,252,70234,1,0,0:0:0:0:
260,152,70392,1,8,0:0:0:0:
260,152,70471,1,0,0:0:0:0:
260,152,70550,1,0,0:0:0:0:
72,212,70708,6,0,P|96:132|184:112,1,180,8|8,0:0|0:0,0:0:0:0:
182,112,71655,5,8,0:0:0:0:
360,80,71971,5,2,0:0:0:0:
412,156,72129,1,0,0:0:0:0:
380,240,72287,1,2,0:0:0:0:
292,256,72445,1,0,0:0:0:0:
224,196,72602,2,0,P|144:160|56:184,1,180,2|2,0:0|0:0,0:0:0:0:
120,304,73076,5,0,0:0:0:0:
120,304,73155,1,0,0:0:0:0:
120,304,73234,2,0,P|168:296|228:304,1,90,2|0,0:0|0:0,0:0:0:0:
388,272,73550,2,0,P|340:280|280:272,1,90,2|0,0:0|0:0,0:0:0:0:
236,212,73866,1,2,0:0:0:0:
92,108,74181,6,0,L|-8:108,1,90,2|0,0:0|0:0,0:0:0:0:
120,176,74497,2,0,L|312:176,1,180,2|2,0:0|0:0,0:0:0:0:
408,324,74971,2,0,L|216:324,2,180,2|0|2,0:0|0:0|0:0,0:0:0:0:
460,252,75760,5,2,0:0:0:0:
440,164,75918,1,0,0:0:0:0:
380,96,76076,1,2,0:0:0:0:
292,88,76234,1,0,0:0:0:0:
220,140,76392,5,2,0:0:0:0:
224,160,76471,1,0,0:0:0:0:
224,184,76550,1,0,0:0:0:0:
216,204,76629,1,0,0:0:0:0:
200,216,76708,1,2,0:0:0:0:
180,224,76787,1,0,0:0:0:0:
156,224,76866,1,0,0:0:0:0:
136,216,76945,1,0,0:0:0:0:
124,200,77023,6,0,P|40:228|40:312,1,180,6|0,0:0|0:0,0:0:0:0:
128,328,77813,2,0,L|228:328,2,90
368,60,78918,5,0,0:0:0:0:
360,132,79234,1,0,0:0:0:0:
296,164,79550,5,2,0:0:0:0:
165,198,79708,1,0,0:0:0:0:
261,294,79866,1,2,0:0:0:0:
136,123,80023,5,0,0:0:0:0:
276,336,80181,1,2,0:0:0:0:
99,298,80339,1,0,0:0:0:0:
312,160,80497,1,2,0:0:0:0:
196,228,80655,6,0,L|396:228,1,180,2|2,0:0|0:0,0:0:0:0:
376,228,81129,1,0,0:0:0:0:
256,192,81287,12,0,81918,0:0:0:0:
268,132,82076,6,0,P|320:120|360:88,1,90,4|0,0:0|0:0,0:0:0:0:
212,64,82392,1,8,0:0:0:0:
176,144,82550,2,0,P|124:156|84:188,1,90,0|8,0:0|0:0,0:0:0:0:
48,304,82866,2,0,P|100:292|140:260,1,90,0|8,0:0|0:0,0:0:0:0:
216,244,83181,1,0,0:0:0:0:
216,244,83339,6,0,P|296:272|388:236,1,180,8|8,0:0|0:0,0:0:0:0:
382,241,83813,1,0,0:0:0:0:
144,112,84287,6,0,P|220:88|340:104,1,180,8|8,0:0|0:0,0:0:0:0:
360,176,84760,1,0,0:0:0:0:
300,244,84918,1,8,0:0:0:0:
228,296,85076,6,0,P|152:320|32:304,1,180
16,228,85550,2,0,P|52:192|112:180,1,90,8|0,0:0|0:0,0:0:0:0:
164,232,85866,6,0,P|256:232|316:144,1,180,8|8,0:0|0:0,0:0:0:0:
356,92,86339,1,0,0:0:0:0:
268,100,86497,2,0,P|236:128|188:136,1,90,8|0,0:0|0:0,0:0:0:0:
156,128,86734,1,0,0:0:0:0:
128,104,86813,6,0,P|92:188|112:292,2,180,8|8|8,0:0|0:0|0:0,0:0:0:0:
296,68,87602,2,0,L|392:40,1,90,0|8,0:0|0:0,0:0:0:0:
364,132,87918,2,0,L|460:104,1,90,0|8,0:0|0:0,0:0:0:0:
436,196,88234,1,0,0:0:0:0:
436,196,88392,6,0,L|236:248,1,180,8|8,0:0|0:0,0:0:0:0:
240,252,88787,1,0,0:0:0:0:
216,256,88866,1,0,0:0:0:0:
196,252,88945,1,0,0:0:0:0:
180,236,89023,1,8,0:0:0:0:
88,36,89339,5,8,0:0:0:0:
144,108,89497,1,0,0:0:0:0:
88,176,89655,5,8,0:0:0:0:
84,200,89734,1,0,0:0:0:0:
88,224,89813,1,0,0:0:0:0:
100,244,89892,1,0,0:0:0:0:
120,256,89971,1,8,0:0:0:0:
140,260,90050,1,0,0:0:0:0:
160,256,90129,1,0,0:0:0:0:
180,244,90208,1,0,0:0:0:0:
200,232,90287,5,8,0:0:0:0:
220,212,90366,1,0,0:0:0:0:
244,200,90445,1,0,0:0:0:0:
272,196,90523,1,0,0:0:0:0:
300,200,90602,1,8,0:0:0:0:
324,212,90681,1,0,0:0:0:0:
336,236,90760,1,0,0:0:0:0:
344,260,90839,1,0,0:0:0:0:
368,284,90918,6,0,L|432:272,1,45,8|0,0:0|0:0,0:0:0:0:
396,224,91076,2,0,L|460:212,1,45
420,164,91234,2,0,L|484:152,1,45,8|0,0:0|0:0,0:0:0:0:
436,108,91392,2,0,L|500:96,1,45
452,52,91550,2,0,L|516:40,1,45,8|0,0:0|0:0,0:0:0:0:
412,12,91708,2,0,P|360:4|296:28,2,90,0|8|0,0:0|0:0|0:0,0:0:0:0:
320,112,92181,5,8,0:0:0:0:
292,136,92260,1,0,0:0:0:0:
256,144,92339,1,0,0:0:0:0:
220,140,92418,1,0,0:0:0:0:
184,128,92497,2,0,P|124:120|76:92,1,90,8|0,0:0|0:0,0:0:0:0:
16,216,92813,2,0,P|76:224|124:252,1,90,8|0,0:0|0:0,0:0:0:0:
188,344,93129,5,8,0:0:0:0:
204,312,93208,1,0,0:0:0:0:
232,288,93287,1,0,0:0:0:0:
268,276,93366,1,0,0:0:0:0:
304,272,93445,2,0,P|368:268|416:284,1,90,8|0,0:0|0:0,0:0:0:0:
320,160,93760,2,0,P|256:164|208:148,1,90,8|0,0:0|0:0,0:0:0:0:
148,120,94076,1,8,0:0:0:0:
72,284,94392,6,0,P|124:256|168:248,1,90,8|0,0:0|0:0,0:0:0:0:
232,296,94708,2,0,L|440:296,1,180,8|8,0:0|0:0,0:0:0:0:
272,184,95181,2,0,L|64:184,1,180
56,176,95576,1,0,0:0:0:0:
48,140,95655,1,8,0:0:0:0:
72,116,95734,1,0,0:0:0:0:
104,100,95813,1,0,0:0:0:0:
280,64,96129,5,0,0:0:0:0:
292,100,96208,1,0,0:0:0:0:
284,136,96287,1,8,0:0:0:0:
264,168,96366,1,0,0:0:0:0:
232,184,96445,5,4,0:0:0:0:
76,272,96760,1,4,0:0:0:0:
236,352,97076,1,4,0:0:0:0:
384,248,97392,6,0,L|488:248,2,90,0|8|0,0:0|0:0|0:0,0:0:0:0:
292,248,97866,2,0,L|104:248,1,180,0|8,0:0|0:0,0:0:0:0:
84,68,98497,6,0,L|200:68,1,90,8|0,0:0|0:0,0:0:0:0:
428,68,98813,2,0,L|338:68,1,90,8|0,0:0|0:0,0:0:0:0:
140,192,99129,2,0,L|50:192,1,90,8|0,0:0|0:0,0:0:0:0:
356,192,99445,2,0,L|472:192,1,90,8|0,0:0|0:0,0:0:0:0:
256,312,99760,6,0,L|256:104,1,202.500007724762,8|0,0:0|0:0,0:0:0:0:
256,110,100392,1,8,0:0:0:0:
256,28,100866,5,0,0:0:0:0:
264,48,100945,1,0,0:0:0:0:
280,64,101023,2,0,P|328:104|372:104,1,90,8|0,0:0|0:0,0:0:0:0:
348,244,101339,2,0,P|396:204|440:204,1,90,8|0,0:0|0:0,0:0:0:0:
288,180,101655,6,0,L|204:228,1,90,8|0,0:0|0:0,0:0:0:0:
28,220,101971,2,0,L|112:172,1,90,8|0,0:0|0:0,0:0:0:0:
264,84,102287,1,8,0:0:0:0:
232,104,102366,1,0,0:0:0:0:
204,124,102445,5,0,0:0:0:0:
52,344,102760,1,12,0:0:0:0:
324,348,103076,1,12,0:0:0:0:
188,264,103392,1,12,0:0:0:0:
256,192,103866,12,0,104655,0:0:0:0:
80,76,104813,6,0,P|172:88|216:160,1,180,8|8,0:0|0:0,0:0:0:0:
215,156,105287,1,0,0:0:0:0:
480,100,105445,2,0,P|432:176|348:192,1,180,8|8,0:0|0:0,0:0:0:0:
228,312,105918,1,0,0:0:0:0:
228,312,105997,1,0,0:0:0:0:
228,312,106076,2,0,P|260:276|312:272,2,90,8|0|8,0:0|0:0|0:0,0:0:0:0:
440,264,106550,1,0,0:0:0:0:
440,264,106708,2,0,P|392:340|308:356,1,180,8|8,0:0|0:0,0:0:0:0:
175,240,107181,5,0,0:0:0:0:
175,240,107339,2,0,L|231:316,1,90,8|0,0:0|0:0,0:0:0:0:
104,276,107655,2,0,P|120:180|192:160,2,180,8|8|8,0:0|0:0|0:0,0:0:0:0:
188,348,108445,1,0,0:0:0:0:
188,348,108523,1,0,0:0:0:0:
188,348,108602,2,0,L|292:324,1,101.250003862381,8|0,0:0|0:0,0:0:0:0:
320,280,108918,2,0,L|184:240,1,135,8|0,0:0|0:0,0:0:0:0:
140,196,109234,2,0,L|312:164,1,168.75,8|0,0:0|0:0,0:0:0:0:
344,128,109550,5,8,0:0:0:0:
352,132,109629,1,0,0:0:0:0:
360,136,109708,1,0,0:0:0:0:
368,140,109787,1,0,0:0:0:0:
376,144,109866,2,0,L|464:188,1,90,8|0,0:0|0:0,0:0:0:0:
256,268,110339,1,0,0:0:0:0:
164,228,110497,1,8,0:0:0:0:
400,60,110813,6,0,L|488:32,1,90,8|0,0:0|0:0,0:0:0:0:
312,52,111129,2,0,B|260:80|264:136|264:136|264:184|224:204,1,180,8|8,0:0|0:0,0:0:0:0:
164,228,111602,1,0,0:0:0:0:
92,184,111760,2,0,P|132:148|172:144,1,90,8|0,0:0|0:0,0:0:0:0:
92,268,112076,2,0,P|168:312|212:296,1,135,8|0,0:0|0:0,0:0:0:0:
240,280,112392,6,0,L|280:312,3,45,8|0|0|0,0:0|0:0|0:0|0:0,0:0:0:0:
312,316,112708,2,0,L|368:312,3,45,8|0|0|0,0:0|0:0|0:0|0:0,0:0:0:0:
392,304,113023,2,0,L|432:272,3,45,8|0|0|0,0:0|0:0|0:0|0:0,0:0:0:0:
448,248,113339,2,0,L|456:192,3,45,8|0|0|0,0:0|0:0|0:0|0:0,0:0:0:0:
452,168,113655,2,0,L|428:124,1,45,8|0,0:0|0:0,0:0:0:0:
404,104,113813,5,0,0:0:0:0:
380,92,113892,1,0,0:0:0:0:
356,84,113971,1,8,0:0:0:0:
332,76,114050,1,0,0:0:0:0:
308,68,114129,1,0,0:0:0:0:
284,60,114208,1,0,0:0:0:0:
260,52,114287,1,8,0:0:0:0:
256,192,114445,1,8,0:0:0:0:
156,124,114918,5,4,0:0:0:0:
156,124,115076,2,0,P|140:192|156:260,1,135.000005149842,2|2,0:0|0:0,0:0:0:0:
172,292,115471,2,0,L|208:308,1,33.7500012874604
268,356,115708,2,0,P|316:308|384:304,1,135.000005149842,2|2,0:0|0:0,0:0:0:0:
448,256,116181,1,0,0:0:0:0:
448,256,116339,2,0,L|496:200,2,67.5000025749208,2|0|2,0:0|0:0|0:0,0:0:0:0:
452,92,116971,1,2,0:0:0:0:
376,68,117129,1,0,0:0:0:0:
316,124,117287,2,0,P|236:188|144:160,1,202.500007724762,2|0,0:0|0:0,0:0:0:0:
132,244,117918,2,0,P|180:284|188:352,2,135.000005149842,2|2|2,0:0|0:0|0:0,0:0:0:0:
380,244,119339,6,0,P|332:284|324:352,1,135.000005149842,2|0,0:0|0:0,0:0:0:0:
324,352,119971,2,0,P|296:260|320:156,1,202.500007724762,2|0,0:0|0:0,0:0:0:0:
318,158,120602,1,2,0:0:0:0:
318,159,120918,2,0,L|252:128,1,67.5000025749208,2|0,0:0|0:0,0:0:0:0:
193,224,121550,1,2,0:0:0:0:
193,224,121708,2,0,L|260:256,1,67.5000025749208,0|2,0:0|0:0,0:0:0:0:
193,224,122023,2,0,P|244:272|312:276,1,135.000005149842
372,228,122497,5,2,0:0:0:0:
172,152,122813,1,2,0:0:0:0:
408,96,123129,1,2,0:0:0:0:
104,288,123445,1,2,0:0:0:0:
320,296,123760,2,0,P|288:228|312:172,1,135.000005149842,2|2,0:0|0:0,0:0:0:0:
324,96,124234,2,0,L|288:36,2,67.5000025749208,0|2|0,0:0|0:0|0:0,0:0:0:0:
380,164,124708,5,0,0:0:0:0:
380,164,124866,2,0,P|316:256|144:276,1,270,2|0,0:0|0:0,0:0:0:0:
105,80,125497,2,0,P|154:153|240:172,1,180,2|2,0:0|0:0,0:0:0:0:
464,324,126129,6,0,P|380:236|236:256,1,270,2|0,0:0|0:0,0:0:0:0:
84,164,126760,2,2,P|104:248|180:300,1,180,2|0,0:0|0:0,0:0:0:0:
340,108,127392,5,2,0:0:0:0:
328,128,127471,1,0,0:0:0:0:
312,144,127550,2,0,P|220:168|124:148,1,180,0|0,0:0|0:0,0:0:0:0:
140,288,128023,2,0,P|228:301|314:278,2,180,2|2|2,0:0|0:0|0:0,0:0:0:0:
72,228,128813,5,0,0:0:0:0:
88,140,128971,1,2,0:0:0:0:
168,100,129129,2,0,P|216:120|260:116,1,90,0|2,0:0|0:0,0:0:0:0:
256,208,129445,2,0,P|307:201|343:175,2,90,0|2|0,0:0|0:0|0:0,0:0:0:0:
168,272,129918,5,2,0:0:0:0:
204,276,129997,1,0,0:0:0:0:
236,292,130076,2,0,P|288:316|320:348,1,90,6|0,0:0|0:0,0:0:0:0:
336,232,130392,2,0,P|388:208|420:176,1,90,2|0,0:0|0:0,0:0:0:0:
316,136,130708,2,0,P|292:84|260:52,1,90,2|0,0:0|0:0,0:0:0:0:
204,148,131023,2,0,P|152:172|120:204,1,90,2|0,0:0|0:0,0:0:0:0:
96,324,131339,5,2,0:0:0:0:
128,194,131497,1,0,0:0:0:0:
180,328,131655,1,2,0:0:0:0:
128,194,131813,1,0,0:0:0:0:
256,324,131971,5,2,0:0:0:0:
380,196,132129,1,0,0:0:0:0:
256,64,132287,1,2,0:0:0:0:
392,76,132445,5,0,0:0:0:0:
376,108,132523,1,0,0:0:0:0:
352,132,132602,2,0,P|312:156|240:152,1,90,6|2,0:0|0:0,0:0:0:0:
148,220,132918,1,2,0:0:0:0:
270,160,133076,1,0,0:0:0:0:
368,252,133234,1,2,0:0:0:0:
256,324,133392,1,0,0:0:0:0:
120,308,133550,6,0,P|160:268|204:244,1,90,2|0,0:0|0:0,0:0:0:0:
224,244,133787,1,0,0:0:0:0:
260,236,133866,1,6,0:0:0:0:
284,212,133945,1,0,0:0:0:0:
296,180,134023,1,0,0:0:0:0:
288,144,134102,1,0,0:0:0:0:
264,116,134181,1,2,0:0:0:0:
232,104,134260,1,0,0:0:0:0:
196,96,134339,1,0,0:0:0:0:
160,104,134418,1,0,0:0:0:0:
124,112,134497,6,0,P|156:60|288:56,1,180,2|2,0:0|0:0,0:0:0:0:
124,112,135129,6,0,P|104:152|116:196,1,90,2|0,0:0|0:0,0:0:0:0:
212,243,135445,2,0,P|228:202|216:160,1,90,2|0,0:0|0:0,0:0:0:0:
216,52,135760,2,0,L|400:52,1,180,2|2,0:0|0:0,0:0:0:0:
396,52,136234,1,2,0:0:0:0:
480,192,136392,6,0,P|456:236|416:256,1,90,2|0,0:0|0:0,0:0:0:0:
476,348,136708,2,0,P|432:360|388:340,1,90,2|0,0:0|0:0,0:0:0:0:
200,272,137023,2,2,L|344:272,1,135,0|0,0:0|0:0,0:0:0:0:
335,272,137339,1,2,0:0:0:0:
380,176,137497,1,0,0:0:0:0:
272,184,137655,2,0,P|236:164|180:164,1,90,2|0,0:0|0:0,0:0:0:0:
280,100,137971,1,2,0:0:0:0:
280,100,138129,2,0,P|348:152|332:240,2,180
160,136,138918,1,2,0:0:0:0:
40,172,139076,1,0,0:0:0:0:
28,296,139234,1,2,0:0:0:0:
144,348,139392,1,0,0:0:0:0:
232,256,139550,5,2,0:0:0:0:
244,232,139629,1,0,0:0:0:0:
260,212,139708,1,0,0:0:0:0:
284,200,139787,1,0,0:0:0:0:
312,192,139866,1,0,0:0:0:0:
340,196,139945,1,0,0:0:0:0:
364,208,140023,1,0,0:0:0:0:
384,228,140102,1,0,0:0:0:0:
392,252,140181,6,0,P|396:300|288:360,1,180,0|0,0:0|0:0,0:0:0:0:
296,362,142076,5,0,0:0:0:0:
228,340,142392,1,0,0:0:0:0:
196,276,142708,1,2,0:0:0:0:
220,76,142866,1,0,0:0:0:0:
312,248,143023,1,10,0:0:0:0:
132,168,143181,1,0,0:0:0:0:
336,124,143339,1,2,0:0:0:0:
336,124,143418,1,0,0:0:0:0:
336,124,143497,1,0,0:0:0:0:
432,112,143655,1,2,0:0:0:0:
432,112,143813,2,0,P|408:204|328:224,1,180
404,308,144287,2,0,L|496:308,1,90,2|0,0:0|0:0,0:0:0:0:
320,308,144602,6,0,L|232:308,1,67.5,4|0,0:0|0:0,0:0:0:0:
208,296,144918,5,0,0:0:0:0:
172,268,144997,1,0,0:0:0:0:
160,224,145076,1,0,0:0:0:0:
168,180,145155,1,0,0:0:0:0:
192,144,145234,2,0,P|272:112|364:136,1,180,0|8,0:0|0:0,0:0:0:0:
360,133,145708,1,0,0:0:0:0:
320,240,145866,2,0,P|240:272|148:248,1,180,8|8,0:0|0:0,0:0:0:0:
116,168,146339,1,0,0:0:0:0:
116,168,146418,1,0,0:0:0:0:
116,168,146497,2,0,L|44:232,1,90,8|0,0:0|0:0,0:0:0:0:
396,168,146813,2,0,L|463:227,2,90,0|0|8,0:0|0:0|0:0,0:0:0:0:
292,136,147287,1,0,0:0:0:0:
463,227,147445,6,0,P|444:288|376:328,1,135,8|0,0:0|0:0,0:0:0:0:
352,328,147760,1,8,0:0:0:0:
320,224,147918,1,0,0:0:0:0:
244,300,148076,2,0,L|192:284,1,45,8|0,0:0|0:0,0:0:0:0:
164,292,148234,2,0,P|96:232|100:144,1,180
84,116,148629,1,0,0:0:0:0:
68,84,148708,2,0,P|128:64|200:80,1,135,8|0,0:0|0:0,0:0:0:0:
228,96,149023,2,0,L|328:68,1,90,8|0,0:0|0:0,0:0:0:0:
436,120,149339,2,0,L|348:152,1,90,8|0,0:0|0:0,0:0:0:0:
240,228,149655,1,8,0:0:0:0:
244,236,149734,1,0,0:0:0:0:
248,244,149813,1,0,0:0:0:0:
252,252,149892,1,0,0:0:0:0:
256,260,149971,6,0,P|292:288|356:288,1,101.250003862381,8|0,0:0|0:0,0:0:0:0:
376,272,150287,2,0,P|376:204|332:156,1,135,8|0,0:0|0:0,0:0:0:0:
300,144,150602,2,0,P|256:120|240:76,1,90,8|0,0:0|0:0,0:0:0:0:
136,52,150918,1,8,0:0:0:0:
180,152,151076,1,0,0:0:0:0:
252,68,151234,1,8,0:0:0:0:
80,136,151392,2,0,P|80:180|116:228,2,90,0|8|0,0:0|0:0|0:0,0:0:0:0:
56,280,151866,1,8,0:0:0:0:
56,280,151945,1,0,0:0:0:0:
56,280,152023,2,0,B|104:316|164:268|164:268|184:228|228:240,1,180
256,336,152497,5,8,0:0:0:0:
256,336,152655,1,0,0:0:0:0:
360,304,152813,1,8,0:0:0:0:
336,200,152971,1,0,0:0:0:0:
440,172,153129,1,8,0:0:0:0:
464,276,153287,1,0,0:0:0:0:
400,240,153445,5,8,0:0:0:0:
256,336,153602,1,0,0:0:0:0:
168,192,153760,1,8,0:0:0:0:
312,96,153918,1,0,0:0:0:0:
288,220,154076,1,2,0:0:0:0:
284,224,154155,1,0,0:0:0:0:
280,228,154234,1,0,0:0:0:0:
276,232,154313,1,0,0:0:0:0:
272,236,154392,1,2,0:0:0:0:
268,240,154471,1,0,0:0:0:0:
264,244,154550,1,0,0:0:0:0:
260,248,154629,1,0,0:0:0:0:
256,252,154708,1,2,0:0:0:0:
252,256,154787,5,0,0:0:0:0:
224,276,154866,1,0,0:0:0:0:
192,288,154945,1,0,0:0:0:0:
156,288,155023,1,2,0:0:0:0:
120,276,155102,1,0,0:0:0:0:
96,248,155181,6,0,P|76:208|84:160,1,90
52,144,155576,5,0,0:0:0:0:
52,144,155655,2,0,P|128:96|216:112,1,180,12|8,0:0|0:0,0:0:0:0:
460,240,156129,1,0,0:0:0:0:
460,240,156287,2,0,P|384:288|308:280,1,135,8|0,0:0|0:0,0:0:0:0:
308,272,156602,2,0,P|272:300|256:340,1,90,8|0,0:0|0:0,0:0:0:0:
128,200,156918,2,0,P|140:248|180:276,1,90,8|0,0:0|0:0,0:0:0:0:
160,372,157234,2,0,P|124:280|128:196,1,180,8|8,0:0|0:0,0:0:0:0:
44,132,157708,5,0,0:0:0:0:
144,88,157866,2,0,P|188:100|216:136,2,90,0|0|8,0:0|0:0|0:0,0:0:0:0:
60,20,158339,2,0,B|148:12|148:12|240:28,1,180
416,52,158813,1,8,0:0:0:0:
416,52,158892,1,0,0:0:0:0:
416,52,158971,2,0,B|372:56|372:56|316:44,1,90,8|0,0:0|0:0,0:0:0:0:
252,136,159287,2,0,B|296:132|296:132|352:144,1,90,8|0,0:0|0:0,0:0:0:0:
264,228,159603,2,0,B|220:232|220:232|164:220,1,90,8|0,0:0|0:0,0:0:0:0:
84,316,159918,2,0,B|128:312|128:312|184:324,1,90,8|0,0:0|0:0,0:0:0:0:
476,332,160234,6,0,B|364:344|364:344|248:320,1,225,8|8,0:0|0:0,0:0:0:0:
180,140,161655,5,8,0:0:0:0:
204,268,161813,1,0,0:0:0:0:
332,244,161971,1,8,0:0:0:0:
308,116,162129,1,0,0:0:0:0:
308,116,162287,1,8,0:0:0:0:
404,168,162445,5,0,0:0:0:0:
428,192,162523,1,0,0:0:0:0:
436,228,162602,1,8,0:0:0:0:
420,260,162681,1,0,0:0:0:0:
388,276,162760,1,0,0:0:0:0:
352,268,162839,1,0,0:0:0:0:
332,244,162918,2,0,P|248:252|264:328,1,180,8|8,0:0|0:0,0:0:0:0:
180,140,163392,1,0,0:0:0:0:
180,140,163550,6,0,P|264:132|248:56,1,180,4|8,0:0|0:0,0:0:0:0:
144,44,164339,6,0,P|104:64|80:112,2,90,0|8|0,0:0|0:0|0:0,0:0:0:0:
76,224,164813,2,0,P|116:204|140:156,1,90,8|0,0:0|0:0,0:0:0:0:
260,344,165129,1,0,0:0:0:0:
260,308,165208,1,0,0:0:0:0:
260,272,165287,1,2,0:0:0:0:
260,236,165366,1,0,0:0:0:0:
260,200,165445,1,0,0:0:0:0:
260,164,165602,5,2,0:0:0:0:
260,128,165918,5,2,0:0:0:0:
260,92,166234,5,2,0:0:0:0:
260,56,166550,5,4,0:0:0:0:
256,192,167023,12,0,167813,0:0:0:0:
124,104,167971,6,0,L|32:104,2,90,2|0|2,0:0|0:0|0:0,0:0:0:0:
384,192,168445,6,0,L|476:192,2,90,0|2|0,0:0|0:0|0:0,0:0:0:0:
124,280,168918,6,0,L|32:280,2,90,2|0|2,0:0|0:0|0:0,0:0:0:0:
160,276,169313,1,0,0:0:0:0:
192,260,169392,1,0,0:0:0:0:
208,228,169471,1,0,0:0:0:0:
224,196,169550,1,2,0:0:0:0:
248,168,169629,1,0,0:0:0:0:
284,156,169708,1,0,0:0:0:0:
320,156,169787,1,0,0:0:0:0:
352,168,169866,1,2,0:0:0:0:
376,196,169945,1,0,0:0:0:0:
376,232,170023,1,0,0:0:0:0:
356,264,170102,1,0,0:0:0:0:
324,280,170181,1,2,0:0:0:0:
288,280,170260,1,0,0:0:0:0:
260,256,170339,1,0,0:0:0:0:
236,228,170418,1,0,0:0:0:0:
208,204,170497,6,0,P|148:176|36:196,1,180,4|2,0:0|0:0,0:0:0:0:
20,300,170971,5,0,0:0:0:0:
128,292,171129,2,0,P|200:280|272:300,1,135,2|0,0:0|0:0,0:0:0:0:
316,336,171445,2,0,P|388:336|408:320,1,90,2|0,0:0|0:0,0:0:0:0:
464,208,171760,6,0,P|404:184|264:184,1,180,2|2,0:0|0:0,0:0:0:0:
72,188,172392,6,0,P|120:136|232:116,1,180
236,132,172787,1,0,0:0:0:0:
248,152,172866,1,0,0:0:0:0:
260,172,172945,1,0,0:0:0:0:
272,192,173023,1,4,0:0:0:0:
440,328,173339,5,0,0:0:0:0:
404,316,173418,1,0,0:0:0:0:
368,304,173497,1,4,0:0:0:0:
100,276,173813,1,4,0:0:0:0:
240,44,174129,6,0,P|224:128|120:172,1,180,4|0,0:0|0:0,0:0:0:0:
40,156,174602,1,8,0:0:0:0:
60,264,174760,1,0,0:0:0:0:
160,220,174918,5,8,0:0:0:0:
172,208,174997,1,0,0:0:0:0:
184,196,175076,1,0,0:0:0:0:
200,188,175155,1,0,0:0:0:0:
216,184,175234,1,8,0:0:0:0:
236,184,175313,1,0,0:0:0:0:
252,184,175392,1,0,0:0:0:0:
268,176,175471,1,0,0:0:0:0:
288,172,175550,6,0,P|324:136|340:96,1,90,8|0,0:0|0:0,0:0:0:0:
404,12,175866,2,0,P|440:48|456:88,1,90,8|0,0:0|0:0,0:0:0:0:
412,212,176181,5,8,0:0:0:0:
304,292,176339,1,0,0:0:0:0:
204,200,176497,1,8,0:0:0:0:
120,40,176813,6,0,P|76:72|24:76,1,90,8|0,0:0|0:0,0:0:0:0:
168,124,177129,2,0,P|212:156|264:160,1,90,8|0,0:0|0:0,0:0:0:0:
372,212,177445,6,0,P|328:221|293:249,1,90,8|8,0:0|0:0,0:0:0:0:
280,272,177681,1,0,0:0:0:0:
260,288,177760,1,8,0:0:0:0:
236,296,177839,1,0,0:0:0:0:
208,300,177918,1,8,0:0:0:0:
180,296,177997,1,0,0:0:0:0:
156,280,178076,6,0,P|96:220|0:220,1,180,8|8,0:0|0:0,0:0:0:0:
140,96,178550,2,0,P|200:156|296:156,2,180,8|8|8,0:0|0:0|0:0,0:0:0:0:
260,32,179339,5,8,0:0:0:0:
316,156,179497,1,0,0:0:0:0:
196,220,179655,1,8,0:0:0:0:
140,96,179813,1,0,0:0:0:0:
68,176,179971,5,8,0:0:0:0:
120,272,180129,1,0,0:0:0:0:
228,292,180287,1,8,0:0:0:0:
316,228,180445,5,0,0:0:0:0:
284,216,180523,1,0,0:0:0:0:
256,196,180602,2,0,P|288:120|212:52,1,180,8|8,0:0|0:0,0:0:0:0:
112,124,181076,5,0,0:0:0:0:
84,116,181234,1,8,0:0:0:0:
60,108,181392,1,0,0:0:0:0:
36,100,181550,1,8,0:0:0:0:
12,92,181708,1,0,0:0:0:0:
184,148,181866,6,0,L|272:176,1,90,8|0,0:0|0:0,0:0:0:0:
240,260,182181,2,0,L|328:288,1,90,8|8,0:0|0:0,0:0:0:0:
268,360,182497,2,0,P|176:328|120:256,1,180,8|8,0:0|0:0,0:0:0:0:
196,100,183129,6,0,P|104:132|48:204,1,180,8|8,0:0|0:0,0:0:0:0:
68,300,183602,1,0,0:0:0:0:
100,284,183681,1,0,0:0:0:0:
132,268,183760,2,0,L|308:168,1,180,8|8,0:0|0:0,0:0:0:0:
416,4,184392,6,0,P|416:104|336:152,1,180,12|8,0:0|0:0,0:0:0:0:
268,88,184866,1,0,0:0:0:0:
240,108,184945,1,0,0:0:0:0:
208,128,185023,2,0,L|32:228,1,180,8|8,0:0|0:0,0:0:0:0:
192,328,185655,5,2,0:0:0:0:
224,312,185734,1,0,0:0:0:0:
256,296,185813,1,2,0:0:0:0:
388,328,185971,1,2,0:0:0:0:
420,312,186050,1,0,0:0:0:0:
452,296,186129,1,2,0:0:0:0:
376,132,186287,5,2,0:0:0:0:
344,148,186366,1,0,0:0:0:0:
312,164,186445,1,2,0:0:0:0:
180,132,186603,1,2,0:0:0:0:
148,148,186682,1,0,0:0:0:0:
116,164,186761,1,2,0:0:0:0:
92,340,186918,6,0,L|24:272,1,90,2|2,0:0|0:0,0:0:0:0:
208,308,187234,2,2,L|140:240,1,90,2|2,0:0|0:0,0:0:0:0:
324,272,187550,2,0,L|256:204,1,90,2|2,0:0|0:0,0:0:0:0:
440,228,187866,2,0,L|372:160,1,90,2|2,0:0|0:0,0:0:0:0:
436,44,188181,6,0,P|380:36|332:48,1,90,12|0,0:0|0:0,0:0:0:0:
328,72,188418,1,0,0:0:0:0:
320,108,188497,1,8,0:0:0:0:
304,140,188576,1,0,0:0:0:0:
272,160,188655,1,0,0:0:0:0:
236,160,188734,1,0,0:0:0:0:
204,140,188813,1,8,0:0:0:0:
172,124,188892,1,0,0:0:0:0:
136,116,188971,1,0,0:0:0:0:
100,124,189050,1,0,0:0:0:0:
76,148,189129,1,8,0:0:0:0:
64,184,189208,1,0,0:0:0:0:
72,220,189287,1,0,0:0:0:0:
100,244,189366,1,0,0:0:0:0:
136,252,189445,6,0,L|200:252,2,45,8|0|0,0:0|0:0|0:0,0:0:0:0:
28,336,189760,1,0,0:0:0:0:
328,188,189918,1,0,0:0:0:0:
124,192,190076,6,0,L|196:192,1,67.5000025749208,2|0,0:0|0:0,0:0:0:0:
168,268,190392,2,0,L|240:268,1,67.5000025749208,2|0,0:0|0:0,0:0:0:0:
216,348,190708,2,0,L|360:348,1,135.000005149842,2|2,0:0|0:0,0:0:0:0:
488,260,191339,1,2,0:0:0:0:
344,188,191655,1,2,0:0:0:0:
268,200,191971,5,2,0:0:0:0:
412,128,192287,1,2,0:0:0:0:
280,36,192602,1,2,0:0:0:0:
212,108,192918,1,2,0:0:0:0:
112,112,193234,5,2,0:0:0:0:
92,272,193550,1,2,0:0:0:0:
248,228,193866,1,2,0:0:0:0:
248,228,194181,1,2,0:0:0:0:
212,292,194497,5,2,0:0:0:0:
336,188,194813,1,2,0:0:0:0:
376,344,195129,2,0,B|336:276|448:352|464:160|464:160|412:188,1,270.000010299683,2|2,0:0|0:0,0:0:0:0:
424,181,196076,1,2,0:0:0:0:
336,120,196392,1,2,0:0:0:0:
244,60,196708,1,2,0:0:0:0:
87,202,197023,5,2,0:0:0:0:
176,264,197339,1,2,0:0:0:0:
268,324,197655,1,2,0:0:0:0:
268,324,197971,1,2,0:0:0:0:
256,192,198287,12,0,200497,0:0:0:0:
132,64,200813,6,0,L|220:96,1,90,2|0,0:0|0:0,0:0:0:0:
228,196,201129,2,0,L|140:160,1,90,2|0,0:0|0:0,0:0:0:0:
244,292,201445,2,0,P|320:344|408:344,1,180,2|2,0:0|0:0,0:0:0:0:
405,344,201918,1,0,0:0:0:0:
352,256,202076,6,0,L|396:172,1,90,2|0,0:0|0:0,0:0:0:0:
152,256,202392,2,0,L|110:335,1,90,2|0,0:0|0:0,0:0:0:0:
272,172,202708,2,0,B|288:104|348:68|348:68|296:56,1,180,2|2,0:0|0:0,0:0:0:0:
301,57,203181,1,0,0:0:0:0:
200,84,203339,1,2,0:0:0:0:
100,124,203497,1,0,0:0:0:0:
168,208,203655,1,2,0:0:0:0:
64,240,203813,6,0,P|92:304|160:328,1,135
184,332,204129,2,0,P|256:288|328:340,1,180
362,328,204523,2,0,P|423:301|448:240,1,135
447,240,204839,1,0,0:0:0:0:
447,240,204918,1,2,0:0:0:0:
428,136,205076,1,0,0:0:0:0:
336,80,205234,1,2,0:0:0:0:
328,116,205313,1,0,0:0:0:0:
332,152,205392,1,0,0:0:0:0:
356,180,205471,1,0,0:0:0:0:
320,184,205550,5,2,0:0:0:0:
284,188,205629,1,0,0:0:0:0:
256,212,205708,1,0,0:0:0:0:
244,244,205787,1,0,0:0:0:0:
248,280,205866,6,0,P|212:364|104:328,1,225,2|0,0:0|0:0,0:0:0:0:
24,256,206813,6,0,L|124:256,2,90,0|2|0,0:0|0:0|0:0,0:0:0:0:
168,172,207287,2,0,L|68:172,2,90,2|0|2,0:0|0:0|0:0,0:0:0:0:
308,140,207760,1,0,0:0:0:0:
308,140,207839,1,0,0:0:0:0:
308,140,207918,1,2,0:0:0:0:
268,280,208076,1,0,0:0:0:0:
268,280,208155,1,0,0:0:0:0:
268,280,208234,1,2,0:0:0:0:
160,280,208392,5,0,0:0:0:0:
168,172,208550,1,2,0:0:0:0:
68,216,208708,2,0,P|68:144|108:96,1,135
136,80,209023,2,0,L|112:32,2,45,0|0|2,0:0|0:0|0:0,0:0:0:0:
172,72,209260,2,0,L|196:120,2,45
208,76,209497,1,2,0:0:0:0:
304,308,209813,1,2,0:0:0:0:
304,308,209971,1,0,0:0:0:0:
160,352,210129,5,2,0:0:0:0:
156,308,210208,1,0,0:0:0:0:
164,264,210287,1,0,0:0:0:0:
192,232,210366,1,0,0:0:0:0:
228,204,210445,1,2,0:0:0:0:
272,196,210523,1,0,0:0:0:0:
312,172,210602,1,0,0:0:0:0:
340,136,210681,1,0,0:0:0:0:
344,92,210760,1,2,0:0:0:0:
448,192,211076,1,6,0:0:0:0:
448,192,211234,1,4,0:0:0:0:
256,192,211313,12,0,212023,0:0:0:0:
412,308,212181,6,0,P|356:288|328:252,1,90,2|0,0:0|0:0,0:0:0:0:
300,164,212497,1,2,0:0:0:0:
336,268,212655,1,0,0:0:0:0:
236,304,212813,2,0,P|177:314|135:297,1,90,2|0,0:0|0:0,0:0:0:0:
88,216,213129,1,2,0:0:0:0:
196,204,213287,1,0,0:0:0:0:
300,164,213445,6,0,P|352:132|372:100,1,90,2|0,0:0|0:0,0:0:0:0:
260,96,213760,2,0,P|289:42|290:4,1,90,2|0,0:0|0:0,0:0:0:0:
184,112,214076,2,0,P|166:53|140:25,1,90,2|0,0:0|0:0,0:0:0:0:
224,180,214392,6,0,P|264:260|364:296,1,180,2|2,0:0|0:0,0:0:0:0:
440,248,214866,1,0,0:0:0:0:
344,200,215023,1,2,0:0:0:0:
424,128,215181,2,0,P|376:96|332:84,1,90,0|2,0:0|0:0,0:0:0:0:
240,68,215497,2,0,P|183:79|143:101,1,90,0|2,0:0|0:0,0:0:0:0:
276,160,215813,1,0,0:0:0:0:
208,276,215971,5,2,0:0:0:0:
276,160,216129,1,0,0:0:0:0:
132,272,216287,1,2,0:0:0:0:
276,160,216445,1,0,0:0:0:0:
100,200,216602,2,0,P|60:164|16:148,1,90,2|0,0:0|0:0,0:0:0:0:
52,44,216918,5,2,0:0:0:0:
84,60,216997,1,0,0:0:0:0:
116,76,217076,1,0,0:0:0:0:
292,108,217234,6,0,L|208:64,1,90,2|0,0:0|0:0,0:0:0:0:
216,204,217550,2,0,L|300:248,1,90,2|0,0:0|0:0,0:0:0:0:
308,380,217866,2,0,L|224:336,1,90,2|0,0:0|0:0,0:0:0:0:
40,286,218181,2,0,L|120:328,1,90,2|0,0:0|0:0,0:0:0:0:
228,336,218497,5,2,0:0:0:0:
328,300,218655,1,0,0:0:0:0:
404,224,218813,1,2,0:0:0:0:
412,116,218971,1,0,0:0:0:0:
412,116,219129,2,0,P|360:100|316:104,1,90,2|0,0:0|0:0,0:0:0:0:
224,144,219445,5,2,0:0:0:0:
244,132,219523,1,0,0:0:0:0:
252,112,219602,1,0,0:0:0:0:
240,92,219681,1,0,0:0:0:0:
216,88,219760,1,2,0:0:0:0:
196,92,219839,1,0,0:0:0:0:
180,104,219918,1,0,0:0:0:0:
168,120,219997,1,0,0:0:0:0:
160,144,220076,5,2,0:0:0:0:
160,172,220155,1,0,0:0:0:0:
172,196,220234,1,0,0:0:0:0:
192,212,220313,1,0,0:0:0:0:
216,224,220392,1,2,0:0:0:0:
244,228,220471,1,0,0:0:0:0:
272,224,220550,1,0,0:0:0:0:
296,216,220629,1,0,0:0:0:0:
328,208,220708,5,2,0:0:0:0:
356,220,220787,1,0,0:0:0:0:
372,248,220866,1,0,0:0:0:0:
372,280,220945,1,0,0:0:0:0:
352,308,221023,6,0,L|304:348,1,45,2|0,0:0|0:0,0:0:0:0:
272,308,221181,2,0,L|224:348,1,45
192,304,221339,2,0,L|144:344,1,45,2|0,0:0|0:0,0:0:0:0:
116,296,221497,2,0,L|68:336,1,45
40,288,221655,2,0,L|-8:328,1,45,2|0,0:0|0:0,0:0:0:0:
12,224,221813,6,0,L|12:120,2,90,0|2|0,0:0|0:0|0:0,0:0:0:0:
72,312,222287,5,0,0:0:0:0:
96,296,222366,1,0,0:0:0:0:
120,284,222445,1,0,0:0:0:0:
144,276,222523,1,0,0:0:0:0:
172,276,222602,1,0,0:0:0:0:
200,276,222681,1,0,0:0:0:0:
228,276,222760,1,0,0:0:0:0:
256,272,222839,1,0,0:0:0:0:
280,260,222918,6,0,B|316:232|316:232|392:232,1,90,2|0,0:0|0:0,0:0:0:0:
472,156,223234,5,2,0:0:0:0:
436,148,223313,1,0,0:0:0:0:
400,140,223392,1,0,0:0:0:0:
364,140,223471,1,0,0:0:0:0:
328,140,223550,1,2,0:0:0:0:
292,140,223629,1,0,0:0:0:0:
256,136,223708,1,0,0:0:0:0:
220,128,223787,1,0,0:0:0:0:
184,120,223866,6,0,B|136:108|136:108|84:108,1,90,2|0,0:0|0:0,0:0:0:0:
8,212,224181,2,0,B|56:224|56:224|108:224,1,90,2|0,0:0|0:0,0:0:0:0:
232,228,224497,1,2,0:0:0:0:
96,224,224655,1,0,0:0:0:0:
168,336,224813,6,0,L|268:336,2,90,2|0|2,0:0|0:0|0:0,0:0:0:0:
36,312,225287,2,0,P|84:236|192:200,1,180
196,212,225681,1,0,0:0:0:0:
228,228,225760,1,2,0:0:0:0:
264,228,225839,1,0,0:0:0:0:
296,212,225918,1,0,0:0:0:0:
448,116,226234,5,0,0:0:0:0:
412,108,226313,1,0,0:0:0:0:
376,108,226392,1,2,0:0:0:0:
340,116,226471,1,0,0:0:0:0:
308,128,226550,5,4,0:0:0:0:
96,296,226866,1,4,0:0:0:0:
96,28,227181,2,0,L|176:160,1,135.000005149842,6|2,0:0|0:0,0:0:0:0:
224,212,227655,1,0,0:0:0:0:
284,280,227813,1,2,0:0:0:0:
360,328,227971,2,0,P|264:364|164:344,1,180
52,236,228602,6,0,P|104:216|164:216,1,90,4|0,0:0|0:0,0:0:0:0:
124,124,228918,2,0,P|179:118|237:133,1,90,2|0,0:0|0:0,0:0:0:0:
288,172,229234,5,2,0:0:0:0:
292,188,229339,1,0,0:0:0:0:
296,204,229445,1,0,0:0:0:0:
300,220,229550,2,0,P|280:280|240:320,1,101.250003862381,2|0,0:0|0:0,0:0:0:0:
204,352,229866,6,0,P|304:360|400:296,1,202.500007724762,2|0,0:0|0:0,0:0:0:0:
389,310,230497,1,2,0:0:0:0:
312,52,230971,5,2,0:0:0:0:
328,84,231050,1,0,0:0:0:0:
344,116,231129,2,0,B|376:160|376:160|420:176,1,90,0|2,0:0|0:0,0:0:0:0:
308,208,231445,2,0,B|276:252|276:252|232:268,1,90,0|2,0:0|0:0,0:0:0:0:
112,300,231760,5,0,0:0:0:0:
242,264,231918,1,2,0:0:0:0:
192,140,232076,1,0,0:0:0:0:
64,180,232234,1,2,0:0:0:0:
192,140,232392,5,0,0:0:0:0:
224,128,232471,1,0,0:0:0:0:
260,124,232550,1,2,0:0:0:0:
296,132,232629,1,0,0:0:0:0:
324,156,232708,1,0,0:0:0:0:
340,188,232787,1,0,0:0:0:0:
348,224,232866,1,2,0:0:0:0:
348,260,232945,1,0,0:0:0:0:
352,296,233023,1,0,0:0:0:0:
380,316,233102,1,0,0:0:0:0:
416,320,233181,1,2,0:0:0:0:
452,312,233260,1,0,0:0:0:0:
476,288,233339,1,0,0:0:0:0:
488,256,233418,1,0,0:0:0:0:
484,220,233497,6,0,P|464:160|392:124,1,135.000005149842,2|2,0:0|0:0,0:0:0:0:
308,176,233971,1,0,0:0:0:0:
200,172,234129,1,2,0:0:0:0:
156,72,234287,5,0,0:0:0:0:
20,192,234445,1,2,0:0:0:0:
156,308,234602,6,0,P|232:308|292:248,1,135.000005149842
304,236,234997,1,0,0:0:0:0:
320,192,235076,1,2,0:0:0:0:
384,24,235392,5,4,0:0:0:0:
296,336,235708,1,4,0:0:0:0:
84,92,236023,1,4,0:0:0:0:
256,192,236497,12,0,238550,0:0:0:0:
448,192,238708,6,0,B|372:204|340:276|340:276|296:244,1,180,8|8,0:0|0:0,0:0:0:0:
64,192,239339,2,0,B|140:180|172:108|172:108|216:140,1,180,8|8,0:0|0:0,0:0:0:0:
201,129,239813,1,0,0:0:0:0:
292,72,239971,2,0,P|312:116|304:164,1,90,8|0,0:0|0:0,0:0:0:0:
288,188,240208,1,0,0:0:0:0:
268,220,240287,2,0,P|263:264|283:304,1,90,8|0,0:0|0:0,0:0:0:0:
372,244,240602,1,8,0:0:0:0:
268,220,240760,1,0,0:0:0:0:
164,248,240918,2,0,P|96:188|92:104,2,180,8|8|8,0:0|0:0|0:0,0:0:0:0:
344,152,241708,5,0,0:0:0:0:
344,152,241866,2,0,P|256:128|168:156,1,180,8|8,0:0|0:0,0:0:0:0:
173,152,242260,1,0,0:0:0:0:
173,152,242339,1,0,0:0:0:0:
104,208,242497,2,0,P|156:240|232:240,1,135,8|0,0:0|0:0,0:0:0:0:
260,224,242813,2,0,P|312:272|372:264,1,135,8|0,0:0|0:0,0:0:0:0:
404,248,243129,2,0,P|448:196|432:120,1,135,8|0,0:0|0:0,0:0:0:0:
420,104,243445,5,8,0:0:0:0:
428,88,243523,1,0,0:0:0:0:
436,72,243602,1,0,0:0:0:0:
428,56,243681,1,0,0:0:0:0:
420,40,243760,2,0,B|332:24|332:24|240:40,1,180,8|8,0:0|0:0,0:0:0:0:
242,39,244234,1,0,0:0:0:0:
108,120,244392,2,0,B|196:136|196:136|288:120,1,180,8|8,0:0|0:0,0:0:0:0:
364,196,244866,1,0,0:0:0:0:
464,236,245023,6,0,P|432:288|404:296,1,90,8|0,0:0|0:0,0:0:0:0:
256,336,245339,2,0,P|288:284|316:276,1,90,8|0,0:0|0:0,0:0:0:0:
156,368,245655,2,0,P|104:328|120:264,1,135,8|0,0:0|0:0,0:0:0:0:
144,232,245971,2,0,P|112:180|44:176,1,135,8|0,0:0|0:0,0:0:0:0:
28,156,246287,1,8,0:0:0:0:
20,128,246366,1,0,0:0:0:0:
28,104,246445,1,0,0:0:0:0:
48,84,246523,1,0,0:0:0:0:
72,72,246602,1,8,0:0:0:0:
100,72,246681,1,0,0:0:0:0:
124,88,246760,1,0,0:0:0:0:
148,104,246839,5,0,0:0:0:0:
176,112,246918,1,8,0:0:0:0:
212,112,246997,1,0,0:0:0:0:
244,100,247076,1,0,0:0:0:0:
272,76,247155,1,0,0:0:0:0:
284,40,247234,5,8,0:0:0:0:
320,12,247313,1,0,0:0:0:0:
364,8,247392,1,0,0:0:0:0:
404,28,247471,1,0,0:0:0:0:
424,68,247550,2,0,L|404:116,1,45,8|0,0:0|0:0,0:0:0:0:
336,136,247708,2,0,L|316:180,1,45
352,244,247866,2,0,L|332:288,1,45,8|0,0:0|0:0,0:0:0:0:
256,300,248023,2,0,L|236:344,1,45
192,352,248181,5,8,0:0:0:0:
152,332,248260,1,0,0:0:0:0:
116,304,248339,1,0,0:0:0:0:
92,264,248418,1,0,0:0:0:0:
88,220,248497,1,8,0:0:0:0:
88,176,248576,1,0,0:0:0:0:
108,136,248655,1,0,0:0:0:0:
136,100,248734,1,0,0:0:0:0:
176,80,248813,6,0,P|264:68|328:124,1,180,8|8,0:0|0:0,0:0:0:0:
328,124,249287,1,0,0:0:0:0:
336,304,249445,2,0,P|248:316|184:260,1,180,8|8,0:0|0:0,0:0:0:0:
183,259,249918,1,0,0:0:0:0:
248,172,250076,2,0,B|236:80|304:36|304:36|248:16,2,180,8|8|8,0:0|0:0|0:0,0:0:0:0:
296,268,250866,1,0,0:0:0:0:
296,268,251023,1,8,0:0:0:0:
456,124,251181,1,0,0:0:0:0:
456,124,251260,1,0,0:0:0:0:
456,124,251339,2,0,P|448:212|372:252,1,180,8|8,0:0|0:0,0:0:0:0:
235,334,251813,1,0,0:0:0:0:
235,334,251971,2,0,P|208:296|208:252,1,90,8|0,0:0|0:0,0:0:0:0:
277,50,252287,6,0,P|304:88|304:132,1,90,8|0,0:0|0:0,0:0:0:0:
292,164,252523,1,0,0:0:0:0:
268,192,252602,2,0,L|176:192,1,90,8|0,0:0|0:0,0:0:0:0:
104,108,252918,2,0,L|204:108,1,90,8|0,0:0|0:0,0:0:0:0:
408,276,253234,2,0,L|308:276,1,90,8|0,0:0|0:0,0:0:0:0:
300,296,253471,1,0,0:0:0:0:
280,312,253550,1,8,0:0:0:0:
260,296,253629,1,0,0:0:0:0:
236,280,253708,1,0,0:0:0:0:
212,292,253787,1,0,0:0:0:0:
188,304,253866,6,0,P|144:320|104:296,1,90,8|0,0:0|0:0,0:0:0:0:
152,200,254181,2,0,P|112:180|71:197,1,90,8|0,0:0|0:0,0:0:0:0:
276,60,254497,6,0,P|320:72|364:60,1,90,8|0,0:0|0:0,0:0:0:0:
448,152,254813,2,0,P|400:140|360:152,1,90,8|0,0:0|0:0,0:0:0:0:
256,168,255129,6,0,P|288:128|288:88,1,90,8|0,0:0|0:0,0:0:0:0:
152,200,255445,2,0,P|120:240|120:280,1,90,8|0,0:0|0:0,0:0:0:0:
400,224,255760,6,0,L|308:224,1,90,8|0,0:0|0:0,0:0:0:0:
180,340,256076,2,0,L|276:340,1,90,8|0,0:0|0:0,0:0:0:0:
372,296,256392,5,8,0:0:0:0:
340,276,256550,1,0,0:0:0:0:
324,244,256708,1,8,0:0:0:0:
324,208,256866,1,0,0:0:0:0:
140,88,257023,5,8,0:0:0:0:
172,108,257181,1,0,0:0:0:0:
188,140,257339,1,8,0:0:0:0:
188,176,257497,1,0,0:0:0:0:
140,252,257655,5,8,0:0:0:0:
372,132,257813,1,0,0:0:0:0:
52,208,257971,1,8,0:0:0:0:
460,176,258129,1,0,0:0:0:0:
388,232,258287,5,8,0:0:0:0:
296,60,258445,1,0,0:0:0:0:
124,152,258602,1,8,0:0:0:0:
216,324,258760,1,0,0:0:0:0:
256,192,258918,12,0,263971,0:0:0:0:
