osu file format v14

[General]
AudioFilename: SHIJIMI TOURU-RUNE.mp3
AudioLeadIn: 0
PreviewTime: -1
Countdown: 1
SampleSet: None
StackLeniency: 0
Mode: 0
LetterboxInBreaks: 1
WidescreenStoryboard: 1

[Editor]
Bookmarks: 1580,5944,7398,19035,21944,24853,27762,30671,42308,49580,53944,59762,65580,71398,72853,74307,77217,88853,90308,96126,99034,101944,104853
DistanceSpacing: 1.7
BeatDivisor: 4
GridSize: 4
TimelineZoom: 0.9999999

[Metadata]
Title:SHIJIMI TOURU-RUNE
TitleUnicode:SHIJIMI TOURU-RUNE
Artist:Matsuoka Shuzo
ArtistUnicode:Matsuoka Shuzo
Creator:- DT -
Version:Never Give Up
Source:Nico Nico Douga
Tags:never give up
BeatmapID:658374
BeatmapSetID:291094

[Difficulty]
HPDrainRate:6
CircleSize:3.5
OverallDifficulty:9
ApproachRate:8
SliderMultiplier:2.2
SliderTickRate:1

[Events]
//Background and Video events
0,0,"Never-Give-Up1-300x224.jpg",0,0
//Break Periods
//Storyboard Layer 0 (Background)
//Storyboard Layer 1 (Fail)
//Storyboard Layer 2 (Pass)
//Storyboard Layer 3 (Foreground)
//Storyboard Sound Samples

[TimingPoints]
1579,727.272727272727,4,1,0,100,1,0
7399,363.636363636364,4,1,0,100,1,0
12489,-50,4,1,0,100,0,0
13217,-100,4,1,0,100,0,0
16671,-50,4,1,0,100,0,0
16853,-100,4,1,0,100,0,0
19035,181.818181818182,4,1,0,100,1,0
19035,-50,4,1,0,100,0,0
21944,363.636363636364,4,1,0,100,1,0
21944,-100,4,1,0,100,0,0
30671,-83.3333333333333,4,1,0,100,0,1
42308,-100,4,1,0,100,0,0
59762,-76.9230769230769,4,1,0,100,0,0
65580,-83.3333333333333,4,1,0,100,0,1
72125,-66.6666666666667,4,1,0,100,0,1
72853,-83.3333333333333,4,1,0,100,0,1
77216,-83.3333333333333,4,1,0,100,0,0
90308,-66.6666666666667,4,1,0,100,0,1
96125,-58.8235294117647,4,1,0,100,0,1
99034,-66.6666666666667,4,1,0,100,0,1
101944,-100,4,1,0,100,0,0

[HitObjects]
112,228,1580,5,0,0:0:0:0:
112,228,1671,1,0,0:0:0:0:
112,228,1762,1,0,0:0:0:0:
112,228,1853,1,0,0:0:0:0:
124,176,1944,1,0,0:0:0:0:
124,176,2035,1,0,0:0:0:0:
196,264,3035,5,0,0:0:0:0:
196,264,3126,1,0,0:0:0:0:
196,264,3217,1,0,0:0:0:0:
196,264,3308,1,0,0:0:0:0:
216,196,3398,1,0,0:0:0:0:
216,196,3489,1,0,0:0:0:0:
336,320,4489,5,0,0:0:0:0:
336,320,4580,1,0,0:0:0:0:
336,320,4671,1,0,0:0:0:0:
336,320,4762,1,0,0:0:0:0:
372,228,4853,1,0,0:0:0:0:
372,228,4944,1,0,0:0:0:0:
112,264,5942,5,0,0:0:0:0:
100,232,6033,1,0,0:0:0:0:
144,224,6124,5,0,0:0:0:0:
156,192,6215,1,0,0:0:0:0:
116,180,6306,5,0,0:0:0:0:
96,152,6397,2,0,L|68:112,1,27.5
224,120,6578,5,0,0:0:0:0:
260,96,6669,2,0,L|292:80,1,27.5
336,228,6851,5,0,0:0:0:0:
360,268,6942,2,0,L|388:312,1,27.5
192,296,7124,5,0,0:0:0:0:
128,340,7215,5,0,0:0:0:0:
80,276,7306,5,0,0:0:0:0:
144,224,7397,5,0,0:0:0:0:
208,204,7489,1,0,0:0:0:0:
216,140,7580,1,0,0:0:0:0:
272,104,7671,1,0,0:0:0:0:
360,100,7762,5,0,0:0:0:0:
424,84,7853,1,0,0:0:0:0:
464,136,7944,1,0,0:0:0:0:
456,200,8035,1,0,0:0:0:0:
432,284,8126,5,0,0:0:0:0:
364,280,8217,1,0,0:0:0:0:
328,336,8308,1,0,0:0:0:0:
272,300,8399,1,0,0:0:0:0:
264,212,8489,5,0,0:0:0:0:
264,212,8580,1,0,0:0:0:0:
264,212,8671,1,0,0:0:0:0:
264,212,8762,1,0,0:0:0:0:
264,212,8853,5,0,0:0:0:0:
196,184,8944,1,0,0:0:0:0:
160,120,9035,1,0,0:0:0:0:
92,96,9126,1,0,0:0:0:0:
60,180,9217,5,0,0:0:0:0:
44,252,9308,1,0,0:0:0:0:
112,276,9399,1,0,0:0:0:0:
136,208,9489,1,0,0:0:0:0:
188,136,9580,5,0,0:0:0:0:
232,80,9671,1,0,0:0:0:0:
304,80,9762,1,0,0:0:0:0:
368,44,9853,1,0,0:0:0:0:
368,44,9944,5,0,0:0:0:0:
368,44,10035,1,0,0:0:0:0:
368,44,10126,1,0,0:0:0:0:
368,44,10217,1,0,0:0:0:0:
368,44,10308,5,0,0:0:0:0:
412,96,10399,1,0,0:0:0:0:
408,160,10489,1,0,0:0:0:0:
436,220,10580,1,0,0:0:0:0:
436,308,10671,5,0,0:0:0:0:
424,372,10762,1,0,0:0:0:0:
360,368,10853,1,0,0:0:0:0:
304,332,10944,1,0,0:0:0:0:
272,252,11035,5,0,0:0:0:0:
216,220,11126,1,0,0:0:0:0:
236,156,11217,1,0,0:0:0:0:
212,96,11308,1,0,0:0:0:0:
212,96,11399,5,0,0:0:0:0:
212,96,11489,1,0,0:0:0:0:
212,96,11580,1,0,0:0:0:0:
212,96,11671,1,0,0:0:0:0:
212,96,11762,5,0,0:0:0:0:
136,140,11853,1,0,0:0:0:0:
100,220,11944,1,0,0:0:0:0:
108,308,12035,1,0,0:0:0:0:
212,348,12126,5,0,0:0:0:0:
300,332,12217,1,0,0:0:0:0:
324,248,12308,1,0,0:0:0:0:
364,168,12399,1,0,0:0:0:0:
356,76,12489,6,0,P|147:63|39:242,2,440
392,132,13308,1,0,0:0:0:0:
436,180,13399,1,0,0:0:0:0:
440,248,13489,1,0,0:0:0:0:
400,328,13580,5,0,0:0:0:0:
344,360,13671,1,0,0:0:0:0:
284,328,13762,1,0,0:0:0:0:
220,312,13853,1,0,0:0:0:0:
180,232,13944,5,0,0:0:0:0:
144,176,14035,1,0,0:0:0:0:
192,128,14126,1,0,0:0:0:0:
232,76,14217,1,0,0:0:0:0:
308,32,14308,5,0,0:0:0:0:
396,16,14399,5,0,0:0:0:0:
412,100,14489,5,0,0:0:0:0:
328,124,14580,5,0,0:0:0:0:
264,184,14671,5,0,0:0:0:0:
212,224,14762,1,0,0:0:0:0:
196,288,14853,1,0,0:0:0:0:
140,320,14944,1,0,0:0:0:0:
84,276,15035,5,0,0:0:0:0:
48,216,15126,1,0,0:0:0:0:
84,156,15217,1,0,0:0:0:0:
88,84,15308,1,0,0:0:0:0:
136,24,15399,5,0,0:0:0:0:
212,12,15489,1,0,0:0:0:0:
260,72,15580,1,0,0:0:0:0:
320,120,15671,1,0,0:0:0:0:
368,188,15762,5,0,0:0:0:0:
348,272,15853,5,0,0:0:0:0:
260,300,15944,5,0,0:0:0:0:
192,228,16035,5,0,0:0:0:0:
212,124,16126,5,0,0:0:0:0:
252,72,16217,1,0,0:0:0:0:
316,60,16308,1,0,0:0:0:0:
376,88,16399,1,0,0:0:0:0:
428,156,16489,5,0,0:0:0:0:
436,220,16580,1,0,0:0:0:0:
400,272,16671,2,0,P|312:204|316:60,1,220
284,60,17035,5,0,0:0:0:0:
404,348,17126,1,0,0:0:0:0:
80,284,17217,1,0,0:0:0:0:
180,240,17308,5,0,0:0:0:0:
280,196,17399,5,0,0:0:0:0:
136,176,17580,5,0,0:0:0:0:
72,88,17671,1,0,0:0:0:0:
136,176,17762,1,0,0:0:0:0:
72,88,17853,1,0,0:0:0:0:
184,88,17944,5,0,0:0:0:0:
272,292,18126,5,0,0:0:0:0:
224,360,18217,1,0,0:0:0:0:
96,180,18399,5,0,0:0:0:0:
32,128,18489,1,0,0:0:0:0:
248,84,18671,5,0,0:0:0:0:
356,92,18762,1,0,0:0:0:0:
408,188,18853,1,0,0:0:0:0:
364,288,18944,1,0,0:0:0:0:
256,316,19035,6,0,B|44:260|44:260|244:168|244:168|136:128|136:128|172:32|172:32|264:100|264:100|344:28|344:28|396:128|396:128|312:196|312:196|368:292|368:292|468:180,1,1320
352,208,19762,6,0,B|39:101|39:101|243:361|243:361|327:41|327:41|0:297,1,1320
108,72,20489,6,0,B|296:188|296:188|96:276|96:276|148:252|148:252|96:276|96:276|148:252|148:252|96:276|96:276|304:312|304:312|420:120|420:120|364:212|364:212|420:120|420:120|312:92|312:92|396:20|396:20|500:60|500:60|408:340|408:340|268:380|268:380|56:332|56:332|20:112|20:112|28:164|28:164|20:112|20:112|28:164|28:164|20:112|20:112|28:164|28:164|20:112|20:112|256:192,1,3080
236,156,21944,5,0,0:0:0:0:
280,108,22034,1,0,0:0:0:0:
328,152,22125,1,0,0:0:0:0:
284,200,22216,1,0,0:0:0:0:
236,156,22307,5,0,0:0:0:0:
172,112,22398,1,0,0:0:0:0:
132,180,22489,1,0,0:0:0:0:
196,224,22580,1,0,0:0:0:0:
236,156,22671,5,0,0:0:0:0:
232,56,22762,1,0,0:0:0:0:
332,52,22853,1,0,0:0:0:0:
336,152,22944,1,0,0:0:0:0:
236,156,23034,5,0,0:0:0:0:
300,232,23125,1,0,0:0:0:0:
380,288,23216,1,0,0:0:0:0:
464,352,23307,1,0,0:0:0:0:
464,352,23398,5,0,0:0:0:0:
384,336,23489,1,0,0:0:0:0:
308,308,23580,1,0,0:0:0:0:
232,276,23671,1,0,0:0:0:0:
152,288,23762,5,0,0:0:0:0:
148,204,23853,1,0,0:0:0:0:
232,196,23944,1,0,0:0:0:0:
232,276,24034,1,0,0:0:0:0:
192,348,24125,5,0,0:0:0:0:
108,344,24216,1,0,0:0:0:0:
68,264,24307,1,0,0:0:0:0:
76,180,24398,1,0,0:0:0:0:
124,100,24489,5,0,0:0:0:0:
216,84,24580,1,0,0:0:0:0:
304,116,24671,1,0,0:0:0:0:
348,200,24762,1,0,0:0:0:0:
312,304,24853,5,0,0:0:0:0:
124,300,27762,5,0,0:0:0:0:
132,268,27853,1,0,0:0:0:0:
204,284,27944,5,0,0:0:0:0:
212,252,28035,1,0,0:0:0:0:
284,268,28125,5,0,0:0:0:0:
292,236,28216,1,0,0:0:0:0:
220,192,28307,5,0,0:0:0:0:
228,160,28398,1,0,0:0:0:0:
300,164,28489,5,0,0:0:0:0:
308,132,28580,1,0,0:0:0:0:
380,156,28671,5,0,0:0:0:0:
388,124,28762,1,0,0:0:0:0:
336,64,28853,5,0,0:0:0:0:
344,32,28944,1,0,0:0:0:0:
424,56,29034,5,0,0:0:0:0:
408,352,29216,5,0,0:0:0:0:
248,40,29580,5,0,0:0:0:0:
44,328,29762,1,0,0:0:0:0:
256,380,30125,5,0,0:0:0:0:
488,56,30306,1,0,0:0:0:0:
4,220,30488,1,0,0:0:0:0:
208,284,30671,6,0,L|232:352,1,65.9999979858399
352,192,30853,2,0,L|436:184,1,65.9999979858399
136,120,31034,2,0,L|60:64,1,65.9999979858399
356,300,31216,2,0,L|404:380,1,65.9999979858399
428,184,31398,5,0,0:0:0:0:
392,116,31489,1,0,0:0:0:0:
316,128,31580,1,0,0:0:0:0:
248,92,31671,2,0,L|144:40,1,65.9999979858399
112,36,31853,5,0,0:0:0:0:
44,36,31944,5,0,0:0:0:0:
44,100,32034,5,0,0:0:0:0:
112,100,32125,5,0,0:0:0:0:
172,184,32216,5,0,0:0:0:0:
172,184,32307,2,0,L|200:244,1,65.9999979858399
296,196,32489,5,0,0:0:0:0:
296,196,32580,2,0,L|380:204,1,65.9999979858399
361,202,32762,1,0,0:0:0:0:
460,244,32853,5,0,0:0:0:0:
496,316,32944,1,0,0:0:0:0:
432,360,33034,1,0,0:0:0:0:
360,328,33125,1,0,0:0:0:0:
284,308,33216,1,0,0:0:0:0:
180,324,33307,5,0,0:0:0:0:
120,348,33398,5,0,0:0:0:0:
84,292,33489,5,0,0:0:0:0:
128,240,33580,5,0,0:0:0:0:
208,172,33671,1,0,0:0:0:0:
208,172,33762,2,0,L|240:112,1,65.9999979858399
320,184,33944,5,0,0:0:0:0:
320,184,34034,1,0,0:0:0:0:
320,184,34125,2,0,L|400:144,1,65.9999979858399
476,112,34307,5,0,0:0:0:0:
460,36,34398,1,0,0:0:0:0:
384,16,34489,1,0,0:0:0:0:
312,48,34580,1,0,0:0:0:0:
232,48,34671,1,0,0:0:0:0:
128,68,34762,5,0,0:0:0:0:
76,108,34853,5,0,0:0:0:0:
80,176,34944,5,0,0:0:0:0:
52,236,35034,5,0,0:0:0:0:
44,260,35125,1,0,0:0:0:0:
116,296,35216,5,0,0:0:0:0:
192,320,35307,5,0,0:0:0:0:
212,336,35398,1,0,0:0:0:0:
288,312,35489,5,0,0:0:0:0:
340,268,35580,5,0,0:0:0:0:
356,204,35671,5,0,0:0:0:0:
304,164,35762,5,0,0:0:0:0:
240,96,35853,5,0,0:0:0:0:
156,136,35944,1,0,0:0:0:0:
124,220,36034,2,0,L|160:328,1,65.9999979858399
244,320,36216,5,0,0:0:0:0:
348,328,36307,5,0,0:0:0:0:
404,236,36398,5,0,0:0:0:0:
384,132,36489,5,0,0:0:0:0:
356,68,36580,1,0,0:0:0:0:
292,60,36671,2,0,L|200:48,1,65.9999979858399
100,56,36853,5,0,0:0:0:0:
56,96,36944,1,0,0:0:0:0:
80,148,37034,2,0,L|140:204,1,65.9999979858399
224,244,37216,5,0,0:0:0:0:
296,276,37307,1,0,0:0:0:0:
364,232,37398,1,0,0:0:0:0:
440,256,37489,1,0,0:0:0:0:
440,256,37580,5,0,0:0:0:0:
420,320,37671,5,0,0:0:0:0:
348,328,37762,5,0,0:0:0:0:
284,348,37853,5,0,0:0:0:0:
184,308,37944,5,0,0:0:0:0:
160,296,38034,1,0,0:0:0:0:
184,220,38125,5,0,0:0:0:0:
160,208,38216,1,0,0:0:0:0:
264,196,38307,5,0,0:0:0:0:
288,180,38398,1,0,0:0:0:0:
260,108,38489,5,0,0:0:0:0:
280,92,38580,1,0,0:0:0:0:
372,40,38671,5,0,0:0:0:0:
404,140,38762,5,0,0:0:0:0:
388,244,38853,5,0,0:0:0:0:
420,344,38944,5,0,0:0:0:0:
420,344,39034,5,0,0:0:0:0:
420,344,39125,1,0,0:0:0:0:
420,344,39216,1,0,0:0:0:0:
420,344,39307,1,0,0:0:0:0:
420,344,39398,5,0,0:0:0:0:
340,336,39489,1,0,0:0:0:0:
320,260,39580,5,0,0:0:0:0:
264,204,39671,1,0,0:0:0:0:
200,248,39762,5,0,0:0:0:0:
128,284,39853,1,0,0:0:0:0:
108,208,39944,5,0,0:0:0:0:
72,140,40034,1,0,0:0:0:0:
136,92,40125,5,0,0:0:0:0:
152,72,40216,1,0,0:0:0:0:
224,100,40307,5,0,0:0:0:0:
240,80,40398,1,0,0:0:0:0:
312,104,40489,5,0,0:0:0:0:
380,140,40580,1,0,0:0:0:0:
372,220,40671,5,0,0:0:0:0:
368,300,40762,1,0,0:0:0:0:
152,184,40853,6,0,L|96:112,1,65.9999979858399
392,292,41034,2,0,L|436:352,1,65.9999979858399
384,124,41216,6,0,L|436:68,1,65.9999979858399
172,280,41398,2,0,L|103:311,1,65.9999979858399
112,307,41580,1,0,0:0:0:0:
224,136,41671,2,0,L|199:60,1,65.9999979858399
204,73,41853,1,0,0:0:0:0:
204,73,41944,5,0,0:0:0:0:
388,144,42034,1,0,0:0:0:0:
336,336,42125,1,0,0:0:0:0:
148,268,42216,1,0,0:0:0:0:
92,212,42307,5,0,0:0:0:0:
68,152,42398,1,0,0:0:0:0:
108,100,42489,2,0,L|164:60,1,55
244,272,42671,5,0,0:0:0:0:
244,272,42762,1,0,0:0:0:0:
244,272,42853,2,0,L|272:344,1,55
288,120,43034,5,0,0:0:0:0:
288,120,43125,2,0,L|356:80,1,55
335,92,43307,1,0,0:0:0:0:
340,204,43398,5,0,0:0:0:0:
340,204,43489,2,0,L|336:264,1,55
116,292,43762,5,0,0:0:0:0:
96,356,43853,1,0,0:0:0:0:
348,148,44034,5,0,0:0:0:0:
408,176,44125,1,0,0:0:0:0:
136,88,44307,5,0,0:0:0:0:
76,64,44398,1,0,0:0:0:0:
280,288,44580,5,0,0:0:0:0:
328,336,44671,1,0,0:0:0:0:
408,328,44762,5,0,0:0:0:0:
452,272,44853,1,0,0:0:0:0:
408,216,44944,1,0,0:0:0:0:
444,156,45034,1,0,0:0:0:0:
416,92,45125,1,0,0:0:0:0:
136,168,45216,5,0,0:0:0:0:
80,176,45307,1,0,0:0:0:0:
68,228,45398,2,0,B|88:284,1,55
248,248,45580,5,0,0:0:0:0:
300,236,45671,2,0,L|364:212,1,55
392,176,45853,1,0,0:0:0:0:
288,96,45944,6,0,L|224:80,1,55
180,92,46125,1,0,0:0:0:0:
92,200,46216,5,0,0:0:0:0:
116,280,46307,1,0,0:0:0:0:
196,256,46398,1,0,0:0:0:0:
284,324,46489,1,0,0:0:0:0:
416,188,46671,5,0,0:0:0:0:
360,120,46762,1,0,0:0:0:0:
416,188,46853,1,0,0:0:0:0:
360,120,46944,1,0,0:0:0:0:
360,120,47034,5,0,0:0:0:0:
268,116,47125,1,0,0:0:0:0:
180,92,47216,1,0,0:0:0:0:
112,24,47307,1,0,0:0:0:0:
112,24,47398,5,0,0:0:0:0:
136,120,47489,1,0,0:0:0:0:
132,220,47580,1,0,0:0:0:0:
108,316,47671,1,0,0:0:0:0:
108,316,47762,5,0,0:0:0:0:
216,308,47853,1,0,0:0:0:0:
220,196,47944,1,0,0:0:0:0:
324,168,48034,1,0,0:0:0:0:
408,100,48125,5,0,0:0:0:0:
408,100,48216,1,0,0:0:0:0:
408,100,48307,2,0,L|464:56,1,55
436,216,48489,5,0,0:0:0:0:
436,216,48580,2,0,L|512:276,1,55
479,250,48762,1,0,0:0:0:0:
336,264,48853,5,0,0:0:0:0:
336,264,48944,1,0,0:0:0:0:
336,264,49034,2,0,L|300:324,1,55
260,240,49216,5,0,0:0:0:0:
240,160,49307,1,0,0:0:0:0:
132,216,49398,1,0,0:0:0:0:
20,140,49489,1,0,0:0:0:0:
40,232,49580,5,0,0:0:0:0:
48,316,49671,1,0,0:0:0:0:
204,256,49853,5,0,0:0:0:0:
284,268,49944,1,0,0:0:0:0:
396,148,50125,5,0,0:0:0:0:
452,84,50216,1,0,0:0:0:0:
428,248,50398,5,0,0:0:0:0:
372,308,50489,1,0,0:0:0:0:
272,176,50671,5,0,0:0:0:0:
212,120,50762,1,0,0:0:0:0:
136,268,50944,5,0,0:0:0:0:
92,336,51034,1,0,0:0:0:0:
92,336,51125,1,0,0:0:0:0:
92,336,51216,1,0,0:0:0:0:
92,336,51307,1,0,0:0:0:0:
176,336,51398,5,0,0:0:0:0:
176,336,51489,1,0,0:0:0:0:
176,336,51580,1,0,0:0:0:0:
176,336,51671,1,0,0:0:0:0:
220,264,51762,5,0,0:0:0:0:
296,300,51853,1,0,0:0:0:0:
220,264,51944,1,0,0:0:0:0:
296,300,52034,1,0,0:0:0:0:
364,256,52125,5,0,0:0:0:0:
204,188,52216,1,0,0:0:0:0:
316,88,52489,5,0,0:0:0:0:
304,236,52580,1,0,0:0:0:0:
316,88,52671,1,0,0:0:0:0:
304,236,52762,1,0,0:0:0:0:
316,88,52853,1,0,0:0:0:0:
304,236,52944,1,0,0:0:0:0:
316,88,53034,1,0,0:0:0:0:
304,236,53125,1,0,0:0:0:0:
236,148,53216,5,0,0:0:0:0:
156,132,53307,1,0,0:0:0:0:
120,292,53489,5,0,0:0:0:0:
56,344,53580,1,0,0:0:0:0:
320,288,53762,5,0,0:0:0:0:
400,268,53853,1,0,0:0:0:0:
400,268,53944,5,0,0:0:0:0:
400,268,54034,1,0,0:0:0:0:
400,268,54125,1,0,0:0:0:0:
400,268,54216,2,0,L|416:324,1,55
368,352,54398,5,0,0:0:0:0:
316,336,54489,5,0,0:0:0:0:
268,360,54580,5,0,0:0:0:0:
268,360,54671,5,0,0:0:0:0:
268,360,54762,1,0,0:0:0:0:
268,360,54853,1,0,0:0:0:0:
268,360,54944,2,0,L|208:344,1,55
160,332,55125,5,0,0:0:0:0:
180,280,55216,5,0,0:0:0:0:
144,236,55307,5,0,0:0:0:0:
144,236,55398,1,0,0:0:0:0:
180,196,55489,5,0,0:0:0:0:
180,196,55580,1,0,0:0:0:0:
144,156,55671,5,0,0:0:0:0:
144,156,55762,1,0,0:0:0:0:
168,108,55853,5,0,0:0:0:0:
168,108,55944,1,0,0:0:0:0:
212,76,56034,5,0,0:0:0:0:
212,76,56125,1,0,0:0:0:0:
212,76,56216,1,0,0:0:0:0:
256,108,56307,5,0,0:0:0:0:
304,140,56398,5,0,0:0:0:0:
304,140,56489,1,0,0:0:0:0:
284,192,56580,5,0,0:0:0:0:
284,192,56671,5,0,0:0:0:0:
328,224,56762,5,0,0:0:0:0:
328,224,56853,5,0,0:0:0:0:
328,224,56944,1,0,0:0:0:0:
328,224,57034,1,0,0:0:0:0:
328,224,57125,2,0,L|348:288,1,55
352,332,57307,5,0,0:0:0:0:
300,316,57398,5,0,0:0:0:0:
252,340,57489,5,0,0:0:0:0:
252,340,57580,5,0,0:0:0:0:
252,340,57671,1,0,0:0:0:0:
252,340,57762,1,0,0:0:0:0:
252,340,57853,2,0,L|168:304,1,55
152,292,58034,5,0,0:0:0:0:
176,244,58125,5,0,0:0:0:0:
148,196,58216,5,0,0:0:0:0:
148,196,58307,1,0,0:0:0:0:
188,156,58398,5,0,0:0:0:0:
188,156,58489,1,0,0:0:0:0:
172,104,58580,5,0,0:0:0:0:
172,104,58671,1,0,0:0:0:0:
216,72,58762,5,0,0:0:0:0:
216,72,58853,1,0,0:0:0:0:
260,104,58944,5,0,0:0:0:0:
260,104,59034,1,0,0:0:0:0:
260,104,59125,1,0,0:0:0:0:
260,104,59216,1,0,0:0:0:0:
312,92,59307,5,0,0:0:0:0:
360,68,59398,5,0,0:0:0:0:
360,68,59489,1,0,0:0:0:0:
388,116,59580,5,0,0:0:0:0:
432,152,59671,5,0,0:0:0:0:
432,152,59762,5,0,0:0:0:0:
432,152,59853,1,0,0:0:0:0:
432,152,59944,1,0,0:0:0:0:
432,152,60034,2,0,L|424:228,1,71.4999967269899
404,292,60216,5,0,0:0:0:0:
332,292,60307,5,0,0:0:0:0:
280,340,60398,5,0,0:0:0:0:
280,340,60489,5,0,0:0:0:0:
280,340,60580,1,0,0:0:0:0:
280,340,60671,1,0,0:0:0:0:
280,340,60762,2,0,L|192:324,1,71.4999967269899
148,288,60944,5,0,0:0:0:0:
188,228,61034,5,0,0:0:0:0:
140,176,61125,5,0,0:0:0:0:
140,176,61216,1,0,0:0:0:0:
172,112,61307,5,0,0:0:0:0:
172,112,61398,1,0,0:0:0:0:
232,148,61489,5,0,0:0:0:0:
232,148,61580,1,0,0:0:0:0:
276,92,61671,5,0,0:0:0:0:
276,92,61762,1,0,0:0:0:0:
324,144,61853,5,0,0:0:0:0:
324,144,61944,1,0,0:0:0:0:
324,144,62034,1,0,0:0:0:0:
324,144,62125,1,0,0:0:0:0:
364,204,62216,5,0,0:0:0:0:
404,264,62307,5,0,0:0:0:0:
404,264,62398,1,0,0:0:0:0:
344,304,62489,5,0,0:0:0:0:
280,276,62580,5,0,0:0:0:0:
280,276,62671,5,0,0:0:0:0:
280,276,62762,1,0,0:0:0:0:
280,276,62853,1,0,0:0:0:0:
280,276,62944,2,0,L|200:260,1,71.4999967269899
140,240,63125,5,0,0:0:0:0:
160,172,63216,5,0,0:0:0:0:
232,148,63307,5,0,0:0:0:0:
232,148,63398,5,0,0:0:0:0:
232,148,63489,1,0,0:0:0:0:
232,148,63580,1,0,0:0:0:0:
232,148,63671,2,0,L|304:192,1,71.4999967269899
352,228,63853,5,0,0:0:0:0:
396,172,63944,5,0,0:0:0:0:
372,104,64034,5,0,0:0:0:0:
248,64,64125,5,0,0:0:0:0:
248,64,64216,1,0,0:0:0:0:
188,104,64307,5,0,0:0:0:0:
188,104,64398,1,0,0:0:0:0:
184,248,64489,5,0,0:0:0:0:
184,248,64580,1,0,0:0:0:0:
236,296,64671,5,0,0:0:0:0:
236,296,64762,1,0,0:0:0:0:
388,280,64853,5,0,0:0:0:0:
388,280,64944,1,0,0:0:0:0:
440,232,65034,5,0,0:0:0:0:
424,104,65125,5,0,0:0:0:0:
328,56,65216,1,0,0:0:0:0:
252,132,65307,1,0,0:0:0:0:
172,60,65398,1,0,0:0:0:0:
88,128,65489,1,0,0:0:0:0:
80,228,65580,6,0,L|56:332,1,65.9999979858399
164,280,65762,2,0,L|232:328,1,65.9999979858399
308,276,65944,2,0,L|436:268,1,65.9999979858399
372,172,66125,2,0,L|440:120,1,65.9999979858399
332,80,66307,5,0,0:0:0:0:
252,64,66398,1,0,0:0:0:0:
176,88,66489,1,0,0:0:0:0:
100,64,66580,1,0,0:0:0:0:
100,64,66671,5,0,0:0:0:0:
100,64,66762,1,0,0:0:0:0:
100,64,66853,1,0,0:0:0:0:
100,64,66944,1,0,0:0:0:0:
100,64,67034,5,0,0:0:0:0:
64,136,67125,1,0,0:0:0:0:
108,204,67216,5,0,0:0:0:0:
80,280,67307,1,0,0:0:0:0:
160,272,67398,5,0,0:0:0:0:
176,348,67489,1,0,0:0:0:0:
236,296,67580,5,0,0:0:0:0:
304,336,67671,1,0,0:0:0:0:
396,324,67762,5,0,0:0:0:0:
424,236,67853,1,0,0:0:0:0:
404,148,67944,1,0,0:0:0:0:
432,60,68034,1,0,0:0:0:0:
432,60,68125,5,0,0:0:0:0:
432,60,68216,1,0,0:0:0:0:
432,60,68307,1,0,0:0:0:0:
432,60,68398,1,0,0:0:0:0:
432,60,68489,5,0,0:0:0:0:
412,44,68580,1,0,0:0:0:0:
328,60,68671,5,0,0:0:0:0:
308,44,68762,1,0,0:0:0:0:
220,64,68853,5,0,0:0:0:0:
200,48,68944,1,0,0:0:0:0:
112,72,69034,5,0,0:0:0:0:
92,56,69125,1,0,0:0:0:0:
92,56,69216,5,0,0:0:0:0:
68,116,69307,1,0,0:0:0:0:
84,180,69398,1,0,0:0:0:0:
60,240,69489,1,0,0:0:0:0:
100,292,69580,1,0,0:0:0:0:
100,292,69671,1,0,0:0:0:0:
100,292,69762,1,0,0:0:0:0:
100,292,69853,1,0,0:0:0:0:
100,292,69944,5,0,0:0:0:0:
160,244,70034,1,0,0:0:0:0:
216,300,70125,5,0,0:0:0:0:
276,352,70216,5,0,0:0:0:0:
332,296,70307,1,0,0:0:0:0:
388,240,70398,1,0,0:0:0:0:
448,292,70489,5,0,0:0:0:0:
444,160,70580,5,0,0:0:0:0:
320,116,70671,5,0,0:0:0:0:
208,188,70762,5,0,0:0:0:0:
228,320,70853,5,0,0:0:0:0:
356,348,70944,5,0,0:0:0:0:
356,348,71034,5,0,0:0:0:0:
352,284,71125,1,0,0:0:0:0:
288,264,71216,1,0,0:0:0:0:
236,224,71307,1,0,0:0:0:0:
116,116,71398,6,0,L|52:84,1,65.9999979858399
200,280,71580,2,0,L|184:344,1,65.9999979858399
356,240,71762,2,0,L|428:232,1,65.9999979858399
344,84,71944,2,0,L|364:12,1,65.9999979858399
140,236,72125,6,0,L|88:312,1,82.5000031471254
316,192,72307,2,0,L|376:288,1,82.5000031471254
200,56,72489,2,0,L|172:136,1,82.5000031471254
320,288,72671,2,0,L|376:376,1,82.5000031471254
172,112,72853,5,0,0:0:0:0:
124,236,72944,1,0,0:0:0:0:
248,200,73034,5,0,0:0:0:0:
272,328,73125,1,0,0:0:0:0:
356,136,73216,5,0,0:0:0:0:
416,252,73307,1,0,0:0:0:0:
416,56,73398,5,0,0:0:0:0:
416,188,73489,1,0,0:0:0:0:
112,64,73580,5,0,0:0:0:0:
48,256,73671,1,0,0:0:0:0:
244,80,73762,5,0,0:0:0:0:
228,296,73853,1,0,0:0:0:0:
308,56,73944,5,0,0:0:0:0:
360,304,74034,1,0,0:0:0:0:
476,92,74125,5,0,0:0:0:0:
112,308,74216,1,0,0:0:0:0:
176,204,74307,5,0,0:0:0:0:
120,148,74398,1,0,0:0:0:0:
100,248,74489,5,0,0:0:0:0:
16,312,74580,5,0,0:0:0:0:
88,348,74671,1,0,0:0:0:0:
192,320,74762,5,0,0:0:0:0:
212,244,74853,1,0,0:0:0:0:
288,172,74944,5,0,0:0:0:0:
356,232,75034,1,0,0:0:0:0:
440,192,75125,1,0,0:0:0:0:
428,100,75216,1,0,0:0:0:0:
340,80,75307,1,0,0:0:0:0:
236,56,75398,5,0,0:0:0:0:
212,68,75489,1,0,0:0:0:0:
188,76,75580,1,0,0:0:0:0:
164,84,75671,1,0,0:0:0:0:
92,140,75762,5,0,0:0:0:0:
44,212,75853,1,0,0:0:0:0:
120,248,75944,5,0,0:0:0:0:
160,324,76034,1,0,0:0:0:0:
240,292,76125,5,0,0:0:0:0:
256,208,76216,1,0,0:0:0:0:
204,140,76307,5,0,0:0:0:0:
248,68,76398,1,0,0:0:0:0:
332,92,76489,5,0,0:0:0:0:
404,140,76580,1,0,0:0:0:0:
312,188,76671,5,0,0:0:0:0:
244,284,76762,1,0,0:0:0:0:
164,236,76853,5,0,0:0:0:0:
40,184,76944,1,0,0:0:0:0:
164,236,77034,1,0,0:0:0:0:
40,184,77125,1,0,0:0:0:0:
112,184,77216,5,0,0:0:0:0:
120,104,77307,1,0,0:0:0:0:
180,140,77398,5,0,0:0:0:0:
220,72,77489,5,0,0:0:0:0:
280,124,77580,1,0,0:0:0:0:
280,124,77671,1,0,0:0:0:0:
280,124,77762,1,0,0:0:0:0:
308,48,77853,5,0,0:0:0:0:
376,4,77944,5,0,0:0:0:0:
376,4,78034,1,0,0:0:0:0:
376,4,78125,1,0,0:0:0:0:
412,88,78216,5,0,0:0:0:0:
472,156,78307,5,0,0:0:0:0:
472,156,78398,1,0,0:0:0:0:
472,156,78489,1,0,0:0:0:0:
256,192,78671,12,0,79944,0:0:0:0:
144,140,80125,5,0,0:0:0:0:
104,224,80216,1,0,0:0:0:0:
192,196,80307,5,0,0:0:0:0:
260,132,80398,5,0,0:0:0:0:
244,40,80489,1,0,0:0:0:0:
244,40,80580,1,0,0:0:0:0:
244,40,80671,1,0,0:0:0:0:
324,84,80762,5,0,0:0:0:0:
384,152,80853,5,0,0:0:0:0:
384,152,80944,1,0,0:0:0:0:
384,152,81034,1,0,0:0:0:0:
320,220,81125,5,0,0:0:0:0:
404,256,81216,5,0,0:0:0:0:
304,292,81307,1,0,0:0:0:0:
220,360,81398,1,0,0:0:0:0:
256,192,81580,12,0,82216,0:0:0:0:
256,192,82307,12,0,82489,0:0:0:0:
256,192,82580,12,0,82853,0:0:0:0:
96,72,83034,5,0,0:0:0:0:
100,152,83125,5,0,0:0:0:0:
92,232,83216,1,0,0:0:0:0:
164,196,83307,5,0,0:0:0:0:
208,132,83398,5,0,0:0:0:0:
260,72,83489,1,0,0:0:0:0:
336,96,83580,1,0,0:0:0:0:
416,108,83671,1,0,0:0:0:0:
416,108,83762,5,0,0:0:0:0:
408,188,83853,1,0,0:0:0:0:
332,208,83944,1,0,0:0:0:0:
276,264,84034,1,0,0:0:0:0:
276,264,84125,5,0,0:0:0:0:
184,256,84216,1,0,0:0:0:0:
112,316,84307,1,0,0:0:0:0:
132,120,84489,5,0,0:0:0:0:
52,60,84580,1,0,0:0:0:0:
200,256,84762,5,0,0:0:0:0:
144,336,84853,1,0,0:0:0:0:
320,112,85034,5,0,0:0:0:0:
304,212,85125,1,0,0:0:0:0:
144,40,85307,5,0,0:0:0:0:
92,124,85398,1,0,0:0:0:0:
352,308,85580,5,0,0:0:0:0:
420,236,85671,1,0,0:0:0:0:
292,144,85853,5,0,0:0:0:0:
244,56,85944,1,0,0:0:0:0:
240,64,86034,5,0,0:0:0:0:
236,76,86125,5,0,0:0:0:0:
228,96,86216,5,0,0:0:0:0:
216,120,86307,5,0,0:0:0:0:
208,152,86398,5,0,0:0:0:0:
208,192,86489,5,0,0:0:0:0:
220,236,86580,5,0,0:0:0:0:
264,268,86671,5,0,0:0:0:0:
324,264,86762,5,0,0:0:0:0:
380,232,86853,5,0,0:0:0:0:
420,172,86944,5,0,0:0:0:0:
408,96,87034,5,0,0:0:0:0:
332,60,87125,5,0,0:0:0:0:
240,56,87216,5,0,0:0:0:0:
212,156,87398,5,0,0:0:0:0:
240,304,87489,5,0,0:0:0:0:
296,176,87580,5,0,0:0:0:0:
164,280,87671,5,0,0:0:0:0:
308,264,87762,5,0,0:0:0:0:
148,204,87853,5,0,0:0:0:0:
200,84,88125,5,0,0:0:0:0:
120,204,88216,1,0,0:0:0:0:
292,112,88398,5,0,0:0:0:0:
384,328,88489,1,0,0:0:0:0:
336,44,88671,5,0,0:0:0:0:
136,332,88762,1,0,0:0:0:0:
72,148,90307,5,0,0:0:0:0:
124,236,90398,1,0,0:0:0:0:
220,204,90489,5,0,0:0:0:0:
252,112,90580,1,0,0:0:0:0:
336,164,90671,5,0,0:0:0:0:
396,240,90762,1,0,0:0:0:0:
396,240,90853,6,0,L|420:148,1,82.5000031471254
400,52,91034,5,0,0:0:0:0:
344,144,91125,1,0,0:0:0:0:
340,36,91216,1,0,0:0:0:0:
292,132,91307,1,0,0:0:0:0:
288,24,91398,1,0,0:0:0:0:
240,120,91489,1,0,0:0:0:0:
232,12,91580,1,0,0:0:0:0:
200,116,91671,1,0,0:0:0:0:
104,52,91762,5,0,0:0:0:0:
48,152,91853,1,0,0:0:0:0:
84,264,91944,1,0,0:0:0:0:
164,344,92034,1,0,0:0:0:0:
208,236,92125,1,0,0:0:0:0:
296,164,92216,1,0,0:0:0:0:
404,124,92307,1,0,0:0:0:0:
508,172,92398,1,0,0:0:0:0:
492,296,92489,5,0,0:0:0:0:
376,340,92580,1,0,0:0:0:0:
260,300,92671,1,0,0:0:0:0:
236,180,92762,1,0,0:0:0:0:
120,140,92853,1,0,0:0:0:0:
28,220,92944,1,0,0:0:0:0:
60,340,93034,1,0,0:0:0:0:
184,332,93125,1,0,0:0:0:0:
140,88,93216,5,0,0:0:0:0:
44,200,93307,1,0,0:0:0:0:
180,172,93398,5,0,0:0:0:0:
276,80,93489,5,0,0:0:0:0:
340,212,93580,1,0,0:0:0:0:
180,172,93671,5,0,0:0:0:0:
92,72,93762,5,0,0:0:0:0:
56,216,93853,1,0,0:0:0:0:
180,172,93944,5,0,0:0:0:0:
252,64,94034,5,0,0:0:0:0:
364,164,94125,1,0,0:0:0:0:
180,172,94216,5,0,0:0:0:0:
132,48,94307,5,0,0:0:0:0:
40,164,94398,1,0,0:0:0:0:
180,172,94489,5,0,0:0:0:0:
288,260,94580,5,0,0:0:0:0:
372,348,94671,5,0,0:0:0:0:
416,188,94762,1,0,0:0:0:0:
288,260,94853,5,0,0:0:0:0:
188,368,94944,5,0,0:0:0:0:
128,216,95034,1,0,0:0:0:0:
288,260,95125,5,0,0:0:0:0:
404,356,95216,5,0,0:0:0:0:
408,192,95307,1,0,0:0:0:0:
288,260,95398,5,0,0:0:0:0:
288,136,95489,5,0,0:0:0:0:
396,60,95580,1,0,0:0:0:0:
380,192,95671,1,0,0:0:0:0:
336,88,95762,5,0,0:0:0:0:
440,252,95853,5,0,0:0:0:0:
248,356,95944,5,0,0:0:0:0:
152,188,96034,5,0,0:0:0:0:
36,68,96125,5,0,0:0:0:0:
180,156,96216,1,0,0:0:0:0:
312,52,96307,1,0,0:0:0:0:
440,164,96398,1,0,0:0:0:0:
324,288,96489,1,0,0:0:0:0:
188,188,96580,1,0,0:0:0:0:
88,324,96671,1,0,0:0:0:0:
12,172,96762,1,0,0:0:0:0:
196,256,96853,5,0,0:0:0:0:
348,324,96944,1,0,0:0:0:0:
424,188,97034,1,0,0:0:0:0:
312,76,97125,1,0,0:0:0:0:
160,120,97216,1,0,0:0:0:0:
112,272,97307,1,0,0:0:0:0:
272,268,97398,1,0,0:0:0:0:
332,120,97489,1,0,0:0:0:0:
248,36,97580,5,0,0:0:0:0:
124,124,97671,1,0,0:0:0:0:
272,120,97762,5,0,0:0:0:0:
416,160,97853,1,0,0:0:0:0:
380,240,97944,5,0,0:0:0:0:
240,328,98034,1,0,0:0:0:0:
80,280,98125,1,0,0:0:0:0:
76,112,98216,1,0,0:0:0:0:
224,32,98307,1,0,0:0:0:0:
384,88,98398,1,0,0:0:0:0:
260,200,98489,1,0,0:0:0:0:
96,160,98580,1,0,0:0:0:0:
196,24,98671,5,0,0:0:0:0:
64,248,98762,5,0,0:0:0:0:
332,372,98853,5,0,0:0:0:0:
460,116,98944,5,0,0:0:0:0:
348,132,99034,5,0,0:0:0:0:
256,96,99125,1,0,0:0:0:0:
176,152,99216,1,0,0:0:0:0:
76,148,99307,1,0,0:0:0:0:
60,220,99398,5,0,0:0:0:0:
72,300,99489,1,0,0:0:0:0:
156,304,99580,1,0,0:0:0:0:
232,336,99671,1,0,0:0:0:0:
348,324,99762,5,0,0:0:0:0:
364,208,99853,1,0,0:0:0:0:
364,208,99944,5,0,0:0:0:0:
336,96,100034,1,0,0:0:0:0:
220,84,100125,1,0,0:0:0:0:
176,192,100216,1,0,0:0:0:0:
264,264,100307,1,0,0:0:0:0:
396,272,100398,5,0,0:0:0:0:
444,184,100489,1,0,0:0:0:0:
428,80,100580,1,0,0:0:0:0:
336,40,100671,1,0,0:0:0:0:
336,40,100762,5,0,0:0:0:0:
260,104,100853,1,0,0:0:0:0:
164,132,100944,1,0,0:0:0:0:
76,88,101034,1,0,0:0:0:0:
76,88,101125,5,0,0:0:0:0:
52,184,101216,1,0,0:0:0:0:
96,272,101307,1,0,0:0:0:0:
188,308,101398,1,0,0:0:0:0:
288,296,101489,1,0,0:0:0:0:
384,232,101580,5,0,0:0:0:0:
308,60,101671,5,0,0:0:0:0:
188,56,101762,5,0,0:0:0:0:
128,140,101853,5,0,0:0:0:0:
116,212,101944,5,0,0:0:0:0:
508,268,102216,1,0,0:0:0:0:
272,16,102489,1,0,0:0:0:0:
348,336,102853,5,0,0:0:0:0:
136,60,103034,1,0,0:0:0:0:
504,176,103216,1,0,0:0:0:0:
96,360,103398,5,0,0:0:0:0:
452,40,103671,1,0,0:0:0:0:
8,156,103944,1,0,0:0:0:0:
228,0,104307,5,0,0:0:0:0:
512,264,104489,5,0,0:0:0:0:
4,380,104671,5,0,0:0:0:0:
52,0,104853,5,0,0:0:0:0:
256,192,104944,12,0,109125,0:0:0:0:
