osu file format v14

[General]
AudioFilename: SHIJIMI TOURU-RUNE.mp3
AudioLeadIn: 0
PreviewTime: -1
Countdown: 1
SampleSet: Normal
StackLeniency: 0.2
Mode: 0
LetterboxInBreaks: 1
WidescreenStoryboard: 0

[Editor]
Bookmarks: 1580,5944,7398,19035,21944,24853,27762,30671,42308,49580,53944,59762,65580,71398,72853,74307,77217,88853,90308,96126,99034,101944,104853
DistanceSpacing: 1.4
BeatDivisor: 4
GridSize: 4
TimelineZoom: 0.9999999

[Metadata]
Title:SHIJIMI TOURU-RUNE
TitleUnicode:SHIJIMI TOURU-RUNE
Artist:Matsuoka Shuzo
ArtistUnicode:Matsuoka Shuzo
Creator:- DT -
Version:Give Up
Source:Nico Nico Douga
Tags:never give up
BeatmapID:655572
BeatmapSetID:291094

[Difficulty]
HPDrainRate:6
CircleSize:5
OverallDifficulty:9
ApproachRate:8
SliderMultiplier:2.2
SliderTickRate:1

[Events]
//Background and Video events
0,0,"Never-Give-Up1-300x224.jpg",0,0
//Break Periods
//Storyboard Layer 0 (Background)
//Storyboard Layer 1 (Fail)
//Storyboard Layer 2 (Pass)
//Storyboard Layer 3 (Foreground)
//Storyboard Sound Samples

[TimingPoints]
1579,727.272727272727,4,1,0,100,1,0
7399,363.636363636364,4,1,0,100,1,0
12489,-50,4,1,0,100,0,0
13217,-100,4,1,0,100,0,0
16671,-50,4,1,0,100,0,0
16853,-100,4,1,0,100,0,0
19035,181.818181818182,4,1,0,100,1,0
19035,-50,4,1,0,100,0,0
21944,363.636363636364,4,1,0,100,1,0
21944,-100,4,1,0,100,0,0
30671,-83.3333333333333,4,1,0,100,0,1
42308,-100,4,1,0,100,0,0
59762,-76.9230769230769,4,1,0,100,0,0
65580,-83.3333333333333,4,1,0,100,0,1
72125,-66.6666666666667,4,1,0,100,0,1
72853,-83.3333333333333,4,1,0,100,0,1
77216,-83.3333333333333,4,1,0,100,0,0
90308,-66.6666666666667,4,1,0,100,0,1
96125,-58.8235294117647,4,1,0,100,0,1
99034,-66.6666666666667,4,1,0,100,0,1
101944,-100,4,1,0,100,0,0

[HitObjects]
112,228,1580,5,0,0:0:0:0:
112,228,1671,1,0,0:0:0:0:
112,228,1762,1,0,0:0:0:0:
112,228,1853,1,0,0:0:0:0:
124,176,1944,1,0,0:0:0:0:
124,176,2035,1,0,0:0:0:0:
196,264,3035,5,0,0:0:0:0:
196,264,3126,1,0,0:0:0:0:
196,264,3217,1,0,0:0:0:0:
196,264,3308,1,0,0:0:0:0:
216,196,3398,1,0,0:0:0:0:
216,196,3489,1,0,0:0:0:0:
336,320,4489,5,0,0:0:0:0:
336,320,4580,1,0,0:0:0:0:
336,320,4671,1,0,0:0:0:0:
336,320,4762,1,0,0:0:0:0:
372,228,4853,1,0,0:0:0:0:
372,228,4944,1,0,0:0:0:0:
88,188,5944,5,0,0:0:0:0:
116,148,6035,1,0,0:0:0:0:
160,168,6126,1,0,0:0:0:0:
196,136,6217,1,0,0:0:0:0:
232,100,6308,2,0,L|272:52,1,55
368,104,6489,5,0,0:0:0:0:
416,116,6580,1,0,0:0:0:0:
364,200,6762,5,0,0:0:0:0:
380,248,6853,1,0,0:0:0:0:
288,288,7035,5,0,0:0:0:0:
244,312,7126,1,0,0:0:0:0:
204,280,7217,1,0,0:0:0:0:
156,280,7308,1,0,0:0:0:0:
116,252,7399,5,0,0:0:0:0:
88,204,7489,1,0,0:0:0:0:
108,152,7580,1,0,0:0:0:0:
120,96,7671,1,0,0:0:0:0:
172,156,7762,5,0,0:0:0:0:
224,136,7853,1,0,0:0:0:0:
260,92,7944,1,0,0:0:0:0:
316,84,8035,1,0,0:0:0:0:
336,168,8126,5,0,0:0:0:0:
388,152,8217,1,0,0:0:0:0:
440,132,8308,1,0,0:0:0:0:
460,80,8399,1,0,0:0:0:0:
456,24,8489,5,0,0:0:0:0:
456,24,8580,1,0,0:0:0:0:
456,24,8671,1,0,0:0:0:0:
456,24,8762,1,0,0:0:0:0:
456,24,8853,5,0,0:0:0:0:
392,40,8944,1,0,0:0:0:0:
416,100,9035,1,0,0:0:0:0:
372,148,9126,1,0,0:0:0:0:
308,88,9217,5,0,0:0:0:0:
248,64,9308,1,0,0:0:0:0:
224,128,9399,1,0,0:0:0:0:
164,156,9489,1,0,0:0:0:0:
112,240,9580,5,0,0:0:0:0:
64,292,9671,1,0,0:0:0:0:
116,344,9762,1,0,0:0:0:0:
164,292,9853,1,0,0:0:0:0:
164,292,9944,5,0,0:0:0:0:
164,292,10035,1,0,0:0:0:0:
164,292,10126,1,0,0:0:0:0:
164,292,10217,1,0,0:0:0:0:
164,292,10308,5,0,0:0:0:0:
184,228,10399,1,0,0:0:0:0:
240,196,10489,1,0,0:0:0:0:
288,152,10580,1,0,0:0:0:0:
320,232,10671,5,0,0:0:0:0:
252,232,10762,1,0,0:0:0:0:
232,168,10853,1,0,0:0:0:0:
172,140,10944,1,0,0:0:0:0:
116,208,11035,5,0,0:0:0:0:
84,152,11126,1,0,0:0:0:0:
108,92,11217,1,0,0:0:0:0:
92,28,11308,1,0,0:0:0:0:
92,28,11399,5,0,0:0:0:0:
92,28,11489,1,0,0:0:0:0:
92,28,11580,1,0,0:0:0:0:
92,28,11671,1,0,0:0:0:0:
92,28,11762,5,0,0:0:0:0:
188,52,11853,1,0,0:0:0:0:
188,152,11944,1,0,0:0:0:0:
216,248,12035,1,0,0:0:0:0:
296,304,12126,1,0,0:0:0:0:
344,216,12217,1,0,0:0:0:0:
288,132,12308,1,0,0:0:0:0:
368,72,12399,1,0,0:0:0:0:
424,152,12489,6,0,P|352:308|104:316,2,440
424,84,13308,1,0,0:0:0:0:
372,44,13399,1,0,0:0:0:0:
308,40,13489,1,0,0:0:0:0:
292,128,13580,5,0,0:0:0:0:
288,196,13671,1,0,0:0:0:0:
220,196,13762,1,0,0:0:0:0:
216,128,13853,1,0,0:0:0:0:
168,52,13944,5,0,0:0:0:0:
112,88,14035,1,0,0:0:0:0:
76,144,14126,1,0,0:0:0:0:
80,208,14217,1,0,0:0:0:0:
164,280,14308,5,0,0:0:0:0:
228,220,14399,1,0,0:0:0:0:
164,280,14489,1,0,0:0:0:0:
228,220,14580,1,0,0:0:0:0:
164,280,14671,5,0,0:0:0:0:
116,328,14762,1,0,0:0:0:0:
176,352,14853,1,0,0:0:0:0:
240,340,14944,1,0,0:0:0:0:
268,280,15035,5,0,0:0:0:0:
280,208,15126,1,0,0:0:0:0:
296,140,15217,1,0,0:0:0:0:
356,100,15308,1,0,0:0:0:0:
392,168,15399,5,0,0:0:0:0:
392,244,15489,1,0,0:0:0:0:
316,228,15580,1,0,0:0:0:0:
252,268,15671,1,0,0:0:0:0:
168,240,15762,5,0,0:0:0:0:
100,184,15853,1,0,0:0:0:0:
148,112,15944,1,0,0:0:0:0:
92,44,16035,1,0,0:0:0:0:
204,40,16126,5,0,0:0:0:0:
228,104,16217,1,0,0:0:0:0:
252,164,16308,1,0,0:0:0:0:
280,224,16399,1,0,0:0:0:0:
304,288,16489,5,0,0:0:0:0:
232,272,16580,1,0,0:0:0:0:
164,252,16671,2,0,P|76:184|80:40,1,220
284,60,17035,5,0,0:0:0:0:
404,348,17126,1,0,0:0:0:0:
80,284,17217,1,0,0:0:0:0:
180,240,17308,5,0,0:0:0:0:
280,196,17399,5,0,0:0:0:0:
136,176,17580,5,0,0:0:0:0:
72,88,17671,1,0,0:0:0:0:
136,176,17762,1,0,0:0:0:0:
72,88,17853,1,0,0:0:0:0:
184,88,17944,5,0,0:0:0:0:
272,292,18126,5,0,0:0:0:0:
224,360,18217,1,0,0:0:0:0:
96,180,18399,5,0,0:0:0:0:
32,128,18489,1,0,0:0:0:0:
248,84,18671,5,0,0:0:0:0:
356,92,18762,1,0,0:0:0:0:
408,188,18853,1,0,0:0:0:0:
364,288,18944,1,0,0:0:0:0:
256,316,19035,6,0,B|44:260|44:260|244:168|244:168|136:128|136:128|172:32|172:32|264:100|264:100|344:28|344:28|396:128|396:128|312:196|312:196|368:292|368:292|468:180,1,1320
352,208,19762,6,0,B|39:101|39:101|243:361|243:361|327:41|327:41|0:297,1,1320
108,72,20489,6,0,B|296:188|296:188|96:276|96:276|148:252|148:252|96:276|96:276|148:252|148:252|96:276|96:276|304:312|304:312|420:120|420:120|364:212|364:212|420:120|420:120|312:92|312:92|396:20|396:20|500:60|500:60|408:340|408:340|268:380|268:380|56:332|56:332|20:112|20:112|28:164|28:164|20:112|20:112|28:164|28:164|20:112|20:112|28:164|28:164|20:112|20:112|256:192,1,3080
238,186,21944,5,0,0:0:0:0:
276,132,22034,1,0,0:0:0:0:
312,188,22125,1,0,0:0:0:0:
356,140,22216,1,0,0:0:0:0:
384,200,22307,5,0,0:0:0:0:
348,136,22398,1,0,0:0:0:0:
308,196,22489,1,0,0:0:0:0:
272,136,22580,1,0,0:0:0:0:
232,196,22671,5,0,0:0:0:0:
272,124,22762,1,0,0:0:0:0:
316,196,22853,1,0,0:0:0:0:
360,128,22944,1,0,0:0:0:0:
392,204,23034,1,0,0:0:0:0:
424,280,23125,1,0,0:0:0:0:
464,352,23216,1,0,0:0:0:0:
464,352,23398,5,0,0:0:0:0:
384,336,23489,1,0,0:0:0:0:
308,308,23580,1,0,0:0:0:0:
232,276,23671,1,0,0:0:0:0:
152,288,23762,5,0,0:0:0:0:
148,204,23853,1,0,0:0:0:0:
232,196,23944,1,0,0:0:0:0:
232,276,24034,1,0,0:0:0:0:
192,348,24125,5,0,0:0:0:0:
108,344,24216,1,0,0:0:0:0:
68,264,24307,1,0,0:0:0:0:
76,180,24398,1,0,0:0:0:0:
124,100,24489,5,0,0:0:0:0:
216,84,24580,1,0,0:0:0:0:
304,116,24671,1,0,0:0:0:0:
348,200,24762,1,0,0:0:0:0:
312,304,24853,5,0,0:0:0:0:
80,308,27762,5,0,0:0:0:0:
92,256,27853,1,0,0:0:0:0:
128,296,27944,5,0,0:0:0:0:
188,288,28034,1,0,0:0:0:0:
148,240,28125,5,0,0:0:0:0:
164,176,28216,1,0,0:0:0:0:
208,224,28307,5,0,0:0:0:0:
276,244,28398,1,0,0:0:0:0:
252,176,28489,5,0,0:0:0:0:
284,104,28580,1,0,0:0:0:0:
316,172,28671,5,0,0:0:0:0:
392,200,28762,1,0,0:0:0:0:
356,124,28853,5,0,0:0:0:0:
400,48,28944,1,0,0:0:0:0:
416,132,29034,5,0,0:0:0:0:
408,352,29216,5,0,0:0:0:0:
248,40,29580,5,0,0:0:0:0:
44,328,29762,1,0,0:0:0:0:
256,380,30125,5,0,0:0:0:0:
488,56,30306,1,0,0:0:0:0:
4,220,30488,1,0,0:0:0:0:
208,284,30671,6,0,L|232:352,1,65.9999979858399
352,192,30853,2,0,L|436:184,1,65.9999979858399
136,120,31034,2,0,L|60:64,1,65.9999979858399
356,300,31216,2,0,L|404:380,1,65.9999979858399
428,184,31398,5,0,0:0:0:0:
392,112,31489,1,0,0:0:0:0:
316,128,31580,1,0,0:0:0:0:
260,72,31671,2,0,L|188:136,1,65.9999979858399
180,176,31853,5,0,0:0:0:0:
184,240,31944,5,0,0:0:0:0:
248,240,32034,5,0,0:0:0:0:
248,172,32125,5,0,0:0:0:0:
356,100,32216,5,0,0:0:0:0:
356,100,32307,2,0,L|408:48,1,65.9999979858399
416,280,32489,5,0,0:0:0:0:
416,280,32580,2,0,L|436:352,1,65.9999979858399
433,343,32762,1,0,0:0:0:0:
304,312,32853,5,0,0:0:0:0:
228,332,32944,1,0,0:0:0:0:
196,260,33034,1,0,0:0:0:0:
120,236,33125,1,0,0:0:0:0:
144,160,33216,1,0,0:0:0:0:
208,152,33307,5,0,0:0:0:0:
272,144,33398,5,0,0:0:0:0:
336,136,33489,5,0,0:0:0:0:
400,128,33580,5,0,0:0:0:0:
400,128,33671,1,0,0:0:0:0:
400,128,33762,2,0,L|464:100,1,65.9999979858399
256,264,33944,5,0,0:0:0:0:
256,264,34034,1,0,0:0:0:0:
256,264,34125,2,0,L|200:312,1,65.9999979858399
92,184,34307,5,0,0:0:0:0:
76,108,34398,1,0,0:0:0:0:
156,104,34489,1,0,0:0:0:0:
224,64,34580,1,0,0:0:0:0:
304,64,34671,1,0,0:0:0:0:
320,128,34762,5,0,0:0:0:0:
336,192,34853,5,0,0:0:0:0:
272,172,34944,5,0,0:0:0:0:
280,236,35034,5,0,0:0:0:0:
340,288,35125,1,0,0:0:0:0:
236,288,35216,5,0,0:0:0:0:
236,288,35307,5,0,0:0:0:0:
192,356,35398,1,0,0:0:0:0:
144,312,35489,5,0,0:0:0:0:
164,248,35580,5,0,0:0:0:0:
124,196,35671,5,0,0:0:0:0:
156,140,35762,5,0,0:0:0:0:
216,76,35853,1,0,0:0:0:0:
296,104,35944,1,0,0:0:0:0:
316,188,36034,2,0,L|320:268,1,65.9999979858399
200,316,36216,5,0,0:0:0:0:
88,244,36307,5,0,0:0:0:0:
172,144,36398,5,0,0:0:0:0:
280,216,36489,5,0,0:0:0:0:
328,252,36580,1,0,0:0:0:0:
372,212,36671,2,0,L|428:152,1,65.9999979858399
100,56,36853,5,0,0:0:0:0:
56,96,36944,1,0,0:0:0:0:
80,148,37034,2,0,L|140:204,1,65.9999979858399
284,100,37216,5,0,0:0:0:0:
356,68,37307,1,0,0:0:0:0:
348,148,37398,1,0,0:0:0:0:
424,124,37489,1,0,0:0:0:0:
460,52,37580,5,0,0:0:0:0:
476,116,37671,1,0,0:0:0:0:
460,180,37762,1,0,0:0:0:0:
472,244,37853,1,0,0:0:0:0:
412,332,37944,5,0,0:0:0:0:
332,336,38034,1,0,0:0:0:0:
364,236,38125,5,0,0:0:0:0:
264,276,38216,5,0,0:0:0:0:
256,196,38307,1,0,0:0:0:0:
364,236,38398,5,0,0:0:0:0:
396,180,38489,1,0,0:0:0:0:
368,120,38580,1,0,0:0:0:0:
388,56,38671,5,0,0:0:0:0:
296,68,38762,1,0,0:0:0:0:
224,124,38853,1,0,0:0:0:0:
208,32,38944,1,0,0:0:0:0:
296,68,39034,1,0,0:0:0:0:
304,172,39125,5,0,0:0:0:0:
256,216,39216,5,0,0:0:0:0:
304,172,39307,5,0,0:0:0:0:
256,216,39398,5,0,0:0:0:0:
312,272,39489,1,0,0:0:0:0:
256,184,39580,5,0,0:0:0:0:
256,152,39671,5,0,0:0:0:0:
192,196,39762,1,0,0:0:0:0:
224,268,39853,5,0,0:0:0:0:
176,312,39944,1,0,0:0:0:0:
236,332,40034,1,0,0:0:0:0:
224,268,40125,5,0,0:0:0:0:
156,228,40216,1,0,0:0:0:0:
228,196,40307,1,0,0:0:0:0:
160,156,40398,1,0,0:0:0:0:
156,228,40489,5,0,0:0:0:0:
124,168,40580,1,0,0:0:0:0:
192,168,40671,1,0,0:0:0:0:
184,104,40762,1,0,0:0:0:0:
248,116,40853,6,0,L|292:56,1,65.9999979858399
392,292,41034,2,0,L|436:352,1,65.9999979858399
384,124,41216,6,0,L|392:48,1,65.9999979858399
172,280,41398,2,0,L|103:311,1,65.9999979858399
112,307,41580,1,0,0:0:0:0:
224,136,41671,2,0,L|199:60,1,65.9999979858399
204,73,41853,1,0,0:0:0:0:
204,73,41944,5,0,0:0:0:0:
388,144,42034,1,0,0:0:0:0:
336,336,42125,1,0,0:0:0:0:
148,268,42216,1,0,0:0:0:0:
92,212,42307,5,0,0:0:0:0:
68,152,42398,1,0,0:0:0:0:
108,100,42489,2,0,L|164:60,1,55
244,272,42671,5,0,0:0:0:0:
244,272,42762,1,0,0:0:0:0:
244,272,42853,2,0,L|272:344,1,55
288,120,43034,5,0,0:0:0:0:
288,120,43125,2,0,L|356:80,1,55
335,92,43307,1,0,0:0:0:0:
340,204,43398,5,0,0:0:0:0:
340,204,43489,2,0,L|336:264,1,55
116,292,43762,5,0,0:0:0:0:
96,356,43853,1,0,0:0:0:0:
348,148,44034,5,0,0:0:0:0:
408,176,44125,1,0,0:0:0:0:
136,88,44307,5,0,0:0:0:0:
76,64,44398,1,0,0:0:0:0:
280,288,44580,5,0,0:0:0:0:
328,336,44671,1,0,0:0:0:0:
408,328,44762,5,0,0:0:0:0:
452,272,44853,1,0,0:0:0:0:
408,216,44944,1,0,0:0:0:0:
444,156,45034,1,0,0:0:0:0:
416,92,45125,1,0,0:0:0:0:
136,168,45216,5,0,0:0:0:0:
80,176,45307,1,0,0:0:0:0:
68,228,45398,2,0,B|88:284,1,55
248,248,45580,5,0,0:0:0:0:
300,236,45671,2,0,L|364:212,1,55
392,176,45853,1,0,0:0:0:0:
288,96,45944,6,0,L|224:80,1,55
180,92,46125,1,0,0:0:0:0:
136,204,46216,5,0,0:0:0:0:
152,296,46307,1,0,0:0:0:0:
232,228,46398,1,0,0:0:0:0:
336,328,46489,1,0,0:0:0:0:
340,164,46671,5,0,0:0:0:0:
260,140,46762,1,0,0:0:0:0:
188,180,46853,1,0,0:0:0:0:
212,260,46944,1,0,0:0:0:0:
292,292,47034,5,0,0:0:0:0:
268,208,47125,1,0,0:0:0:0:
352,228,47216,1,0,0:0:0:0:
340,140,47307,1,0,0:0:0:0:
256,84,47398,5,0,0:0:0:0:
168,48,47489,1,0,0:0:0:0:
256,84,47580,1,0,0:0:0:0:
168,48,47671,1,0,0:0:0:0:
188,144,47762,5,0,0:0:0:0:
196,244,47853,1,0,0:0:0:0:
136,324,47944,1,0,0:0:0:0:
40,312,48034,1,0,0:0:0:0:
40,312,48125,5,0,0:0:0:0:
40,312,48216,1,0,0:0:0:0:
40,312,48307,2,0,L|16:368,1,55
224,296,48489,5,0,0:0:0:0:
224,296,48580,2,0,L|300:356,1,55
267,330,48762,1,0,0:0:0:0:
336,264,48853,5,0,0:0:0:0:
336,264,48944,1,0,0:0:0:0:
336,264,49034,2,0,L|420:272,1,55
316,168,49216,5,0,0:0:0:0:
296,88,49307,1,0,0:0:0:0:
188,144,49398,1,0,0:0:0:0:
76,68,49489,1,0,0:0:0:0:
40,232,49580,5,0,0:0:0:0:
48,316,49671,1,0,0:0:0:0:
204,256,49853,5,0,0:0:0:0:
284,268,49944,1,0,0:0:0:0:
396,148,50125,5,0,0:0:0:0:
452,84,50216,1,0,0:0:0:0:
428,248,50398,5,0,0:0:0:0:
372,308,50489,1,0,0:0:0:0:
272,176,50671,5,0,0:0:0:0:
212,120,50762,1,0,0:0:0:0:
136,268,50944,5,0,0:0:0:0:
92,336,51034,1,0,0:0:0:0:
92,336,51125,1,0,0:0:0:0:
92,336,51216,1,0,0:0:0:0:
92,336,51307,1,0,0:0:0:0:
176,336,51398,5,0,0:0:0:0:
176,336,51489,1,0,0:0:0:0:
176,336,51580,1,0,0:0:0:0:
176,336,51671,1,0,0:0:0:0:
220,264,51762,5,0,0:0:0:0:
296,300,51853,1,0,0:0:0:0:
220,264,51944,1,0,0:0:0:0:
296,300,52034,1,0,0:0:0:0:
364,256,52125,5,0,0:0:0:0:
204,188,52216,1,0,0:0:0:0:
316,88,52489,5,0,0:0:0:0:
304,236,52580,1,0,0:0:0:0:
316,88,52671,1,0,0:0:0:0:
304,236,52762,1,0,0:0:0:0:
384,160,52853,1,0,0:0:0:0:
236,148,52944,1,0,0:0:0:0:
384,160,53034,1,0,0:0:0:0:
236,148,53125,1,0,0:0:0:0:
236,148,53216,5,0,0:0:0:0:
156,132,53307,1,0,0:0:0:0:
120,292,53489,5,0,0:0:0:0:
56,344,53580,1,0,0:0:0:0:
320,288,53762,5,0,0:0:0:0:
400,268,53853,1,0,0:0:0:0:
400,268,53944,5,0,0:0:0:0:
400,268,54034,1,0,0:0:0:0:
400,268,54125,1,0,0:0:0:0:
400,268,54216,2,0,L|416:324,1,55
368,352,54398,5,0,0:0:0:0:
316,336,54489,5,0,0:0:0:0:
268,360,54580,5,0,0:0:0:0:
268,360,54671,5,0,0:0:0:0:
268,360,54762,1,0,0:0:0:0:
268,360,54853,1,0,0:0:0:0:
268,360,54944,2,0,L|208:344,1,55
160,332,55125,5,0,0:0:0:0:
180,280,55216,5,0,0:0:0:0:
144,236,55307,5,0,0:0:0:0:
144,236,55398,1,0,0:0:0:0:
180,196,55489,5,0,0:0:0:0:
180,196,55580,1,0,0:0:0:0:
144,156,55671,5,0,0:0:0:0:
144,156,55762,1,0,0:0:0:0:
168,108,55853,5,0,0:0:0:0:
168,108,55944,1,0,0:0:0:0:
212,76,56034,5,0,0:0:0:0:
212,76,56125,1,0,0:0:0:0:
212,76,56216,1,0,0:0:0:0:
256,108,56307,5,0,0:0:0:0:
304,140,56398,5,0,0:0:0:0:
304,140,56489,1,0,0:0:0:0:
284,192,56580,5,0,0:0:0:0:
284,192,56671,5,0,0:0:0:0:
328,224,56762,5,0,0:0:0:0:
328,224,56853,5,0,0:0:0:0:
328,224,56944,1,0,0:0:0:0:
328,224,57034,1,0,0:0:0:0:
328,224,57125,2,0,L|348:288,1,55
352,332,57307,5,0,0:0:0:0:
300,316,57398,5,0,0:0:0:0:
252,340,57489,5,0,0:0:0:0:
252,340,57580,5,0,0:0:0:0:
252,340,57671,1,0,0:0:0:0:
252,340,57762,1,0,0:0:0:0:
252,340,57853,2,0,L|168:304,1,55
152,292,58034,5,0,0:0:0:0:
176,244,58125,5,0,0:0:0:0:
148,196,58216,5,0,0:0:0:0:
148,196,58307,1,0,0:0:0:0:
188,156,58398,5,0,0:0:0:0:
188,156,58489,1,0,0:0:0:0:
172,104,58580,5,0,0:0:0:0:
172,104,58671,1,0,0:0:0:0:
216,72,58762,5,0,0:0:0:0:
216,72,58853,1,0,0:0:0:0:
260,104,58944,5,0,0:0:0:0:
260,104,59034,1,0,0:0:0:0:
260,104,59125,1,0,0:0:0:0:
260,104,59216,1,0,0:0:0:0:
312,92,59307,5,0,0:0:0:0:
360,68,59398,5,0,0:0:0:0:
360,68,59489,1,0,0:0:0:0:
388,116,59580,5,0,0:0:0:0:
432,152,59671,5,0,0:0:0:0:
432,152,59762,5,0,0:0:0:0:
432,152,59853,1,0,0:0:0:0:
432,152,59944,1,0,0:0:0:0:
432,152,60034,2,0,L|424:228,1,71.4999967269899
404,292,60216,5,0,0:0:0:0:
332,292,60307,5,0,0:0:0:0:
280,340,60398,5,0,0:0:0:0:
280,340,60489,5,0,0:0:0:0:
280,340,60580,1,0,0:0:0:0:
280,340,60671,1,0,0:0:0:0:
280,340,60762,2,0,L|192:324,1,71.4999967269899
148,288,60944,5,0,0:0:0:0:
188,228,61034,5,0,0:0:0:0:
140,176,61125,5,0,0:0:0:0:
140,176,61216,1,0,0:0:0:0:
172,112,61307,5,0,0:0:0:0:
172,112,61398,1,0,0:0:0:0:
232,148,61489,5,0,0:0:0:0:
232,148,61580,1,0,0:0:0:0:
276,92,61671,5,0,0:0:0:0:
276,92,61762,1,0,0:0:0:0:
324,144,61853,5,0,0:0:0:0:
324,144,61944,1,0,0:0:0:0:
324,144,62034,1,0,0:0:0:0:
324,144,62125,1,0,0:0:0:0:
364,204,62216,5,0,0:0:0:0:
404,264,62307,5,0,0:0:0:0:
404,264,62398,1,0,0:0:0:0:
344,304,62489,5,0,0:0:0:0:
280,276,62580,5,0,0:0:0:0:
280,276,62671,5,0,0:0:0:0:
280,276,62762,1,0,0:0:0:0:
280,276,62853,1,0,0:0:0:0:
280,276,62944,2,0,L|200:260,1,71.4999967269899
140,240,63125,5,0,0:0:0:0:
160,172,63216,5,0,0:0:0:0:
232,148,63307,5,0,0:0:0:0:
232,148,63398,5,0,0:0:0:0:
232,148,63489,1,0,0:0:0:0:
232,148,63580,1,0,0:0:0:0:
232,148,63671,2,0,L|304:192,1,71.4999967269899
352,228,63853,5,0,0:0:0:0:
396,172,63944,5,0,0:0:0:0:
372,104,64034,5,0,0:0:0:0:
248,64,64125,5,0,0:0:0:0:
248,64,64216,1,0,0:0:0:0:
188,104,64307,5,0,0:0:0:0:
188,104,64398,1,0,0:0:0:0:
184,248,64489,5,0,0:0:0:0:
184,248,64580,1,0,0:0:0:0:
236,296,64671,5,0,0:0:0:0:
236,296,64762,1,0,0:0:0:0:
388,280,64853,5,0,0:0:0:0:
388,280,64944,1,0,0:0:0:0:
440,232,65034,5,0,0:0:0:0:
424,104,65125,5,0,0:0:0:0:
328,56,65216,1,0,0:0:0:0:
252,132,65307,1,0,0:0:0:0:
172,60,65398,1,0,0:0:0:0:
88,128,65489,1,0,0:0:0:0:
80,228,65580,6,0,L|56:332,1,65.9999979858399
164,280,65762,2,0,L|232:328,1,65.9999979858399
308,276,65944,2,0,L|436:268,1,65.9999979858399
372,172,66125,2,0,L|440:120,1,65.9999979858399
332,96,66307,5,0,0:0:0:0:
252,84,66398,1,0,0:0:0:0:
184,128,66489,1,0,0:0:0:0:
164,204,66580,1,0,0:0:0:0:
212,252,66671,5,0,0:0:0:0:
280,248,66762,5,0,0:0:0:0:
324,196,66853,5,0,0:0:0:0:
384,164,66944,5,0,0:0:0:0:
432,208,67034,5,0,0:0:0:0:
448,284,67125,1,0,0:0:0:0:
344,268,67216,5,0,0:0:0:0:
244,304,67307,5,0,0:0:0:0:
168,328,67398,1,0,0:0:0:0:
180,264,67489,5,0,0:0:0:0:
136,216,67580,5,0,0:0:0:0:
144,152,67671,5,0,0:0:0:0:
120,88,67762,5,0,0:0:0:0:
184,40,67853,1,0,0:0:0:0:
228,108,67944,1,0,0:0:0:0:
164,152,68034,1,0,0:0:0:0:
108,228,68125,5,0,0:0:0:0:
140,316,68216,1,0,0:0:0:0:
232,332,68307,1,0,0:0:0:0:
308,280,68398,1,0,0:0:0:0:
336,192,68489,5,0,0:0:0:0:
364,116,68580,1,0,0:0:0:0:
264,152,68671,5,0,0:0:0:0:
188,228,68762,5,0,0:0:0:0:
124,184,68853,1,0,0:0:0:0:
180,148,68944,5,0,0:0:0:0:
216,92,69034,5,0,0:0:0:0:
284,92,69125,5,0,0:0:0:0:
336,52,69216,5,0,0:0:0:0:
400,100,69307,1,0,0:0:0:0:
388,180,69398,1,0,0:0:0:0:
428,248,69489,1,0,0:0:0:0:
392,300,69580,5,0,0:0:0:0:
332,328,69671,5,0,0:0:0:0:
268,348,69762,5,0,0:0:0:0:
204,344,69853,5,0,0:0:0:0:
148,312,69944,5,0,0:0:0:0:
84,268,70034,1,0,0:0:0:0:
188,244,70125,5,0,0:0:0:0:
292,248,70216,5,0,0:0:0:0:
308,172,70307,1,0,0:0:0:0:
204,184,70398,5,0,0:0:0:0:
100,172,70489,5,0,0:0:0:0:
60,104,70580,1,0,0:0:0:0:
28,32,70671,5,0,0:0:0:0:
108,76,70762,1,0,0:0:0:0:
200,56,70853,1,0,0:0:0:0:
284,96,70944,1,0,0:0:0:0:
372,72,71034,1,0,0:0:0:0:
464,148,71125,5,0,0:0:0:0:
344,288,71216,5,0,0:0:0:0:
232,144,71307,5,0,0:0:0:0:
116,116,71398,6,0,L|100:184,1,65.9999979858399
208,256,71580,2,0,L|292:312,1,65.9999979858399
356,240,71762,2,0,L|428:232,1,65.9999979858399
344,84,71944,2,0,L|364:12,1,65.9999979858399
140,236,72125,6,0,L|88:312,1,82.5000031471254
316,192,72307,2,0,L|376:288,1,82.5000031471254
200,56,72489,2,0,L|172:136,1,82.5000031471254
320,288,72671,2,0,L|376:376,1,82.5000031471254
124,116,72853,5,0,0:0:0:0:
100,248,72944,1,0,0:0:0:0:
224,128,73034,5,0,0:0:0:0:
232,292,73125,1,0,0:0:0:0:
252,48,73216,5,0,0:0:0:0:
108,296,73307,1,0,0:0:0:0:
172,56,73398,5,0,0:0:0:0:
380,284,73489,1,0,0:0:0:0:
332,84,73580,5,0,0:0:0:0:
284,320,73671,1,0,0:0:0:0:
424,88,73762,5,0,0:0:0:0:
176,304,73853,1,0,0:0:0:0:
84,64,73944,5,0,0:0:0:0:
368,336,74034,1,0,0:0:0:0:
312,32,74125,5,0,0:0:0:0:
224,344,74216,1,0,0:0:0:0:
176,204,74307,5,0,0:0:0:0:
120,148,74398,1,0,0:0:0:0:
100,248,74489,5,0,0:0:0:0:
16,312,74580,5,0,0:0:0:0:
88,348,74671,1,0,0:0:0:0:
192,320,74762,5,0,0:0:0:0:
136,264,74853,1,0,0:0:0:0:
240,248,74944,5,0,0:0:0:0:
296,304,75034,1,0,0:0:0:0:
384,276,75125,1,0,0:0:0:0:
360,188,75216,1,0,0:0:0:0:
440,140,75307,1,0,0:0:0:0:
372,76,75398,5,0,0:0:0:0:
280,84,75489,1,0,0:0:0:0:
220,152,75580,1,0,0:0:0:0:
164,80,75671,1,0,0:0:0:0:
92,140,75762,5,0,0:0:0:0:
36,212,75853,1,0,0:0:0:0:
140,272,75944,5,0,0:0:0:0:
192,348,76034,1,0,0:0:0:0:
272,260,76125,5,0,0:0:0:0:
212,192,76216,1,0,0:0:0:0:
224,72,76307,5,0,0:0:0:0:
312,40,76398,1,0,0:0:0:0:
392,128,76489,5,0,0:0:0:0:
428,212,76580,1,0,0:0:0:0:
312,188,76671,5,0,0:0:0:0:
244,284,76762,1,0,0:0:0:0:
168,196,76853,5,0,0:0:0:0:
76,100,76944,1,0,0:0:0:0:
168,196,77034,1,0,0:0:0:0:
76,100,77125,1,0,0:0:0:0:
168,196,77216,5,0,0:0:0:0:
160,276,77307,1,0,0:0:0:0:
228,232,77398,5,0,0:0:0:0:
268,164,77489,5,0,0:0:0:0:
328,216,77580,1,0,0:0:0:0:
328,216,77671,1,0,0:0:0:0:
328,216,77762,1,0,0:0:0:0:
356,140,77853,5,0,0:0:0:0:
424,96,77944,5,0,0:0:0:0:
424,96,78034,1,0,0:0:0:0:
424,96,78125,1,0,0:0:0:0:
412,188,78216,5,0,0:0:0:0:
404,268,78307,5,0,0:0:0:0:
404,268,78398,1,0,0:0:0:0:
404,268,78489,1,0,0:0:0:0:
256,192,78671,12,0,79944,0:0:0:0:
144,140,80125,5,0,0:0:0:0:
104,224,80216,1,0,0:0:0:0:
192,196,80307,5,0,0:0:0:0:
260,132,80398,5,0,0:0:0:0:
244,40,80489,1,0,0:0:0:0:
244,40,80580,1,0,0:0:0:0:
244,40,80671,1,0,0:0:0:0:
324,84,80762,5,0,0:0:0:0:
384,152,80853,5,0,0:0:0:0:
384,152,80944,1,0,0:0:0:0:
384,152,81034,1,0,0:0:0:0:
320,220,81125,5,0,0:0:0:0:
404,256,81216,5,0,0:0:0:0:
300,268,81307,1,0,0:0:0:0:
224,340,81398,1,0,0:0:0:0:
256,192,81580,12,0,82216,0:0:0:0:
256,192,82307,12,0,82489,0:0:0:0:
256,192,82580,12,0,82853,0:0:0:0:
152,156,83034,5,0,0:0:0:0:
104,220,83125,1,0,0:0:0:0:
184,228,83216,5,0,0:0:0:0:
224,160,83307,5,0,0:0:0:0:
192,88,83398,1,0,0:0:0:0:
268,72,83489,5,0,0:0:0:0:
268,72,83580,1,0,0:0:0:0:
268,72,83671,1,0,0:0:0:0:
292,148,83762,5,0,0:0:0:0:
264,224,83853,5,0,0:0:0:0:
264,224,83944,1,0,0:0:0:0:
264,224,84034,1,0,0:0:0:0:
260,316,84125,5,0,0:0:0:0:
336,264,84216,1,0,0:0:0:0:
428,276,84307,1,0,0:0:0:0:
132,120,84489,5,0,0:0:0:0:
52,60,84580,1,0,0:0:0:0:
200,256,84762,5,0,0:0:0:0:
144,336,84853,1,0,0:0:0:0:
320,112,85034,5,0,0:0:0:0:
304,212,85125,1,0,0:0:0:0:
144,40,85307,5,0,0:0:0:0:
92,124,85398,1,0,0:0:0:0:
352,308,85580,5,0,0:0:0:0:
420,236,85671,1,0,0:0:0:0:
292,144,85853,5,0,0:0:0:0:
244,56,85944,1,0,0:0:0:0:
184,84,86034,5,0,0:0:0:0:
228,136,86125,5,0,0:0:0:0:
164,140,86216,5,0,0:0:0:0:
208,192,86307,5,0,0:0:0:0:
144,200,86398,5,0,0:0:0:0:
188,248,86489,5,0,0:0:0:0:
120,252,86580,5,0,0:0:0:0:
164,304,86671,5,0,0:0:0:0:
100,308,86762,5,0,0:0:0:0:
140,360,86853,5,0,0:0:0:0:
76,364,86944,5,0,0:0:0:0:
40,308,87034,5,0,0:0:0:0:
60,244,87125,5,0,0:0:0:0:
88,184,87216,5,0,0:0:0:0:
332,128,87398,5,0,0:0:0:0:
384,276,87489,5,0,0:0:0:0:
396,132,87580,5,0,0:0:0:0:
316,264,87671,5,0,0:0:0:0:
440,184,87762,5,0,0:0:0:0:
276,208,87853,5,0,0:0:0:0:
200,84,88125,5,0,0:0:0:0:
120,204,88216,1,0,0:0:0:0:
292,112,88398,5,0,0:0:0:0:
384,328,88489,1,0,0:0:0:0:
336,44,88671,5,0,0:0:0:0:
136,332,88762,1,0,0:0:0:0:
156,140,90307,5,0,0:0:0:0:
124,232,90398,1,0,0:0:0:0:
220,204,90489,5,0,0:0:0:0:
252,112,90580,1,0,0:0:0:0:
320,184,90671,5,0,0:0:0:0:
312,284,90762,1,0,0:0:0:0:
400,240,90853,6,0,L|424:148,1,82.5000031471254
332,100,91034,5,0,0:0:0:0:
232,64,91125,1,0,0:0:0:0:
228,172,91216,1,0,0:0:0:0:
132,128,91307,1,0,0:0:0:0:
136,236,91398,1,0,0:0:0:0:
232,284,91489,1,0,0:0:0:0:
328,236,91580,1,0,0:0:0:0:
388,148,91671,1,0,0:0:0:0:
444,48,91762,5,0,0:0:0:0:
476,160,91853,1,0,0:0:0:0:
372,208,91944,1,0,0:0:0:0:
328,104,92034,1,0,0:0:0:0:
216,84,92125,1,0,0:0:0:0:
196,200,92216,1,0,0:0:0:0:
80,212,92307,1,0,0:0:0:0:
80,328,92398,1,0,0:0:0:0:
204,328,92489,5,0,0:0:0:0:
280,228,92580,1,0,0:0:0:0:
280,104,92671,1,0,0:0:0:0:
392,48,92762,1,0,0:0:0:0:
428,168,92853,1,0,0:0:0:0:
436,292,92944,1,0,0:0:0:0:
316,268,93034,1,0,0:0:0:0:
240,172,93125,1,0,0:0:0:0:
140,88,93216,5,0,0:0:0:0:
44,200,93307,1,0,0:0:0:0:
180,172,93398,5,0,0:0:0:0:
276,80,93489,5,0,0:0:0:0:
340,212,93580,1,0,0:0:0:0:
180,172,93671,5,0,0:0:0:0:
92,72,93762,5,0,0:0:0:0:
56,216,93853,1,0,0:0:0:0:
180,172,93944,5,0,0:0:0:0:
252,64,94034,5,0,0:0:0:0:
364,164,94125,1,0,0:0:0:0:
180,172,94216,5,0,0:0:0:0:
132,48,94307,5,0,0:0:0:0:
40,164,94398,1,0,0:0:0:0:
180,172,94489,5,0,0:0:0:0:
228,312,94580,5,0,0:0:0:0:
372,348,94671,5,0,0:0:0:0:
416,188,94762,1,0,0:0:0:0:
288,260,94853,5,0,0:0:0:0:
188,368,94944,5,0,0:0:0:0:
128,216,95034,1,0,0:0:0:0:
288,260,95125,5,0,0:0:0:0:
404,356,95216,5,0,0:0:0:0:
408,192,95307,1,0,0:0:0:0:
288,260,95398,5,0,0:0:0:0:
156,240,95489,1,0,0:0:0:0:
140,108,95580,1,0,0:0:0:0:
248,184,95671,1,0,0:0:0:0:
336,88,95762,5,0,0:0:0:0:
440,252,95853,5,0,0:0:0:0:
248,356,95944,5,0,0:0:0:0:
152,188,96034,5,0,0:0:0:0:
36,68,96125,5,0,0:0:0:0:
180,156,96216,1,0,0:0:0:0:
312,52,96307,1,0,0:0:0:0:
440,164,96398,1,0,0:0:0:0:
324,288,96489,1,0,0:0:0:0:
188,188,96580,1,0,0:0:0:0:
88,324,96671,1,0,0:0:0:0:
56,160,96762,1,0,0:0:0:0:
196,256,96853,5,0,0:0:0:0:
348,324,96944,1,0,0:0:0:0:
308,164,97034,1,0,0:0:0:0:
156,92,97125,1,0,0:0:0:0:
76,240,97216,1,0,0:0:0:0:
220,324,97307,1,0,0:0:0:0:
368,244,97398,1,0,0:0:0:0:
392,76,97489,1,0,0:0:0:0:
424,220,97580,5,0,0:0:0:0:
340,344,97671,1,0,0:0:0:0:
280,208,97762,5,0,0:0:0:0:
196,84,97853,1,0,0:0:0:0:
132,240,97944,5,0,0:0:0:0:
272,328,98034,1,0,0:0:0:0:
432,280,98125,1,0,0:0:0:0:
436,112,98216,1,0,0:0:0:0:
288,32,98307,1,0,0:0:0:0:
128,88,98398,1,0,0:0:0:0:
252,200,98489,1,0,0:0:0:0:
416,160,98580,1,0,0:0:0:0:
196,24,98671,5,0,0:0:0:0:
64,248,98762,5,0,0:0:0:0:
332,372,98853,5,0,0:0:0:0:
460,116,98944,5,0,0:0:0:0:
348,132,99034,5,0,0:0:0:0:
236,104,99125,1,0,0:0:0:0:
184,208,99216,1,0,0:0:0:0:
88,144,99307,1,0,0:0:0:0:
60,220,99398,5,0,0:0:0:0:
72,300,99489,1,0,0:0:0:0:
156,304,99580,1,0,0:0:0:0:
232,336,99671,1,0,0:0:0:0:
348,324,99762,5,0,0:0:0:0:
364,208,99853,1,0,0:0:0:0:
456,280,99944,5,0,0:0:0:0:
428,168,100034,1,0,0:0:0:0:
312,156,100125,1,0,0:0:0:0:
268,264,100216,1,0,0:0:0:0:
356,336,100307,1,0,0:0:0:0:
412,256,100398,5,0,0:0:0:0:
380,160,100489,1,0,0:0:0:0:
444,84,100580,1,0,0:0:0:0:
344,80,100671,1,0,0:0:0:0:
260,28,100762,1,0,0:0:0:0:
212,116,100853,1,0,0:0:0:0:
124,68,100944,1,0,0:0:0:0:
80,156,101034,1,0,0:0:0:0:
144,232,101125,1,0,0:0:0:0:
100,320,101216,1,0,0:0:0:0:
200,320,101307,1,0,0:0:0:0:
260,240,101398,1,0,0:0:0:0:
344,292,101489,1,0,0:0:0:0:
436,208,101580,5,0,0:0:0:0:
308,60,101671,5,0,0:0:0:0:
188,56,101762,5,0,0:0:0:0:
128,140,101853,5,0,0:0:0:0:
116,212,101944,5,0,0:0:0:0:
508,268,102216,1,0,0:0:0:0:
272,16,102489,1,0,0:0:0:0:
348,336,102853,5,0,0:0:0:0:
136,60,103034,1,0,0:0:0:0:
504,176,103216,1,0,0:0:0:0:
96,360,103398,5,0,0:0:0:0:
452,40,103671,1,0,0:0:0:0:
8,156,103944,1,0,0:0:0:0:
228,0,104307,5,0,0:0:0:0:
512,264,104489,5,0,0:0:0:0:
4,380,104671,5,0,0:0:0:0:
52,0,104853,5,0,0:0:0:0:
256,192,104944,12,0,109125,0:0:0:0:
