osu file format v14

[General]
AudioFilename: Resonant World.mp3
AudioLeadIn: 1800
PreviewTime: 55828
Countdown: 0
SampleSet: Normal
StackLeniency: 0.7
Mode: 1
LetterboxInBreaks: 0
WidescreenStoryboard: 0

[Editor]
DistanceSpacing: 1.4
BeatDivisor: 2
GridSize: 4
TimelineZoom: 1.1

[Metadata]
Title:Resonant World
TitleUnicode:Resonant World
Artist:Matsunaga Maho (from StylipS)
ArtistUnicode:松永真穂(from StylipS)
Creator:Blanc Kisaragi
Version:Futsuu
Source:フェアリーフェンサーエフ
Tags:Compile Heart Fairy Fencer F Kin 5eania Kurokami ichigaki luxoDeh Xinely Nardoxyribonucleic mingmichael PatZar Genocide Minakami Yuki
BeatmapID:469269
BeatmapSetID:193326

[Difficulty]
HPDrainRate:7
CircleSize:5
OverallDifficulty:4
ApproachRate:5
SliderMultiplier:1.4
SliderTickRate:1

[Events]
//Background and Video events
0,0,"fff_wp.jpg",0,100
Video,36,"FFFOpening.avi"
//Break Periods
//Storyboard Layer 0 (Background)
//Storyboard Layer 1 (Fail)
//Storyboard Layer 2 (Pass)
//Storyboard Layer 3 (Foreground)
//Storyboard Sound Samples

[TimingPoints]
247,315.789473684211,4,1,0,70,1,0
5299,312.5,4,1,0,70,1,0
6549,318.302387267905,4,1,0,70,1,0
8458,308.880308880309,4,1,0,70,1,0
9693,331.491712707182,4,1,0,70,1,0
10355,315.789473684211,4,1,0,75,1,0
20460,-100,4,1,0,80,0,0
40670,-100,4,1,0,70,0,0
50776,-100,4,1,0,50,0,0
55828,-100,4,1,0,90,0,1
77302,-100,4,1,0,75,0,0
88670,-100,4,1,0,50,0,0
89934,-100,4,1,0,40,0,0
91197,-100,4,1,0,30,0,0
92460,-100,4,1,0,20,0,0
93723,-100,4,1,0,10,0,0

[HitObjects]
256,128,247,5,4,0:0:0:0:
256,128,562,1,4,0:0:0:0:
256,128,1510,1,0,0:0:0:0:
256,128,2141,1,8,0:0:0:0:
256,124,2773,1,4,0:0:0:0:
256,124,3089,1,4,0:0:0:0:
256,124,4036,1,0,0:0:0:0:
256,124,4668,1,8,0:0:0:0:
256,124,5299,1,4,0:0:0:0:
256,124,5611,1,4,0:0:0:0:
256,192,5924,12,0,7185,0:0:0:0:
256,124,7822,5,4,0:0:0:0:
256,124,8140,1,4,0:0:0:0:
256,124,9075,1,0,0:0:0:0:
256,124,10355,5,4,0:0:0:0:
256,124,10986,1,0,0:0:0:0:
256,124,11618,1,8,0:0:0:0:
256,124,11933,1,8,0:0:0:0:
256,124,12249,1,0,0:0:0:0:
256,124,12565,1,8,0:0:0:0:
256,124,12881,1,0,0:0:0:0:
256,124,13512,1,0,0:0:0:0:
256,124,14144,1,8,0:0:0:0:
256,124,14460,1,8,0:0:0:0:
256,124,14776,1,0,0:0:0:0:
256,124,15091,1,0,0:0:0:0:
256,124,15407,1,4,0:0:0:0:
256,124,16039,1,0,0:0:0:0:
256,124,16670,1,8,0:0:0:0:
256,124,16986,1,8,0:0:0:0:
256,124,17302,1,0,0:0:0:0:
256,124,17618,1,8,0:0:0:0:
256,124,17933,1,0,0:0:0:0:
256,124,18407,1,0,0:0:0:0:
256,124,18723,1,0,0:0:0:0:
256,120,19039,1,0,0:0:0:0:
260,124,20460,5,4,0:0:0:0:
260,124,20776,1,0,0:0:0:0:
260,124,21723,1,0,0:0:0:0:
260,124,22355,1,0,0:0:0:0:
264,124,22670,1,8,0:0:0:0:
260,124,22986,1,0,0:0:0:0:
264,124,23302,1,8,0:0:0:0:
264,124,24249,1,8,0:0:0:0:
264,124,24881,1,0,0:0:0:0:
264,124,25197,1,8,0:0:0:0:
264,124,25512,1,0,0:0:0:0:
92,160,26144,1,8,0:0:0:0:
264,124,26776,1,0,0:0:0:0:
264,124,27091,1,8,0:0:0:0:
264,124,27407,1,8,0:0:0:0:
264,124,28039,1,0,0:0:0:0:
264,124,28670,1,8,0:0:0:0:
264,124,29302,1,8,0:0:0:0:
268,124,30565,1,4,0:0:0:0:
268,124,30881,1,0,0:0:0:0:
268,124,31828,1,0,0:0:0:0:
268,124,32460,1,0,0:0:0:0:
268,124,32776,1,8,0:0:0:0:
268,124,33091,1,0,0:0:0:0:
268,124,33407,1,8,0:0:0:0:
268,124,34355,1,8,0:0:0:0:
268,124,34986,1,0,0:0:0:0:
268,124,35302,1,8,0:0:0:0:
268,124,35618,1,0,0:0:0:0:
268,124,36249,1,8,0:0:0:0:
268,124,36881,1,0,0:0:0:0:
268,124,37197,1,8,0:0:0:0:
268,124,37512,1,8,0:0:0:0:
268,124,38144,1,0,0:0:0:0:
268,124,38776,1,8,0:0:0:0:
268,124,39407,1,8,0:0:0:0:
268,124,40670,5,4,0:0:0:0:
268,124,40986,1,4,0:0:0:0:
268,124,41933,1,0,0:0:0:0:
268,124,42565,1,8,0:0:0:0:
268,124,43197,1,4,0:0:0:0:
268,124,43512,1,4,0:0:0:0:
268,124,44460,1,0,0:0:0:0:
268,124,45091,1,8,0:0:0:0:
268,124,45723,1,4,0:0:0:0:
268,124,46039,1,4,0:0:0:0:
268,124,46986,1,8,0:0:0:0:
268,124,47618,1,8,0:0:0:0:
268,124,48249,1,4,0:0:0:0:
268,124,48565,1,4,0:0:0:0:
0,220,49512,2,0,B|468:228|460:204|472:68,1,560,0|0,0:0|0:0,0:0:0:0:
268,124,51407,1,8,0:0:0:0:
268,124,52039,1,0,0:0:0:0:
268,124,52670,1,0,0:0:0:0:
256,192,53302,12,0,55197,0:0:0:0:
268,124,55828,5,12,0:0:0:0:
268,124,56302,1,0,0:0:0:0:
268,124,56618,1,0,0:0:0:0:
268,124,56933,1,8,0:0:0:0:
268,124,57723,1,0,0:0:0:0:
268,124,58039,1,8,0:0:0:0:
268,124,58355,1,8,0:0:0:0:
268,124,58828,1,0,0:0:0:0:
268,124,59144,1,0,0:0:0:0:
268,124,59460,1,8,0:0:0:0:
268,124,59776,1,8,0:0:0:0:
268,124,60091,1,0,0:0:0:0:
268,124,60565,1,8,0:0:0:0:
452,188,60881,1,4,0:0:0:0:
268,124,61197,1,8,0:0:0:0:
268,124,61828,1,8,0:0:0:0:
268,124,62460,1,0,0:0:0:0:
268,124,62776,1,8,0:0:0:0:
268,124,63091,1,8,0:0:0:0:
268,124,63407,1,0,0:0:0:0:
268,124,63723,1,8,0:0:0:0:
268,120,64355,1,8,0:0:0:0:
268,120,65933,1,12,0:0:0:0:
268,124,66407,1,0,0:0:0:0:
268,124,66723,1,0,0:0:0:0:
268,124,67039,1,8,0:0:0:0:
268,124,67828,1,0,0:0:0:0:
268,124,68144,1,8,0:0:0:0:
268,124,68460,1,8,0:0:0:0:
268,124,68933,1,0,0:0:0:0:
268,124,69249,1,0,0:0:0:0:
268,124,69565,1,8,0:0:0:0:
268,124,69881,1,8,0:0:0:0:
268,124,70197,1,8,0:0:0:0:
268,124,70670,1,8,0:0:0:0:
444,208,70986,1,4,0:0:0:0:
268,124,71302,1,8,0:0:0:0:
268,124,71933,1,8,0:0:0:0:
268,124,72565,1,8,0:0:0:0:
268,124,72881,1,0,0:0:0:0:
268,124,73197,1,8,0:0:0:0:
268,124,74144,1,0,0:0:0:0:
268,124,74618,1,8,0:0:0:0:
268,124,74933,1,0,0:0:0:0:
268,124,75407,1,0,0:0:0:0:
268,124,76039,1,4,0:0:0:0:
268,124,76512,1,8,0:0:0:0:
268,124,76828,1,8,0:0:0:0:
268,124,77302,1,12,0:0:0:0:
268,124,78565,1,4,0:0:0:0:
268,124,79039,1,0,0:0:0:0:
268,124,79355,1,8,0:0:0:0:
268,124,79670,1,8,0:0:0:0:
268,124,80302,1,0,0:0:0:0:
268,124,80618,1,8,0:0:0:0:
268,124,81091,1,0,0:0:0:0:
268,124,81565,1,0,0:0:0:0:
268,124,81881,1,8,0:0:0:0:
268,124,82197,1,8,0:0:0:0:
268,124,82828,1,8,0:0:0:0:
268,124,83144,1,8,0:0:0:0:
268,124,83618,1,4,0:0:0:0:
268,124,84091,1,0,0:0:0:0:
268,124,84407,1,8,0:0:0:0:
268,124,84723,1,8,0:0:0:0:
268,124,85355,1,0,0:0:0:0:
268,124,85670,1,8,0:0:0:0:
268,124,86144,1,0,0:0:0:0:
268,124,86618,1,0,0:0:0:0:
268,124,86933,1,8,0:0:0:0:
268,124,87249,1,8,0:0:0:0:
268,124,87881,1,8,0:0:0:0:
268,124,88197,1,8,0:0:0:0:
256,192,88670,12,0,93723,0:0:0:0:
