osu file format v14

[General]
AudioFilename: Resonant World.mp3
AudioLeadIn: 1800
PreviewTime: 55828
Countdown: 0
SampleSet: Soft
StackLeniency: 0.7
Mode: 0
LetterboxInBreaks: 0
WidescreenStoryboard: 0

[Editor]
DistanceSpacing: 1
BeatDivisor: 4
GridSize: 4
TimelineZoom: 1.9

[Metadata]
Title:Resonant World
TitleUnicode:Resonant World
Artist:Matsunaga Maho (from StylipS)
ArtistUnicode:松永真穂(from StylipS)
Creator:Blanc Kisaragi
Version:Easy
Source:フェアリーフェンサーエフ
Tags:Compile Heart Fairy Fencer F Kin 5eania Kurokami ichigaki luxoDeh Xinely Nardoxyribonucleic mingmichael PatZar Genocide Minakami Yuki
BeatmapID:570970
BeatmapSetID:193326

[Difficulty]
HPDrainRate:2
CircleSize:3
OverallDifficulty:2
ApproachRate:3
SliderMultiplier:0.8
SliderTickRate:1

[Events]
//Background and Video events
0,0,"fff_wp.jpg",0,0
Video,36,"FFFOpening.avi"
//Break Periods
2,50976,54388
//Storyboard Layer 0 (Background)
//Storyboard Layer 1 (Fail)
//Storyboard Layer 2 (Pass)
//Storyboard Layer 3 (Foreground)
//Storyboard Sound Samples

[TimingPoints]
247,315.789473684211,4,2,0,80,1,0
5299,312.5,4,2,0,80,1,0
6549,318.302387267905,4,2,0,80,1,0
8458,308.880308880309,4,2,0,80,1,0
9693,331.491712707182,4,2,0,80,1,0
10355,315.789473684211,4,1,0,80,1,0
11934,-100,4,1,3,75,0,0
12092,-100,4,1,2,80,0,0
12565,-100,4,1,3,75,0,0
12723,-100,4,1,2,80,0,0
14460,-100,4,1,3,75,0,0
14618,-100,4,1,2,80,0,0
15092,-100,4,1,3,75,0,0
15250,-100,4,1,2,80,0,0
16986,-100,4,1,3,75,0,0
17144,-100,4,1,2,80,0,0
20776,-100,4,1,3,75,0,0
20934,-100,4,1,2,80,0,0
23302,-100,4,1,3,75,0,0
23460,-100,4,1,2,80,0,0
25828,-100,4,1,3,75,0,0
25986,-100,4,1,2,80,0,0
27092,-100,4,1,3,75,0,0
27250,-100,4,1,2,80,0,0
28355,-100,4,1,3,80,0,0
28433,-100,4,1,2,80,0,0
30881,-100,4,1,3,75,0,0
31039,-100,4,1,2,80,0,0
33407,-100,4,1,3,75,0,0
33565,-100,4,1,2,80,0,0
35934,-100,4,1,3,75,0,0
36092,-100,4,1,2,80,0,0
37197,-100,4,1,3,75,0,0
37276,-100,4,1,2,80,0,0
38460,-100,4,1,3,80,0,0
38539,-100,4,1,2,80,0,0
40671,-100,4,2,0,80,0,0
55828,-100,4,1,2,80,0,1
56144,-100,4,1,3,75,0,1
56302,-100,4,1,2,80,0,1
56776,-100,4,1,3,75,0,1
56934,-100,4,1,2,80,0,1
58671,-100,4,1,3,75,0,1
58828,-100,4,1,2,80,0,1
66250,-100,4,1,3,75,0,1
66407,-100,4,1,2,80,0,1
66881,-100,4,1,3,75,0,1
66960,-100,4,1,2,80,0,1
68776,-100,4,1,3,75,0,1
68934,-100,4,1,2,80,0,1
75092,-100,4,1,3,75,0,1
75250,-100,4,1,2,80,0,1
77302,-100,4,1,2,80,0,0
88670,-100,4,2,0,30,0,0

[Colours]
Combo1 : 202,71,171
Combo2 : 237,32,98
Combo3 : 255,128,64
Combo4 : 0,128,255

[HitObjects]
70,49,247,6,0,B|177:149|263:-3|370:65,1,315,4|0,0:0|0:0,0:0:0:0:
488,172,2141,1,2,0:0:0:0:
372,284,2773,6,0,B|275:403|187:247|79:349,1,320,4|0,0:0|0:0,0:0:0:0:
76,188,4668,1,2,0:0:0:0:
172,60,5299,6,0,P|324:78|400:216,1,320,4|0,0:0|0:0,0:0:0:0:
240,216,7185,1,2,0:0:0:0:
82,215,7822,6,0,P|153:349|304:368,1,315,4|0,0:0|0:0,0:0:0:0:
304,220,9693,2,0,L|377:251,1,80
452,280,10355,5,4,0:0:0:0:
452,120,10986,1,0,0:0:0:0:
308,48,11618,2,0,P|284:123|304:199,2,160
176,136,13512,5,0,0:0:0:0:
92,272,14144,2,0,P|155:318|233:332,2,160,0|0|4,0:0|0:0|0:0,0:0:0:0:
216,172,16039,5,0,0:0:0:0:
348,260,16670,2,0,P|367:183|308:36,1,240,0|8,0:0|0:0,0:0:0:0:
230,38,17933,5,0,0:0:0:0:
145,122,18407,2,0,L|80:192,2,80
68,45,20460,6,0,P|204:57|252:113,1,200,4|0,0:0|0:0,0:0:0:0:
288,164,21565,1,0,0:0:0:0:
100,228,22355,2,0,B|80:272|104:308|104:308,1,80,0|8,0:0|0:0,0:0:0:0:
184,308,22986,6,0,P|282:323|381:311,1,200
460,304,24091,1,0,0:0:0:0:
424,108,24881,2,0,P|460:80|472:40,1,80,0|8,0:0|0:0,0:0:0:0:
392,32,25512,6,0,P|311:22|224:48,1,160,0|0,0:0|0:0,0:0:0:0:
168,84,26460,1,8,0:0:0:0:
108,136,26776,2,8,P|148:196|240:244,1,160,0|0,0:0|0:0,0:0:0:0:
296,268,27723,1,8,0:0:0:0:
371,295,28039,6,0,P|457:225|467:140,1,200
468,62,29144,1,0,0:0:0:0:
112,336,30565,6,0,P|212:332|256:252,1,200,4|0,0:0|0:0,0:0:0:0:
256,172,31670,2,8,L|256:52,1,120,0|8,0:0|0:0,0:0:0:0:
176,52,32460,2,8,P|136:48|92:72,1,80,0|8,0:0|0:0,0:0:0:0:
40,116,33091,6,0,P|36:216|124:244,1,200,0|0,0:0|0:0,0:0:0:0:
184,292,34197,2,0,P|240:300|308:284,1,120,0|8,0:0|0:0,0:0:0:0:
376,260,34986,2,0,P|392:224|380:172,1,80,0|8,0:0|0:0,0:0:0:0:
348,116,35618,6,0,P|268:72|136:120,1,240,0|8,0:0|0:0,0:0:0:0:
84,180,36881,2,0,L|-40:180,2,120,0|0|8,0:0|0:0|0:0,0:0:0:0:
164,180,38144,6,0,P|260:180|344:256,1,200
393,300,39249,1,0,0:0:0:0:
152,184,40670,5,4,0:0:0:0:
308,212,41302,1,0,0:0:0:0:
468,212,41933,2,0,P|452:148|384:88,2,160,0|2|4,0:0|0:0|0:0,0:0:0:0:
308,212,43828,5,0,0:0:0:0:
152,184,44460,2,0,P|90:232|67:308,2,160,0|2|4,0:0|0:0|0:0,0:0:0:0:
256,304,46355,5,0,0:0:0:0:
364,184,46986,2,0,L|420:268,2,80,0|0|2,0:0|0:0|0:0,0:0:0:0:
320,116,47933,1,0,0:0:0:0:
256,192,48249,12,4,50776,0:0:0:0:
336,264,55828,6,0,P|239:166|360:136,1,320,4|0,0:0|0:0,0:0:0:0:
416,196,57407,1,8,0:0:0:0:
448,268,57723,2,0,P|440:308|400:340,1,80,0|8,0:0|0:0,0:0:0:0:
332,348,58355,6,0,P|204:312|164:244,1,200
164,180,59460,2,0,L|248:180,1,80
324,180,60091,2,0,P|380:176|440:204,1,120,0|8,0:0|0:0,0:0:0:0:
440,280,60881,5,4,0:0:0:0:
360,280,61197,2,0,L|196:280,2,160,8|8|8,0:0|0:0|0:0,0:0:0:0:
440,280,62776,1,0,0:0:0:0:
440,200,63091,6,0,P|404:116|332:100,1,160,8|8,0:0|0:0,0:0:0:0:
248,228,64355,1,8,0:0:0:0:
156,100,64986,2,8,P|116:96|76:112,1,80
24,168,65618,1,0,0:0:0:0:
76,228,65933,6,0,B|192:224|192:296|392:280,1,320,4|0,0:0|0:0,0:0:0:0:
468,276,67512,1,8,0:0:0:0:
468,196,67828,2,4,P|452:156|416:128,1,80,0|8,0:0|0:0,0:0:0:0:
355,87,68460,6,8,P|263:60|183:114,1,200,0|0,0:0|0:0,0:0:0:0:
180,196,69565,2,0,L|260:196,1,80
260,276,70197,2,0,P|316:280|376:252,1,120,0|8,0:0|0:0,0:0:0:0:
376,176,70986,5,4,0:0:0:0:
376,96,71302,2,0,P|307:55|228:54,1,160,8|8,0:0|0:0,0:0:0:0:
148,56,72249,2,0,P|112:84|100:124,1,80,0|8,0:0|0:0,0:0:0:0:
100,196,72881,2,0,P|115:232|147:255,1,80,0|8,0:0|0:0,0:0:0:0:
384,296,74144,5,0,0:0:0:0:
464,296,74460,1,8,0:0:0:0:
424,228,74776,2,0,L|424:68,1,160
344,68,75723,1,0,0:0:0:0:
264,68,76039,6,0,P|225:71|191:92,1,80,4|0,0:0|0:0,0:0:0:0:
192,172,76670,2,0,P|225:192|265:195,2,80,0|0|4,0:0|0:0|0:0,0:0:0:0:
64,144,78565,6,4,P|160:52|288:96,2,280,4|0|8,0:0|0:0|0:0,0:0:0:0:
64,224,81091,6,0,P|137:333|266:305,2,280
64,144,83618,5,4,0:0:0:0:
184,144,84091,2,0,L|264:144,2,80
184,63,85039,2,0,L|104:63,2,80,0|0|8,0:0|0:0|0:0,0:0:0:0:
304,63,86144,5,0,0:0:0:0:
304,183,86618,2,0,P|265:173|227:184,2,80
360,239,87565,2,0,P|397:250|436:241,2,80
256,192,88670,12,0,93723,0:0:0:0:
