osu file format v14

[General]
AudioFilename: sange.mp3
AudioLeadIn: 1000
PreviewTime: 76782
Countdown: 0
SampleSet: Soft
StackLeniency: 0.7
Mode: 0
LetterboxInBreaks: 1
WidescreenStoryboard: 0

[Editor]
Bookmarks: 188298,254012
DistanceSpacing: 1.1
BeatDivisor: 4
GridSize: 4
TimelineZoom: 2.1

[Metadata]
Title:Ouka Sange
TitleUnicode:桜花散華
Artist:Matsumoto Sara
ArtistUnicode:秣本瑳羅
Creator:Trust
Version:Easy
Source:東方Project
Tags:Riverside _yoc. 東方妖々夢 Youyoumu Mystic Oriental Dream Ancient Temple Perfect Cherry Blossom Youmu Konpaku 妖夢 魂魄 Fleurir Cherry Blossom Dying a Glorious Death Touhou Project captin1
BeatmapID:513416
BeatmapSetID:215039

[Difficulty]
HPDrainRate:1
CircleSize:3
OverallDifficulty:2
ApproachRate:3
SliderMultiplier:0.8
SliderTickRate:1

[Events]
//Background and Video events
0,0,"youmu.jpg",0,0
//Break Periods
2,5462,6857
2,99926,109714
2,179926,186857
2,225640,234000
//Storyboard Layer 0 (Background)
//Storyboard Layer 1 (Fail)
//Storyboard Layer 2 (Pass)
//Storyboard Layer 3 (Foreground)
//Storyboard Sound Samples

[TimingPoints]
441,357.142857142857,4,2,1,65,1,0
1155,357.142857142857,4,2,1,65,1,0
31333,-100,4,2,1,40,0,0
40797,-100,4,2,1,50,0,0
41154,-100,4,2,1,60,0,0
42583,-100,4,2,1,65,0,0
76869,-100,4,2,1,75,0,1
96869,-100,4,2,1,75,0,0
97047,-100,4,2,1,55,0,0
111154,-100,4,2,1,40,0,0
119726,-100,4,2,1,55,0,0
122583,-100,4,2,1,65,0,0
156869,-100,4,2,1,75,0,1
176869,-100,4,2,1,75,0,0
177047,-100,4,2,1,55,0,0
188298,-100,4,2,1,50,0,0
198298,-100,4,2,1,75,0,0
235440,-100,4,2,1,75,0,1
235619,-100,4,2,1,75,0,0
236869,-100,4,2,1,75,0,1
251154,-100,4,2,1,75,0,0
251333,-100,4,2,1,35,0,0
251690,-100,4,2,1,45,0,0
252226,-100,4,2,1,55,0,0

[Colours]
Combo1 : 118,235,223
Combo2 : 139,242,121
Combo3 : 244,188,252

[HitObjects]
134,156,1155,6,0,P|201:173|259:150,1,120,4|4,0:0|0:0,0:0:0:0:
317,104,2047,1,8,0:0:0:0:
404,95,2404,2,0,P|456:129|451:231,1,160,4|4,0:0|0:0,0:0:0:0:
401,287,3476,6,0,L|279:295,1,120,0|4,1:0|0:0,0:0:0:0:
172,224,4547,2,0,P|164:196|176:136,1,80,4|0,0:0|1:0,0:0:0:0:
216,68,5262,1,4,0:0:0:0:
256,191,8297,5,4,0:0:0:0:
405,97,9726,6,0,P|446:86|518:127,2,120,2|2|2,0:0|0:0|0:0,0:0:0:0:
360,172,11154,6,0,L|346:338,1,160,4|0,0:0|0:0,0:0:0:0:
255,180,12583,2,0,P|199:193|102:144,1,160,2|0,0:0|0:0,0:0:0:0:
72,71,13654,1,4,0:3:0:0:
16,140,14012,6,0,L|43:313,1,160,4|0,0:0|0:0,0:0:0:0:
199,223,15440,2,0,P|237:204|316:227,2,120,2|2|2,0:0|0:0|0:0,0:0:0:0:
164,304,16869,6,0,P|111:223|134:164,1,160,4|0,0:0|0:0,0:0:0:0:
189,105,17940,1,2,0:0:0:0:
269,139,18297,2,0,P|333:160|389:130,2,120,4|4|8,1:2|1:2|0:0,0:0:0:0:
325,71,19726,6,0,P|430:66|463:117,1,160,4|0,0:0|0:0,0:0:0:0:
480,188,20797,1,8,0:0:0:0:
428,260,21154,2,0,B|396:288|396:288|304:296,2,120,2|2|8,0:0|0:0|0:0,0:0:0:0:
480,188,22583,6,0,P|500:125|447:51,1,160
368,19,23654,1,8,0:0:0:0:
286,53,24012,2,0,P|233:59|193:46,1,80,2|8,0:0|0:0,0:0:0:0:
122,76,24726,2,0,L|112:169,1,80,2|8,0:0|0:0,0:0:0:0:
115,243,25440,6,0,P|168:238|236:327,1,160,4|0,0:0|0:0,0:0:0:0:
315,347,26512,1,8,0:0:0:0:
395,310,26869,2,0,B|465:269|465:269|477:232,2,120,2|2|10,0:0|0:0|0:0,0:0:0:0:
328,252,28297,6,0,P|319:214|328:175,1,80,2|8,0:0|0:0,0:0:0:0:
383,106,29012,2,0,P|327:85|273:106,1,120,0|4,0:0|0:0,0:0:0:0:
239,187,29904,1,8,0:0:0:0:
203,267,30262,2,0,P|148:287|93:266,1,120,4|8,0:0|0:0,0:0:0:0:
42,194,31154,6,0,L|50:100,1,80,4|2,0:0|0:0,0:0:0:0:
210,187,32226,2,0,L|202:281,2,80,2|0|2,0:0|0:0|0:0,0:0:0:0:
335,63,33654,1,2,0:0:0:0:
389,132,34012,6,0,P|458:155|503:138,2,120,0|0|2,0:0|0:0|0:0,0:0:0:0:
336,63,35440,2,0,B|279:84|279:84|208:68,2,120,0|0|0,0:0|0:0|0:0,0:0:0:0:
392,132,36869,6,0,P|386:188|405:224,1,80,2|0,0:0|0:0,0:0:0:0:
341,279,37583,2,0,P|286:299|226:280,2,120,0|2|0,0:0|0:0|0:0,0:0:0:0:
283,211,39012,2,0,P|230:193|193:205,1,80,0|2,0:0|0:0,0:0:0:0:
139,254,39726,6,0,L|11:239,2,120,2|0|2,0:0|0:0|0:0,0:0:0:0:
209,199,41154,2,0,P|229:143|211:88,2,120,4|4|0,0:0|0:0|1:0,0:0:0:0:
139,253,42583,6,0,P|204:288|285:242,1,160,2|0,0:0|0:0,0:0:0:0:
306,171,43654,1,8,0:0:0:0:
340,89,44012,2,0,P|405:54|486:100,1,160,2|0,0:0|0:0,0:0:0:0:
447,170,45083,1,8,0:0:0:0:
504,237,45440,6,0,L|514:334,2,80,2|8|0,0:0|0:0|0:0,0:0:0:0:
447,169,46512,1,8,0:0:0:0:
416,251,46869,2,0,L|319:261,1,80,0|8,0:0|0:0,0:0:0:0:
272,319,47583,2,0,L|175:329,1,80,0|8,0:0|0:0,0:0:0:0:
161,244,48297,6,0,P|166:189|150:155,1,80,2|8,0:0|0:0,0:0:0:0:
78,206,49012,2,0,P|81:289|115:322,2,120,0|2|8,0:0|0:0|0:0,0:0:0:0:
157,167,50440,2,0,L|247:162,1,80,2|8,0:0|0:0,0:0:0:0:
302,221,51154,6,0,P|384:230|422:204,1,120,2|2,0:0|0:0,0:0:0:0:
478,152,52047,1,0,0:0:0:0:
498,237,52404,2,0,L|494:334,2,80,4|4|4,0:0|0:0|0:0,0:0:0:0:
390,159,53654,1,2,0:0:0:0:
312,201,54012,6,0,P|235:199|197:132,1,160,6|0,0:0|0:0,0:0:0:0:
127,78,55083,1,8,0:0:0:0:
115,165,55440,2,0,L|98:300,2,120,2|2|8,0:0|0:0|0:0,0:0:0:0:
200,136,56869,6,0,P|256:144|288:129,1,80,2|8,0:0|0:0,0:0:0:0:
347,84,57583,2,0,P|385:74|423:84,1,80,0|8,0:0|0:0,0:0:0:0:
469,159,58297,2,0,L|490:331,1,160,2|2,0:0|0:0,0:0:0:0:
411,361,59369,1,8,0:0:0:0:
342,305,59726,6,0,P|289:297|256:311,1,80,4|8,0:0|0:0,0:0:0:0:
187,347,60440,2,0,P|148:356|110:347,1,80,0|8,0:0|0:0,0:0:0:0:
150,267,61154,2,0,P|167:211|139:140,2,120,2|2|8,0:0|0:0|0:0,0:0:0:0:
78,212,62583,6,0,P|60:155|77:98,2,120,2|2|8,0:0|0:0|0:0,0:0:0:0:
150,154,64012,1,4,0:0:0:0:
231,121,64369,1,8,0:0:0:0:
294,182,64726,2,0,P|327:203|366:207,1,80,2|8,0:0|0:0,0:0:0:0:
420,137,65440,6,0,P|454:209|419:278,1,160,4|0,0:0|1:0,0:0:0:0:
339,310,66512,1,8,0:0:0:0:
262,267,66869,2,0,P|217:258|176:273,1,80,2|8,0:0|0:0,0:0:0:0:
143,345,67583,2,0,P|188:354|229:339,1,80,0|8,1:0|0:0,0:0:0:0:
262,267,68297,6,0,L|250:103,1,160,2|0,0:0|1:0,0:0:0:0:
187,46,69369,1,8,0:0:0:0:
123,107,69726,2,0,P|54:120|0:102,2,120,2|0|8,0:0|0:0|0:0,0:0:0:0:
188,46,71154,6,0,B|224:84|210:137|210:137|253:155|253:155|245:210|296:247,1,240,4|8,0:0|0:0,0:0:0:0:
340,168,72583,2,0,P|431:179|462:244,1,160,2|8,0:0|0:0,0:0:0:0:
375,252,73654,1,0,0:0:0:0:
288,239,74012,6,0,P|259:202|288:94,1,160,0|8,1:0|0:0,0:0:0:0:
122,174,75440,2,0,P|59:190|6:173,2,120,4|8|8,1:3|0:0|0:0,0:0:0:0:
201,135,76869,6,0,P|211:170|194:225,1,80,4|8,0:0|0:0,0:0:0:0:
146,279,77583,2,0,P|173:295|262:274,2,120,0|2|8,1:0|0:0|0:0,0:0:0:0:
203,211,79012,2,0,P|236:193|292:202,1,80,2|8,0:0|0:0,0:0:0:0:
341,254,79726,6,0,P|380:256|415:237,1,80,4|8,0:0|0:0,0:0:0:0:
454,159,80440,2,0,L|462:27,2,120,0|4|8,1:0|0:0|0:0,0:0:0:0:
367,141,81869,6,0,P|288:122|251:145,2,120,0|4|8,1:0|0:0|0:0,0:0:0:0:
311,209,83297,2,0,P|255:228|201:206,2,120,0|4|8,1:0|0:0|0:0,0:0:0:0:
258,137,84726,1,2,0:0:0:0:
171,122,85083,1,8,0:0:0:0:
113,188,85440,6,0,L|94:269,2,80,4|8|0,0:0|0:0|1:0,0:0:0:0:
171,122,86512,1,8,0:0:0:0:
258,137,86869,2,0,P|328:140|350:127,1,80,4|8,0:0|0:0,0:0:0:0:
373,57,87583,2,0,P|303:54|281:67,1,80,2|8,0:0|0:0,0:0:0:0:
258,137,88297,6,0,L|251:226,1,80,4|8,0:0|0:0,0:0:0:0:
181,270,89012,2,0,P|129:256|61:290,2,120,0|4|8,1:0|0:0|0:0,0:0:0:0:
251,323,90440,2,0,P|296:333|337:316,1,80,2|8,0:0|0:0,0:0:0:0:
380,252,91154,6,0,L|390:162,1,80,4|8,0:0|0:0,0:0:0:0:
474,193,91869,2,0,L|460:327,2,120,0|4|8,1:0|0:0|0:0,0:0:0:0:
481,105,93297,1,4,0:0:0:0:
358,153,93833,6,0,P|290:170|241:149,1,120,4|8,0:0|0:0,0:0:0:0:
185,88,94726,2,0,P|128:69|72:87,2,120,0|4|4,1:0|0:0|0:0,0:0:0:0:
247,153,96154,2,0,L|242:244,2,80,0|8|4,0:0|0:0|0:0,0:0:0:0:
256,192,97047,12,4,99726,0:0:0:0:
88,137,111154,6,0,P|70:177|96:253,2,120,4|0|2,0:0|0:0|0:0,0:0:0:0:
159,191,112583,2,0,B|274:243|274:137|405:195,1,240,0|2,0:0|0:0,0:0:0:0:
460,242,114012,6,0,P|479:191|456:130,2,120,0|0|2,0:0|0:0|0:0,0:0:0:0:
434,326,115440,2,0,L|349:334,1,80,0|2,0:0|0:0,0:0:0:0:
281,284,116154,2,0,L|201:291,1,80,0|0,0:0|0:0,0:0:0:0:
139,227,116869,6,0,P|130:175|145:141,1,80,2|0,0:0|0:0,0:0:0:0:
193,81,117583,2,0,P|128:60|79:86,2,120,0|0|0,0:0|0:0|0:0,0:0:0:0:
321,201,119369,1,0,0:0:0:0:
406,179,119726,6,0,L|444:20,2,160,4|0|4,0:0|0:0|0:0,0:0:0:0:
256,271,121869,1,0,1:0:0:0:
182,111,122583,6,0,P|139:81|41:118,1,160,4|0,0:0|1:0,0:0:0:0:
30,199,123654,1,8,0:0:0:0:
97,256,124012,2,0,L|260:272,1,160,0|0,1:0|1:0,0:0:0:0:
320,207,125083,1,8,0:0:0:0:
388,265,125440,6,0,L|486:255,2,80,0|8|0,1:0|0:0|1:0,0:0:0:0:
321,207,126512,1,8,0:0:0:0:
304,293,126869,2,0,L|315:378,1,80,0|8,1:0|0:0,0:0:0:0:
228,354,127583,2,0,L|217:269,1,80,2|8,0:0|0:0,0:0:0:0:
236,188,128297,6,0,P|245:152|226:103,1,80,2|8,0:0|0:0,0:0:0:0:
155,155,129012,2,0,P|85:174|38:154,2,120,0|2|8,1:0|0:0|0:0,0:0:0:0:
236,188,130440,2,0,L|245:280,1,80,0|8,1:0|0:0,0:0:0:0:
305,330,131154,6,0,P|375:311|422:331,1,120,4|2,0:0|0:0,0:0:0:0:
495,368,132047,1,2,0:0:0:0:
496,280,132404,2,0,L|478:187,2,80,4|4|4,0:0|0:0|0:0,0:0:0:0:
386,353,133654,1,2,0:0:0:0:
335,281,134012,6,0,P|263:249|180:291,1,160,4|0,0:0|0:0,0:0:0:0:
114,320,135083,1,8,0:0:0:0:
38,275,135440,2,0,L|1:149,2,120,2|2|8,0:0|0:0|0:0,0:0:0:0:
115,232,136869,6,0,P|146:222|194:233,1,80,2|8,0:0|0:0,0:0:0:0:
271,269,137583,2,0,P|280:230|270:192,1,80,0|8,0:0|0:0,0:0:0:0:
239,110,138297,2,0,L|407:93,1,160,2|2,0:0|0:0,0:0:0:0:
449,165,139369,1,8,0:0:0:0:
403,240,139726,6,0,P|396:291|414:324,1,80,4|8,0:0|0:0,0:0:0:0:
489,349,140440,2,0,P|496:298|478:265,1,80,0|8,0:0|0:0,0:0:0:0:
403,239,141154,2,0,P|326:256|279:229,2,120,2|2|8,0:0|0:0|0:0,0:0:0:0:
348,169,142583,6,0,P|271:152|224:179,2,120,2|2|8,0:0|0:0|0:0,0:0:0:0:
417,114,144012,2,0,L|438:29,2,80,4|8|2,0:0|0:0|0:0,0:0:0:0:
348,168,145083,1,8,0:0:0:0:
276,116,145440,6,0,P|204:84|128:120,1,160,4|0,0:0|1:0,0:0:0:0:
80,184,146512,1,8,0:0:0:0:
88,272,146869,2,0,L|100:368,2,80,0|8|0,1:0|0:0|1:0,0:0:0:0:
80,184,147940,1,8,0:0:0:0:
160,220,148297,6,0,P|224:252|308:216,1,160,0|0,1:0|1:0,0:0:0:0:
380,180,149369,1,8,0:0:0:0:
464,204,149726,2,0,P|477:273|459:327,2,120,0|0|8,1:0|0:0|0:0,0:0:0:0:
380,180,151154,6,0,B|350:207|307:219|264:207|236:176|236:176|255:128|225:84,1,240,4|0,0:0|0:0,0:0:0:0:
156,141,152583,2,0,P|106:126|76:26,1,160,2|8,0:0|0:0,0:0:0:0:
159,53,153654,1,0,0:0:0:0:
234,98,154012,6,0,P|233:189|165:228,1,160,4|8,0:0|0:0,0:0:0:0:
330,320,155440,2,0,P|400:301|454:328,2,120,8|8|8,0:0|0:0|0:0,0:0:0:0:
250,357,156869,6,0,P|240:322|257:267,1,80,4|8,0:0|0:0,0:0:0:0:
171,237,157583,2,0,P|144:253|55:232,2,120,0|2|8,1:0|0:0|0:0,0:0:0:0:
245,189,159012,2,0,L|229:108,1,80,2|8,0:0|0:0,0:0:0:0:
312,81,159726,6,0,L|328:162,1,80,4|8,0:0|0:0,0:0:0:0:
410,189,160440,2,0,P|426:216|405:305,2,120,0|4|8,1:0|0:0|0:0,0:0:0:0:
326,158,161869,6,0,P|272:178|216:158,2,120,4|4|8,0:0|0:0|0:0,0:0:0:0:
270,89,163297,2,0,P|243:73|154:94,2,120,0|4|8,1:0|0:0|0:0,0:0:0:0:
218,159,164726,1,2,0:0:0:0:
131,173,165083,1,8,0:0:0:0:
73,106,165440,6,0,L|61:22,2,80,4|8|0,0:0|0:0|1:0,0:0:0:0:
131,173,166512,1,8,0:0:0:0:
110,258,166869,2,0,P|107:328|120:350,1,80,4|8,0:0|0:0,0:0:0:0:
190,373,167583,2,0,P|193:303|180:281,1,80,2|8,0:0|0:0,0:0:0:0:
260,243,168297,6,0,L|344:235,1,80,4|8,0:0|0:0,0:0:0:0:
401,299,169012,2,0,P|477:314|519:281,2,120,0|4|8,1:0|0:0|0:0,0:0:0:0:
340,235,170440,2,0,L|332:151,1,80,2|8,0:0|0:0,0:0:0:0:
245,170,171154,6,0,P|175:173|153:160,1,80,4|8,0:0|0:0,0:0:0:0:
99,114,171869,2,0,P|83:141|104:230,2,120,0|4|8,1:0|0:0|0:0,0:0:0:0:
181,83,173297,1,4,0:0:0:0:
308,116,173833,6,0,P|386:150|425:133,1,120,4|8,0:0|0:0,0:0:0:0:
375,61,174726,2,0,P|295:25|257:43,2,120,0|4|4,1:0|0:0|0:0,0:0:0:0:
414,141,176154,2,0,L|408:224,2,80,0|8|4,0:0|0:0|0:0,0:0:0:0:
256,192,177047,12,0,179726,0:0:0:0:
225,226,188297,6,0,P|256:217|311:230,1,80,0|8,1:0|0:0,0:0:0:0:
373,276,189012,2,0,P|432:295|492:273,2,120,0|0|8,0:0|1:0|0:0,0:0:0:0:
301,225,190440,2,0,L|295:135,1,80,0|8,0:0|0:0,0:0:0:0:
210,124,191154,6,0,L|216:214,1,80,0|8,1:0|0:0,0:0:0:0:
140,250,191869,2,0,P|81:231|21:253,2,120,0|0|8,0:0|1:0|0:0,0:0:0:0:
218,290,193297,2,0,P|255:300|301:288,1,80,2|8,0:0|0:0,0:0:0:0:
373,250,194012,6,0,L|393:74,1,160,0|0,1:0|0:0,0:0:0:0:
314,47,195083,1,8,0:0:0:0:
257,114,195440,2,0,P|183:133|138:107,2,120,2|2|8,0:0|0:0|0:0,0:0:0:0:
201,45,196869,6,0,P|116:29|62:83,1,160,0|0,1:0|0:0,0:0:0:0:
74,161,197940,1,2,0:0:0:0:
93,246,198297,1,4,0:0:0:0:
256,180,199012,1,4,0:0:0:0:
420,248,199726,6,0,P|428:304|416:340,2,80,4|8|0,0:0|0:0|1:0,0:0:0:0:
344,204,200797,1,8,0:0:0:0:
340,292,201154,2,0,P|232:348|196:328,1,160,2|0,0:0|1:0,0:0:0:0:
144,276,202226,1,8,0:0:0:0:
184,196,202583,6,0,L|196:108,2,80,0|8|2,1:0|0:0|0:0,0:0:0:0:
144,276,203654,1,8,0:0:0:0:
96,200,204012,2,0,P|48:192|12:204,2,80,0|8|2,1:0|0:0|0:0,0:0:0:0:
144,276,205083,1,8,0:0:0:0:
188,352,205440,6,0,B|247:341|247:341|286:355|286:355|352:343,1,160,4|0,0:0|1:0,0:0:0:0:
432,324,206512,1,8,0:0:0:0:
368,260,206869,2,0,P|344:232|384:112,1,160,2|0,0:0|1:0,0:0:0:0:
444,80,207940,1,8,0:0:0:0:
368,36,208297,6,0,B|310:25|310:25|271:39|271:39|212:28,1,160,0|0,1:0|1:0,0:0:0:0:
124,12,209369,1,8,0:0:0:0:
156,96,209726,2,0,P|192:176|148:240,1,160,0|2,1:0|0:0,0:0:0:0:
96,296,210797,1,8,0:0:0:0:
180,320,211154,6,0,B|220:320|220:320|256:340|256:340|292:320|292:320|340:320,1,160,4|0,0:0|1:0,0:0:0:0:
388,252,212226,1,8,0:0:0:0:
320,196,212583,2,0,P|312:160|328:108,1,80,2|8,0:0|0:0,0:0:0:0:
404,88,213297,2,0,P|412:124|396:176,1,80,0|8,1:0|0:0,0:0:0:0:
388,252,214012,6,0,L|476:268,2,80,4|8|0,0:0|0:0|1:0,0:0:0:0:
320,196,215083,1,8,0:0:0:0:
264,264,215440,2,0,P|228:272|176:256,1,80,2|8,0:0|0:0,0:0:0:0:
156,180,216154,2,0,P|192:172|244:188,1,80,0|8,1:0|0:0,0:0:0:0:
320,196,216869,6,0,L|408:192,2,80,4|8|0,0:0|0:0|1:0,0:0:0:0:
264,264,217940,1,8,0:0:0:0:
196,320,218297,2,0,B|137:323|137:323|102:346|102:346|42:349,1,160,0|0,1:0|1:0,0:0:0:0:
12,268,219369,1,8,0:0:0:0:
92,228,219726,6,0,P|120:144|76:80,1,160,4|0,0:0|1:0,0:0:0:0:
144,20,220797,1,8,0:0:0:0:
204,84,221154,2,0,P|288:112|352:68,1,160,4|0,0:0|1:0,0:0:0:0:
424,40,222226,2,0,P|432:76|416:128,1,80,8|4,0:0|0:0,0:0:0:0:
256,192,222762,12,0,225440,1:0:0:0:
232,124,235440,6,0,L|96:116,2,120,4|0|0,0:0|1:0|1:0,0:0:0:0:
312,84,236869,6,0,P|320:136|308:168,1,80,4|8,0:0|0:0,0:0:0:0:
256,232,237583,2,0,P|316:252|372:228,2,120,0|4|8,1:0|0:0|0:0,0:0:0:0:
168,228,239012,2,0,L|148:324,1,80,2|8,0:0|0:0,0:0:0:0:
76,260,239726,6,0,L|96:164,1,80,4|8,0:0|0:0,0:0:0:0:
162,125,240440,2,0,P|182:65|158:9,2,120,0|4|8,1:0|0:0|0:0,0:0:0:0:
92,181,241869,6,0,P|72:126|93:71,2,120,4|4|8,0:0|0:0|0:0,0:0:0:0:
149,251,243297,2,0,P|93:270|38:250,2,120,0|4|4,1:0|0:0|0:0,0:0:0:0:
213,190,244726,2,0,L|309:183,1,80,0|8,0:0|0:0,0:0:0:0:
372,147,245440,6,0,P|380:199|368:231,1,80,0|8,1:0|0:0,0:0:0:0:
399,309,246154,2,0,P|454:288|509:308,2,120,0|4|8,1:0|0:0|0:0,0:0:0:0:
325,358,247583,1,0,1:0:0:0:
249,313,247940,1,8,0:0:0:0:
175,265,248297,6,0,P|166:239|183:177,1,80,4|8,0:0|0:0,0:0:0:0:
116,122,249012,2,0,P|60:142|5:122,2,120,0|4|4,0:0|0:0|0:0,0:0:0:0:
190,74,250440,2,0,P|216:65|278:82,2,80,0|8|4,0:0|0:0|0:0,0:0:0:0:
256,192,251333,12,4,254012,0:0:0:0:
