osu file format v12

[General]
AudioFilename: Ito Hakanaki Hikari no Gotoku.mp3
AudioLeadIn: 1500
PreviewTime: 74919
Countdown: 0
SampleSet: Soft
StackLeniency: 0.7
Mode: 0
LetterboxInBreaks: 0
WidescreenStoryboard: 0

[Editor]
Bookmarks: 11980,28078,39785,51493,63200,74907,108566,121736,133444,162712,167193,168932,180272,186127,197834
DistanceSpacing: 1.1
BeatDivisor: 2
GridSize: 8

[Metadata]
Title:Ito Hakanaki Hikari no Gotoku
TitleUnicode:いと儚き燿の如く
Artist:Matsumoto Sara
ArtistUnicode:秣本瑳羅
Creator:Mixagji
Version:Easy
Source:Touhou
Tags:Year-Round Absorbed Curiosity Riverside _yoc. metamorphoXIs Yousei Daisensou Sangetsusei Great Fairy Wars Eastern Three Fairies ZUN Sunny Milk Luna Child Star Sapphire Loneight l1106188
BeatmapID:316148
BeatmapSetID:120255

[Difficulty]
HPDrainRate:2
CircleSize:3
OverallDifficulty:2
ApproachRate:3
SliderMultiplier:0.8
SliderTickRate:2

[Events]
//Background and Video events
0,0,"aaa.jpg",0,0
//Break Periods
2,25362,26649
2,157070,167503
2,183045,184698
//Storyboard Layer 0 (Background)
//Storyboard Layer 1 (Fail)
//Storyboard Layer 2 (Pass)
//Storyboard Layer 3 (Foreground)
//Storyboard Sound Samples
//Background Colour Transformations
3,100,163,162,255

[TimingPoints]
285,365.853658536585,4,2,1,60,1,0
11992,-100,4,2,2,70,0,0
19675,-100,4,1,1,40,0,0
28089,-100,4,2,2,70,0,0
73455,-100,4,1,1,70,0,0
74919,-100,4,2,2,70,0,1
86260,-100,4,2,1,70,0,0
86626,-100,4,2,2,70,0,1
95406,-100,4,2,1,70,0,1
98333,-100,4,2,2,55,0,0
131992,-100,4,1,1,70,0,0
133455,-100,4,2,2,70,0,1
144614,-100,4,2,1,70,0,0
145163,-100,4,2,2,70,0,1
153943,-100,4,2,1,70,0,1
156870,-100,4,2,2,55,0,0
186138,-100,4,2,1,70,0,0
197845,-100,4,2,2,75,0,1
206626,-100,4,2,1,70,0,1
209553,-100,4,2,2,75,0,0

[Colours]
Combo1 : 255,255,128
Combo2 : 255,128,64
Combo3 : 0,255,255

[HitObjects]
78,120,285,2,0,P|111:188|199:192,1,160,4|2,0:0|0:0,0:0:0:0:
256,142,1382,1,4,0:0:0:0:
318,79,1748,2,0,L|389:119,2,80,4|0|8,0:0|0:0|0:0,0:0:0:0:
396,236,3211,6,0,P|359:306|280:313,1,160,4|2,0:0|0:0,0:0:0:0:
207,271,4309,1,0,0:0:0:0:
134,220,4675,2,0,P|90:232|63:266,2,80,4|0|8,0:0|0:0|0:0,0:0:0:0:
212,180,5772,1,0,0:0:0:0:
287,135,6138,6,0,P|247:68|165:69,1,160,4|2,0:0|0:0,0:0:0:0:
104,122,7236,1,0,0:0:0:0:
47,189,7602,2,0,L|153:312,1,160,4|8,0:0|0:0,0:0:0:0:
324,340,9065,6,0,P|396:313|416:236,1,160,4|2,0:0|0:0,0:0:0:0:
377,159,10163,1,0,0:0:0:0:
314,96,10528,2,0,L|250:41,2,80,4|4|4,0:0|0:0|0:0,0:0:0:0:
377,159,11626,1,4,0:0:0:0:
256,192,11992,12,4,13455,0:0:0:0:
100,296,14919,6,0,B|201:339|261:280|261:280|238:205|238:205|293:148,1,320,4|4,0:0|0:0,0:0:0:0:
412,88,17845,6,0,B|311:45|251:104|251:104|274:179|274:179|219:236,1,320,4|4,0:0|0:0,0:0:0:0:
231,316,19675,5,0,0:0:0:0:
312,282,20041,2,0,P|319:322|302:367,2,80,2|0|2,0:0|0:0|0:0,0:0:0:0:
249,220,21138,1,0,0:0:0:0:
161,211,21504,2,0,L|78:204,1,80,2|0,0:0|0:0,0:0:0:0:
62,117,22236,6,0,P|115:55|188:60,1,160,4|2,0:0|0:0,0:0:0:0:
256,112,23333,1,8,0:0:0:0:
319,172,23699,2,0,P|396:174|444:114,1,160,4|2,0:0|0:0,0:0:0:0:
417,30,24797,2,0,L|333:24,1,80,8|4,0:0|0:0,0:0:0:0:
93,328,28089,6,0,P|146:293|240:307,1,160,4|2,0:0|0:0,0:0:0:0:
324,288,29187,1,8,0:0:0:0:
376,217,29553,2,0,P|423:209|452:192,2,80,2|8|0,0:0|0:0|0:0,0:0:0:0:
288,203,30650,1,8,0:0:0:0:
308,117,31016,6,0,L|363:55,1,80,2|8,0:0|0:0,0:0:0:0:
279,23,31748,2,0,L|224:85,1,80,0|8,0:0|0:0,0:0:0:0:
138,91,32480,2,0,L|54:91,2,80,2|8|0,0:0|0:0|0:0,0:0:0:0:
192,160,33577,1,8,0:0:0:0:
250,225,33943,6,0,P|323:254|400:220,1,160,4|2,0:0|0:0,0:0:0:0:
412,138,35041,1,8,0:0:0:0:
365,63,35406,2,0,P|325:55|283:61,1,80,2|8,0:0|0:0,0:0:0:0:
210,105,36138,6,0,P|178:129|122:127,2,80,2|8|4,0:0|0:0|0:0,0:0:0:0:
359,197,37602,2,0,P|389:273|338:346,2,160,0|0|0,0:0|0:0|0:0,0:0:0:0:
274,171,39431,1,0,0:0:0:0:
208,229,39797,6,0,P|140:271|60:257,1,160,4|2,0:0|0:0,0:0:0:0:
12,187,40894,1,8,0:0:0:0:
38,103,41260,2,0,P|106:61|186:75,2,160,2|0|4,0:0|0:0|0:0,0:0:0:0:
96,168,43089,5,8,0:0:0:0:
157,230,43455,2,0,P|169:268|158:313,2,80,2|0|0,0:0|0:0|0:0,0:0:0:0:
184,144,44553,2,0,P|222:112|261:104,1,80,2|0,0:0|0:0,0:0:0:0:
334,130,45284,1,8,0:0:0:0:
414,93,45650,6,0,P|416:173|355:217,2,160,0|0|2,0:0|0:0|0:0,0:0:0:0:
342,41,47480,1,2,0:0:0:0:
259,69,47845,2,0,P|215:86|177:82,1,80,0|2,0:0|0:0,0:0:0:0:
100,115,48577,6,0,L|55:195,2,80,2|0|2,0:0|0:0|0:0,0:0:0:0:
106,26,49675,1,0,0:0:0:0:
173,83,50041,2,0,P|250:107|326:71,1,160,2|8,0:0|0:0,0:0:0:0:
407,87,51138,1,8,0:0:0:0:
458,158,51504,6,0,L|364:189,1,80,4|8,0:0|0:0,0:0:0:0:
371,270,52236,2,0,L|282:265,2,80,2|8|0,0:0|0:0|0:0,0:0:0:0:
458,277,53333,1,8,0:0:0:0:
407,349,53699,2,0,P|332:368|246:336,1,160,2|4,0:0|0:0,0:0:0:0:
194,277,54797,5,8,0:0:0:0:
110,249,55163,2,0,P|71:266|44:301,2,80,2|8|0,0:0|0:0|0:0,0:0:0:0:
128,335,56260,1,8,0:0:0:0:
194,277,56626,2,0,P|197:236|182:201,1,80,0|8,0:0|0:0,0:0:0:0:
109,150,57358,6,0,P|135:72|207:54,2,160,0|0|2,0:0|0:0|0:0,0:0:0:0:
182,197,59187,2,0,P|232:262|206:333,1,160,8|8,0:0|0:0,0:0:0:0:
121,331,60284,2,0,L|24:315,2,80,2|8|2,0:0|0:0|0:0,0:0:0:0:
209,329,61382,1,8,0:0:0:0:
287,289,61748,6,0,L|462:314,1,160,2|0,0:0|0:0,0:0:0:0:
493,238,62845,1,8,0:0:0:0:
489,150,63211,6,0,P|447:83|370:80,1,160,4|8,0:0|0:0,0:0:0:0:
197,104,64675,2,0,L|157:29,2,80,2|2|8,0:0|0:0|0:0,0:0:0:0:
69,225,66138,6,0,P|110:291|191:291,1,160,2|8,0:0|0:0,0:0:0:0:
347,223,67602,2,0,L|381:299,1,80,2|2,0:0|0:0,0:0:0:0:
458,334,68333,1,8,0:0:0:0:
283,353,69065,6,0,L|214:202,1,160,4|8,0:0|0:0,0:0:0:0:
130,53,70528,2,0,L|47:44,2,80,2|2|8,0:0|0:0|0:0,0:0:0:0:
193,113,71626,1,0,0:0:0:0:
279,127,71992,6,0,P|322:121|353:99,1,80,4|8,0:0|0:0,0:0:0:0:
439,103,72724,2,0,L|424:22,2,80,2|8|2,0:0|0:0|0:0,0:0:0:0:
452,190,73821,1,8,0:0:0:0:
466,276,74187,1,4,0:0:0:0:
295,232,74919,6,0,P|217:221|154:288,1,160,4|2,0:0|0:0,0:0:0:0:
241,303,76016,1,8,0:0:0:0:
328,315,76382,2,0,P|363:293|381:257,1,80,2|8,0:0|0:0,0:0:0:0:
367,172,77114,2,0,L|330:95,1,80,0|8,0:0|0:0,0:0:0:0:
258,52,77845,6,0,P|180:37|94:50,1,160,2|2,0:0|0:0,0:0:0:0:
42,114,78943,1,8,0:0:0:0:
92,186,79309,2,0,P|117:264|85:341,2,160,0|2|4,0:0|0:0|0:0,0:0:0:0:
42,114,81138,5,8,0:0:0:0:
130,113,81504,2,0,P|175:118|212:140,1,80,2|8,0:0|0:0,0:0:0:0:
235,217,82236,2,0,P|249:297|325:330,1,160,0|2,0:0|0:0,0:0:0:0:
460,232,83699,6,0,P|389:203|315:248,1,160,4|0,0:0|0:0,0:0:0:0:
269,312,84797,1,8,0:0:0:0:
229,233,85163,2,0,L|146:186,2,80,0|8|0,0:0|0:0|0:0,0:0:0:0:
282,162,86260,1,8,0:0:0:0:
261,76,86626,6,0,P|338:90|372:165,1,160,4|2,0:0|0:0,0:0:0:0:
369,246,87724,1,8,0:0:0:0:
357,332,88089,2,0,L|269:322,1,80,2|8,0:0|0:0,0:0:0:0:
196,286,88821,2,0,L|96:299,1,80,2|8,0:0|0:0,0:0:0:0:
52,235,89553,6,0,P|42:156|54:75,1,160,2|2,0:0|0:0,0:0:0:0:
131,37,90650,1,8,0:0:0:0:
209,77,91016,2,0,P|290:95|368:73,1,160,2|2,0:0|0:0,0:0:0:0:
472,213,92480,6,0,P|391:195|313:217,1,160,4|2,0:0|0:0,0:0:0:0:
259,279,93577,1,8,0:0:0:0:
312,349,93943,2,0,P|356:365|394:364,1,80,2|8,0:0|0:0,0:0:0:0:
454,306,94675,2,0,P|473:225|453:147,1,160,0|4,0:0|0:0,0:0:0:0:
396,86,95772,5,8,0:0:0:0:
308,98,96138,2,0,P|264:101|221:84,1,80,4|8,0:0|0:0,0:0:0:0:
144,108,96870,2,0,L|93:41,2,80,4|0|0,0:0|0:0|0:0,0:0:0:0:
194,180,97967,1,8,0:0:0:0:
244,252,98333,6,0,P|322:237|380:176,1,160,4|2,0:0|0:0,0:0:0:0:
383,93,99431,1,8,0:0:0:0:
458,139,99797,2,0,L|482:222,2,80,2|8|2,0:0|0:0|0:0,0:0:0:0:
456,315,101260,6,0,P|377:331|305:301,1,160,2|2,0:0|0:0,0:0:0:0:
231,253,102358,1,8,0:0:0:0:
220,165,102724,2,0,L|260:93,2,80,2|8|2,0:0|0:0|0:0,0:0:0:0:
149,218,103821,1,8,0:0:0:0:
154,305,104187,6,0,P|223:346|294:322,1,160,4|2,0:0|0:0,0:0:0:0:
347,252,105284,1,8,0:0:0:0:
380,170,105650,2,0,L|409:94,1,80,2|8,0:0|0:0,0:0:0:0:
340,39,106382,2,0,L|311:115,1,80,2|8,0:0|0:0,0:0:0:0:
256,192,107114,12,0,108577,0:0:0:0:
105,91,110041,6,0,L|183:73,1,80,4|8,0:0|0:0,0:0:0:0:
270,58,110772,2,0,P|299:131|247:197,1,160,2|2,0:0|0:0,0:0:0:0:
175,228,111870,1,8,0:0:0:0:
92,198,112236,2,0,L|14:173,1,80,2|8,0:0|0:0,0:0:0:0:
42,89,112967,6,0,L|202:137,1,160,4|2,0:0|0:0,0:0:0:0:
280,111,114065,1,8,0:0:0:0:
348,56,114431,2,0,P|387:44|436:45,2,80,2|8|2,0:0|0:0|0:0,0:0:0:0:
362,142,115528,1,8,0:0:0:0:
328,223,115894,6,0,P|407:222|450:157,2,160,2|0|0,0:0|0:0|0:0,0:0:0:0:
164,158,118089,2,0,P|125:148|78:156,1,80,2|8,0:0|0:0,0:0:0:0:
47,232,118821,6,0,P|62:313|136:339,2,160,0|2|0,0:0|0:0|0:0,0:0:0:0:
131,255,120650,1,8,0:0:0:0:
174,178,121016,2,0,P|175:139|158:99,1,80,0|8,0:0|0:0,0:0:0:0:
218,35,121748,6,0,L|374:117,1,160,4|8,0:0|0:0,0:0:0:0:
381,284,123211,2,0,L|452:243,2,80,2|2|8,0:0|0:0|0:0,0:0:0:0:
220,210,124675,6,0,P|140:218|97:297,1,160,2|8,0:0|0:0,0:0:0:0:
271,312,126138,2,0,P|301:339|343:343,1,80,2|2,0:0|0:0,0:0:0:0:
420,308,126870,1,8,0:0:0:0:
406,132,127602,6,0,P|439:156|458:193,2,80,2|2|8,0:0|0:0|0:0,0:0:0:0:
231,158,129065,2,0,P|150:164|98:112,1,160,2|2,0:0|0:0,0:0:0:0:
89,23,130163,1,8,0:0:0:0:
175,38,130528,6,0,P|256:49|337:37,2,160,2|8|2,0:0|0:0|0:0,0:0:0:0:
96,77,132358,1,8,0:0:0:0:
95,165,132724,1,4,0:0:0:0:
248,250,133455,6,0,P|326:239|389:306,1,160,4|2,0:0|0:0,0:0:0:0:
302,321,134552,1,8,0:0:0:0:
215,333,134918,2,0,P|180:311|162:275,1,80,2|8,0:0|0:0,0:0:0:0:
176,190,135650,2,0,L|213:113,1,80,0|8,0:0|0:0,0:0:0:0:
285,70,136382,6,0,P|363:55|449:68,1,160,2|2,0:0|0:0,0:0:0:0:
501,132,137479,1,8,0:0:0:0:
451,204,137845,2,0,P|426:282|458:359,2,160,0|2|4,0:0|0:0|0:0,0:0:0:0:
501,132,139674,5,8,0:0:0:0:
413,131,140040,2,0,P|368:136|331:158,1,80,2|8,0:0|0:0,0:0:0:0:
308,235,140772,2,0,P|294:315|218:348,1,160,0|2,0:0|0:0,0:0:0:0:
83,250,142235,6,0,P|154:221|228:266,1,160,4|0,0:0|0:0,0:0:0:0:
274,330,143333,1,8,0:0:0:0:
314,251,143699,2,0,L|397:204,2,80,0|8|0,0:0|0:0|0:0,0:0:0:0:
261,180,144796,1,8,0:0:0:0:
282,94,145162,6,0,P|205:108|171:183,1,160,4|2,0:0|0:0,0:0:0:0:
174,264,146260,1,8,0:0:0:0:
186,350,146626,2,0,L|274:340,1,80,2|8,0:0|0:0,0:0:0:0:
347,304,147358,2,0,L|447:317,1,80,2|8,0:0|0:0,0:0:0:0:
491,253,148089,6,0,P|501:174|489:93,1,160,2|2,0:0|0:0,0:0:0:0:
412,55,149186,1,8,0:0:0:0:
334,95,149552,2,0,P|253:113|175:91,1,160,2|2,0:0|0:0,0:0:0:0:
71,231,151016,6,0,P|152:213|230:235,1,160,4|2,0:0|0:0,0:0:0:0:
284,297,152113,1,8,0:0:0:0:
210,345,152479,2,0,P|166:361|128:360,1,80,2|8,0:0|0:0,0:0:0:0:
68,302,153211,2,0,P|49:221|69:143,1,160,0|4,0:0|0:0,0:0:0:0:
147,113,154308,5,8,0:0:0:0:
235,116,154675,2,0,P|279:119|322:102,1,80,4|8,0:0|0:0,0:0:0:0:
399,126,155406,2,0,L|450:59,2,80,4|8|0,0:0|0:0|0:0,0:0:0:0:
349,198,156503,1,8,0:0:0:0:
291,264,156870,1,4,0:0:0:0:
117,160,168943,6,0,P|190:199|270:170,2,160,4|8|8,0:0|0:0|0:0,0:0:0:0:
94,74,170772,2,0,L|15:129,2,80,0|8|0,0:0|0:0|0:0,0:0:0:0:
170,30,171870,5,8,0:0:0:0:
248,69,172236,2,0,P|291:83|330:71,1,80,2|8,0:0|0:0,0:0:0:0:
402,34,172967,2,0,P|450:97|439:176,1,160
389,245,174065,1,8,0:0:0:0:
309,283,174431,6,0,P|306:327|323:359,2,80,4|8|2,0:0|0:0|0:0,0:0:0:0:
316,195,175528,1,8,0:0:0:0:
245,142,175894,2,0,P|165:130|104:177,1,160
83,260,176992,1,8,0:0:0:0:
134,331,177358,6,0,P|214:354|280:318,1,160,4|2,0:0|0:0,0:0:0:0:
324,244,178455,1,8,0:0:0:0:
382,177,178821,2,0,L|458:204,2,80,0|8|2,0:0|0:0|0:0,0:0:0:0:
298,147,179919,1,8,0:0:0:0:
214,120,180284,6,0,L|56:75,2,160,4|8|8,0:0|0:0|0:0,0:0:0:0:
256,197,182114,1,8,0:0:0:0:
180,241,182480,2,0,L|94:218,1,80,0|8,0:0|0:0,0:0:0:0:
276,193,186138,6,0,P|357:172|391:107,1,160,4|2,0:0|0:0,0:0:0:0:
349,30,187236,1,0,0:0:0:0:
263,50,187602,2,0,P|185:69|105:45,1,160,0|8,0:0|0:0,0:0:0:0:
147,219,189065,6,0,P|134:296|61:328,2,160,4|0|0,0:0|0:0|0:0,0:0:0:0:
44,76,191260,1,8,0:0:0:0:
199,158,191992,6,0,P|277:184|353:157,1,160,4|0,0:0|0:0,0:0:0:0:
426,119,193089,1,0,0:0:0:0:
433,206,193455,2,0,L|438:302,2,80,0|0|8,1:0|0:0|0:0,0:0:0:0:
310,79,194919,6,0,P|231:95|197:166,1,160,4|4,0:0|0:0,0:0:0:0:
227,243,196016,1,4,0:0:0:0:
283,310,196382,2,0,P|324:306|358:287,2,80,0|0|4,0:0|0:0|1:0,0:0:0:0:
264,134,197845,6,0,P|186:145|123:78,1,160,4|2,0:0|0:0,0:0:0:0:
210,63,198942,1,8,0:0:0:0:
297,51,199309,2,0,P|332:73|350:109,1,80,2|8,0:0|0:0,0:0:0:0:
336,194,200040,2,0,L|299:271,1,80,0|8,0:0|0:0,0:0:0:0:
227,314,200772,6,0,P|149:329|63:316,1,160,2|2,0:0|0:0,0:0:0:0:
11,252,201869,1,8,0:0:0:0:
61,180,202235,2,0,P|86:102|54:25,2,160,0|2|4,0:0|0:0|0:0,0:0:0:0:
11,252,204064,5,8,0:0:0:0:
99,253,204431,2,0,P|144:248|181:226,1,80,2|8,0:0|0:0,0:0:0:0:
204,149,205162,2,0,P|218:69|294:36,1,160,0|2,0:0|0:0,0:0:0:0:
429,134,206626,6,0,P|358:163|284:118,1,160,4|4,0:0|0:0,0:0:0:0:
238,54,207723,1,8,0:0:0:0:
198,133,208089,2,0,L|115:180,2,80,4|8|2,0:0|0:0|0:0,0:0:0:0:
251,204,209186,1,8,0:0:0:0:
275,288,209553,1,4,0:0:0:0:
