osu file format v14

[General]
AudioFilename: rin.mp3
AudioLeadIn: 0
PreviewTime: 16875
Countdown: 0
SampleSet: Soft
StackLeniency: 0.7
Mode: 0
LetterboxInBreaks: 1
WidescreenStoryboard: 1

[Editor]
DistanceSpacing: 1.5
BeatDivisor: 4
GridSize: 4
TimelineZoom: 1

[Metadata]
Title:Haigoku no Roa
TitleUnicode:廃獄のロア
Artist:Matsumoto Sara
ArtistUnicode:秣本瑳羅
Creator:Number5
Version:Normal
Source:Touhou
Tags:Orin th11 Kaenbyou Rin chireiden
BeatmapID:650398
BeatmapSetID:264157

[Difficulty]
HPDrainRate:4
CircleSize:3
OverallDifficulty:4
ApproachRate:3
SliderMultiplier:1
SliderTickRate:1

[Events]
//Background and Video events
0,0,"357803a47ad7249d980c1e4c4f9260ae.jpg",0,0
//Break Periods
2,67700,80122
2,107075,127935
//Storyboard Layer 0 (Background)
//Storyboard Layer 1 (Fail)
//Storyboard Layer 2 (Pass)
//Storyboard Layer 3 (Foreground)
//Storyboard Sound Samples

[TimingPoints]
0,468.75,3,2,2,15,1,0
16875,-100,3,2,2,25,0,1
67500,-100,3,2,2,25,0,0
81562,-100,3,2,2,25,0,1
106875,-100,3,2,2,25,0,0
180649,468.75,3,2,2,25,1,1
231274,-100,3,2,2,25,0,0

[Colours]
Combo1 : 230,220,210
Combo2 : 210,230,220
Combo3 : 210,220,230
Combo4 : 230,230,210
Combo5 : 230,190,190

[HitObjects]
64,92,16875,6,0,P|152:64|244:124,1,200,0|2,0:0|0:0,0:0:0:0:
184,260,18281,2,0,P|152:232|148:160,2,100,0|0|2,0:0|0:0|0:0,0:0:0:0:
328,260,19687,6,0,P|360:232|364:160,1,100
352,104,20390,2,0,L|288:124,1,50,0|2,0:0|0:0,0:0:0:0:
180,32,21093,2,0,P|148:60|144:132,1,100
156,188,21796,2,0,L|220:168,1,50,0|2,0:0|0:0,0:0:0:0:
308,280,22500,6,0,P|228:292|208:312,2,100,0|0|2,0:0|0:0|0:0,0:0:0:0:
308,128,23906,2,0,P|228:116|208:96,2,100,0|0|2,0:0|0:0|0:0,0:0:0:0:
440,196,25312,6,0,L|424:92,1,100
352,108,26015,2,0,P|316:128|284:128,1,50,0|2,0:0|0:0,0:0:0:0:
160,116,26718,2,0,L|176:12,1,100
248,28,27421,2,0,P|284:48|316:48,1,50,0|2,0:0|0:0,0:0:0:0:
216,180,28125,6,0,P|144:200|104:180,2,100,0|0|2,0:0|0:0|0:0,0:0:0:0:
296,308,29531,2,0,P|368:288|408:308,2,100,0|0|2,0:0|0:0|0:0,0:0:0:0:
164,384,30937,6,0,P|138:335|136:280,1,100
196,244,31640,2,0,P|192:200|184:180,1,50,0|2,0:0|0:0,0:0:0:0:
272,320,32343,2,0,P|297:271|300:216,1,100
340,164,33046,2,0,L|364:156|400:144,1,50,0|2,0:0|0:0,0:0:0:0:
256,72,33750,6,0,P|176:80|144:68,1,100
84,56,34453,2,0,P|88:104|100:124,1,50,0|2,0:0|0:0,0:0:0:0:
64,252,35156,2,0,B|116:244|116:244|176:252,2,100,0|0|2,0:0|0:0|0:0,0:0:0:0:
184,340,36562,6,0,P|244:308|232:184,1,200
200,44,37968,2,0,P|140:76|152:200,1,200
296,184,39375,6,0,L|192:120,2,100,0|0|2,0:0|0:0|0:0,0:0:0:0:
440,140,40781,2,0,L|448:204,5,50,0|0|0|0|2|0,0:0|0:0|0:0|0:0|0:0|0:0,0:0:0:0:
400,248,42187,6,0,B|292:264|292:264|244:248|232:192,1,200,0|2,0:0|0:0,0:0:0:0:
204,52,43593,2,0,L|140:48,2,50
268,92,44296,2,0,L|336:100,1,50,0|2,0:0|0:0,0:0:0:0:
232,220,45000,6,0,P|172:204|80:292,1,200,0|2,0:0|0:0,0:0:0:0:
228,308,46406,2,0,P|288:324|380:236,1,200,0|2,0:0|0:0,0:0:0:0:
352,168,47578,6,0,L|332:104,1,50
196,72,48281,1,0,0:0:0:0:
92,180,48750,2,0,L|108:248,1,50,2|0,0:0|0:0,0:0:0:0:
116,304,49218,2,0,P|200:304|232:320,2,100,0|0|2,0:0|0:0|0:0,0:0:0:0:
196,176,50625,6,0,P|212:128|256:100,1,100
276,176,51328,2,0,L|336:208,1,50
184,264,52031,2,0,P|224:292|239:338,1,100
159,338,52734,2,0,L|99:370,1,50
60,220,53437,6,0,L|68:148,1,50
124,124,53906,2,0,P|176:132|240:128,1,100,0|2,0:0|0:0,0:0:0:0:
372,156,54843,2,0,L|384:88,2,50
308,192,55546,2,0,L|296:260,2,50,0|2|0,0:0|0:0|0:0,0:0:0:0:
236,164,56250,6,0,B|192:144|192:144|132:136,1,100
92,196,56953,2,0,L|72:244,1,50,0|2,0:0|0:0,0:0:0:0:
180,348,57656,1,0,0:0:0:0:
320,292,58125,2,0,L|304:240,1,50
376,204,58593,2,0,L|392:256,1,50,2|0,0:0|0:0,0:0:0:0:
464,248,59062,6,0,P|452:180|416:148,1,100
368,116,59765,2,0,L|368:56,2,50,0|2|0,0:0|0:0|0:0,0:0:0:0:
292,116,60468,2,0,P|234:112|184:88,1,100
64,168,61406,1,2,0:0:0:0:
192,244,61875,6,0,P|238:225|287:224,1,100
432,264,62812,1,2,0:0:0:0:
376,124,63281,2,0,B|380:68|380:68|360:8,2,100,0|0|2,0:0|0:0|0:0,0:0:0:0:
256,192,64687,12,0,67500,0:0:0:0:
72,84,81562,6,0,B|120:76|120:76|184:80,1,100
300,156,82500,2,0,L|364:140,2,50,2|0|0,0:0|0:0|0:0,0:0:0:0:
424,244,83437,2,0,L|360:228,2,50,0|0|2,0:0|0:0|0:0,0:0:0:0:
300,156,84375,6,0,P|212:152|188:168,1,100
132,172,85078,2,0,L|144:240,1,50,0|2,0:0|0:0,0:0:0:0:
264,308,85781,2,0,P|352:312|376:296,1,100
432,292,86484,2,0,L|420:224,1,50,0|2,0:0|0:0,0:0:0:0:
384,100,87187,6,0,P|288:80|168:96,1,200,0|2,0:0|0:0,0:0:0:0:
116,220,88593,2,0,P|168:236|236:232,2,100,0|0|2,0:0|0:0|0:0,0:0:0:0:
208,336,90000,6,0,P|288:316|320:296,1,100
332,236,90703,2,0,P|364:232|404:236,1,50
356,84,91406,2,0,P|276:104|244:124,1,100
232,184,92109,2,0,P|200:188|160:184,1,50
80,76,92812,6,0,B|64:176|64:176|76:288,1,200,0|2,0:0|0:0,0:0:0:0:
204,352,94218,2,0,B|220:252|220:252|208:140,1,200,0|2,0:0|0:0,0:0:0:0:
336,72,95625,6,0,L|452:56,1,100
456,132,96328,2,0,P|464:176|464:204,1,50,0|2,0:0|0:0,0:0:0:0:
332,248,97031,2,0,L|216:264,1,100
212,188,97734,2,0,P|204:144|204:116,1,50,0|2,0:0|0:0,0:0:0:0:
80,56,98437,6,0,P|72:124|88:172,1,100
104,224,99140,2,0,L|40:232,2,50,0|2|0,0:0|0:0|0:0,0:0:0:0:
128,296,99843,2,0,B|180:288|180:288|244:296,2,100,0|0|2,0:0|0:0|0:0,0:0:0:0:
160,148,101250,6,0,L|376:164,1,200,0|2,0:0|0:0,0:0:0:0:
420,300,102656,1,0,0:0:0:0:
272,288,103125,2,0,L|204:272,1,50
192,348,103593,2,0,L|260:364,1,50,2|0,0:0|0:0,0:0:0:0:
256,192,104062,12,0,106875,0:0:0:0:
76,88,129375,6,0,P|124:120|184:112,1,100
212,264,130312,2,0,L|196:204,2,50
364,256,131250,2,0,L|380:316,1,50
448,256,131718,2,0,L|435:207,1,50
364,168,132187,6,0,B|344:168|320:144|320:144|296:168|256:168,1,100
212,204,132890,2,0,L|144:188,1,50
148,44,133593,2,0,P|256:28|352:52,1,200
396,188,135000,5,0,0:0:0:0:
256,240,135468,2,0,L|232:184,1,50
160,192,135937,2,0,L|140:237,1,50
64,240,136406,2,0,P|52:176|60:128,2,100
184,328,137812,6,0,P|276:304|388:328,1,200
408,176,139218,2,0,P|360:156|328:112,2,100
256,184,140625,6,0,L|192:176,2,50
280,256,141328,2,0,L|329:262,2,50
216,292,142031,6,0,P|212:336|204:360,2,50
132,304,142734,2,0,P|136:260|144:236,2,50
52,268,143437,6,0,P|48:208|32:156,1,100
96,124,144140,2,0,L|164:112,1,50
292,88,144843,2,0,P|388:104|492:88,1,200
464,236,146250,6,0,P|384:244|348:264,1,100
292,264,146953,2,0,L|268:328,2,50
284,188,147656,2,0,P|285:138|302:91,2,100
256,192,149062,12,0,150468,0:0:0:0:
84,72,151875,6,0,P|176:88|288:76,1,200
344,212,153281,2,0,B|336:264|336:264|344:320,2,100
192,212,154687,6,0,B|200:160|200:160|192:104,2,100
44,180,156093,1,0,0:0:0:0:
256,192,157500,12,0,161718,0:0:0:0:
256,192,163125,12,0,167343,0:0:0:0:
256,192,168750,12,0,172968,0:0:0:0:
40,128,174375,6,0,P|140:136|248:132,1,200
324,256,175781,2,0,P|252:252|212:256,2,100
256,192,177187,12,0,183461,0:0:0:0:
112,132,184867,6,0,P|100:192|112:248,2,100,0|0|2,0:0|0:0|0:0,0:0:0:0:
248,68,186274,6,0,P|344:88|456:68,1,200,0|2,0:0|0:0,0:0:0:0:
476,220,187680,2,0,B|468:268|468:268|472:328,2,100,0|0|2,0:0|0:0|0:0,0:0:0:0:
324,224,189086,6,0,P|264:188|220:180,1,100
160,196,189789,2,0,L|136:136,1,50,0|2,0:0|0:0,0:0:0:0:
220,20,190492,2,0,P|160:56|112:56,1,100
56,48,191195,2,0,L|32:108,1,50,0|2,0:0|0:0,0:0:0:0:
64,244,191899,6,0,P|152:304|240:264,1,200,0|2,0:0|0:0,0:0:0:0:
372,216,193305,2,0,P|284:156|196:196,1,200,0|2,0:0|0:0,0:0:0:0:
104,76,194711,6,0,B|152:68|152:68|216:40,1,100
276,52,195414,2,0,L|332:72,1,50,0|2,0:0|0:0,0:0:0:0:
452,148,196117,2,0,B|404:156|404:156|340:184,1,100
280,172,196820,2,0,L|224:152,1,50,0|2,0:0|0:0,0:0:0:0:
104,232,197524,5,0,0:0:0:0:
224,324,197992,2,0,L|240:256,1,50
300,236,198461,2,0,L|364:224,1,50,2|0,0:0|0:0,0:0:0:0:
424,208,198930,2,0,P|452:268|492:304,2,100,0|0|2,0:0|0:0|0:0,0:0:0:0:
308,112,200336,6,0,B|208:104|208:104|104:72,1,200
204,192,201742,2,0,B|304:200|304:200|408:232,1,200
496,116,203149,5,0,0:0:0:0:
348,86,203617,1,0,0:0:0:0:
398,229,204086,1,2,0:0:0:0:
260,292,204555,2,0,P|168:244|60:264,1,200,0|2,0:0|0:0,0:0:0:0:
256,192,205961,12,0,211586,0:0:0:0:
392,128,212992,6,0,P|404:192|396:236,2,100,0|0|2,0:0|0:0|0:0,0:0:0:0:
264,52,214399,6,0,P|168:92|76:48,1,200,0|2,0:0|0:0,0:0:0:0:
104,216,215805,2,0,P|200:176|292:220,1,200,0|2,0:0|0:0,0:0:0:0:
196,300,217211,6,0,P|112:340|0:284,1,225
112,184,218617,2,0,L|96:68,2,100,0|0|2,0:0|0:0|0:0,0:0:0:0:
244,112,220024,6,0,L|348:120,1,100
404,72,220727,2,0,P|428:64|472:64,1,50,0|2,0:0|0:0,0:0:0:0:
448,212,221430,2,0,L|344:204,1,100
288,252,222133,2,0,P|264:260|220:260,1,50,0|2,0:0|0:0,0:0:0:0:
92,296,222836,6,0,L|100:192,1,100
52,136,223539,2,0,P|44:112|44:68,1,50,0|2,0:0|0:0,0:0:0:0:
192,80,224242,2,0,L|304:96,2,100,0|0|2,0:0|0:0|0:0,0:0:0:0:
220,228,225649,6,0,P|312:268|420:224,1,200,0|2,0:0|0:0,0:0:0:0:
464,104,227055,1,0,0:0:0:0:
316,128,227524,2,0,L|320:60,2,50,0|0|2,0:0|0:0|0:0,0:0:0:0:
412,28,228461,6,0,P|320:-12|212:32,1,200,0|2,0:0|0:0,0:0:0:0:
168,152,229867,1,0,0:0:0:0:
316,128,230336,2,0,L|312:196,2,50,0|0|2,0:0|0:0|0:0,0:0:0:0:
464,96,231274,5,2,0:0:0:0:
