osu file format v14

[General]
AudioFilename: rin.mp3
AudioLeadIn: 0
PreviewTime: 16875
Countdown: 0
SampleSet: Soft
StackLeniency: 0.7
Mode: 0
LetterboxInBreaks: 1
WidescreenStoryboard: 1

[Editor]
DistanceSpacing: 1.5
BeatDivisor: 4
GridSize: 4
TimelineZoom: 1

[Metadata]
Title:Haigoku no Roa
TitleUnicode:廃獄のロア
Artist:Matsumoto Sara
ArtistUnicode:秣本瑳羅
Creator:Number5
Version:Easy
Source:Touhou
Tags:Orin th11 Kaenbyou Rin chireiden
BeatmapID:673446
BeatmapSetID:264157

[Difficulty]
HPDrainRate:2
CircleSize:2
OverallDifficulty:2
ApproachRate:1
SliderMultiplier:0.8
SliderTickRate:1

[Events]
//Background and Video events
0,0,"357803a47ad7249d980c1e4c4f9260ae.jpg",0,0
//Break Periods
2,67699,79882
2,106875,126562
//Storyboard Layer 0 (Background)
//Storyboard Layer 1 (Fail)
//Storyboard Layer 2 (Pass)
//Storyboard Layer 3 (Foreground)
//Storyboard Sound Samples

[TimingPoints]
0,468.75,3,2,2,15,1,0
16875,-100,3,2,2,25,0,1
67500,-100,3,2,2,25,0,0
81562,-100,3,2,2,25,0,1
106875,-100,3,2,2,25,0,0
180649,468.75,3,2,2,25,1,1
231274,-100,3,2,2,25,0,0

[Colours]
Combo1 : 230,220,210
Combo2 : 210,230,220
Combo3 : 210,220,230
Combo4 : 230,230,210
Combo5 : 230,190,190

[HitObjects]
68,104,16875,6,0,P|136:84|224:120,1,160,0|2,0:0|0:0,0:0:0:0:
285,212,18281,2,0,P|217:232|129:196,1,160,0|2,0:0|0:0,0:0:0:0:
48,284,19687,6,0,P|124:308|188:368,1,160,0|2,0:0|0:0,0:0:0:0:
300,340,21093,2,0,L|384:320,2,80,0|0|2,0:0|0:0|0:0,0:0:0:0:
212,256,22500,6,0,L|204:92,1,160,0|2,0:0|0:0,0:0:0:0:
324,104,23906,2,0,P|384:112|416:112,2,80,0|0|2,0:0|0:0|0:0,0:0:0:0:
304,224,25312,6,0,P|368:240|400:336,1,160,0|2,0:0|0:0,0:0:0:0:
288,356,26718,2,0,P|224:340|192:244,1,160,0|2,0:0|0:0,0:0:0:0:
92,188,28125,6,0,B|124:112|196:100|196:100|240:172|360:164|360:164|388:100|408:96,1,400,0|2,0:0|0:0,0:0:0:0:
440,216,30937,6,0,P|452:296|440:376,1,160
328,328,32343,2,0,L|232:320,2,80
292,212,33750,6,0,L|116:200,1,160,0|2,0:0|0:0,0:0:0:0:
40,124,35156,2,0,P|32:68|40:36,2,80,0|0|2,0:0|0:0|0:0,0:0:0:0:
152,80,36562,6,0,P|232:64|320:84,1,160,0|2,0:0|0:0,0:0:0:0:
392,164,37968,2,0,P|312:180|224:160,1,160,0|2,0:0|0:0,0:0:0:0:
124,212,39375,6,0,P|116:256|128:308,2,80,0|0|2,0:0|0:0|0:0,0:0:0:0:
236,256,40781,2,0,P|312:248|404:272,1,160,0|2,0:0|0:0,0:0:0:0:
448,160,42187,6,0,B|304:164|232:68|232:68|140:80|104:168,1,400,0|2,0:0|0:0,0:0:0:0:
80,272,45000,6,0,B|108:280|108:280|128:256|128:256|164:292|236:292,1,160,0|2,0:0|0:0,0:0:0:0:
215,171,46406,2,0,P|163:143|63:155,1,160,0|2,0:0|0:0,0:0:0:0:
92,36,47812,6,0,B|200:24|284:92|284:92|356:24|476:48,1,400,0|2,0:0|0:0,0:0:0:0:
480,164,50625,6,0,L|492:256,2,80,0|0|2,0:0|0:0|0:0,0:0:0:0:
376,228,52031,2,0,L|364:136,2,80,0|0|2,0:0|0:0|0:0,0:0:0:0:
268,280,53437,6,0,P|176:304|144:72,1,400,0|2,0:0|0:0,0:0:0:0:
252,96,56250,6,0,P|344:104|416:80,1,160,0|2,0:0|0:0,0:0:0:0:
452,196,57656,2,0,P|360:188|288:212,1,160,0|2,0:0|0:0,0:0:0:0:
176,224,59062,6,0,L|88:196,2,80,0|0|2,0:0|0:0|0:0,0:0:0:0:
272,300,60468,2,0,P|296:216|272:140,1,160,0|2,0:0|0:0,0:0:0:0:
256,28,61875,6,0,B|336:44|336:44|424:28,1,160,0|2,0:0|0:0,0:0:0:0:
452,144,63281,2,0,B|372:128|372:128|284:144,1,160,0|2,0:0|0:0,0:0:0:0:
192,204,64687,6,0,P|116:216|36:184,1,160,0|2,0:0|0:0,0:0:0:0:
120,96,66093,2,0,P|196:84|212:84,1,80
320,84,67031,2,0,P|359:87|398:96,1,80,2|0,0:0|0:0,0:0:0:0:
68,112,81562,6,0,P|140:124|216:80,1,160,0|2,0:0|0:0,0:0:0:0:
332,96,82968,2,0,L|336:184,2,80,0|0|2,0:0|0:0|0:0,0:0:0:0:
448,68,84375,6,0,P|472:144|472:232,1,160,0|2,0:0|0:0,0:0:0:0:
376,296,85781,2,0,B|296:316|296:316|216:296,1,160,0|2,0:0|0:0,0:0:0:0:
104,264,87187,6,0,P|112:184|104:92,1,160,0|2,0:0|0:0,0:0:0:0:
216,56,88593,2,0,P|224:120|236:144,2,80,0|0|2,0:0|0:0|0:0,0:0:0:0:
336,72,90000,6,0,P|416:64|504:88,1,160,0|2,0:0|0:0,0:0:0:0:
444,192,91406,2,0,P|364:200|276:176,1,160,0|2,0:0|0:0,0:0:0:0:
212,88,92812,6,0,B|164:152|72:152|72:152|72:224|184:312|232:312,1,400,0|2,0:0|0:0,0:0:0:0:
348,340,95625,6,0,P|336:244|360:172,1,160,0|2,0:0|0:0,0:0:0:0:
452,116,97031,2,0,P|464:212|440:284,1,160,0|2,0:0|0:0,0:0:0:0:
328,252,98437,6,0,B|252:240|252:240|168:256,1,160,0|2,0:0|0:0,0:0:0:0:
56,288,99843,2,0,L|24:368,2,80,0|0|2,0:0|0:0|0:0,0:0:0:0:
12,176,101250,6,0,P|8:96|36:16,1,160,0|2,0:0|0:0,0:0:0:0:
128,92,102656,2,0,P|132:172|104:252,1,160,0|2,0:0|0:0,0:0:0:0:
216,196,104062,6,0,P|292:168|444:232,1,240
56,92,129375,6,0,P|144:72|288:112,1,240
492,304,132187,6,0,P|392:328|332:312,1,160
240,248,133593,2,0,P|161:234|86:258,1,160
44,148,135000,6,0,B|136:132|132:32|132:32|232:192|424:88,1,480
136,336,139218,6,0,P|140:276|132:240,2,80
24,296,140625,6,0,P|24:220|84:152,1,160
188,116,142031,2,0,P|188:192|128:260,1,160
220,344,143437,6,0,P|280:324|376:352,1,160
456,264,144843,2,0,P|431:205|453:107,1,160
336,68,146250,6,0,B|256:168|164:100|164:100|40:172|75:297|75:297|100:272|128:272,1,480
464,196,150468,6,0,P|472:248|464:288,2,80
352,240,151875,6,0,L|188:252,1,160
92,184,153281,2,0,L|84:96,2,80
40,292,154687,6,0,L|47:371,1,80
168,368,155625,2,0,L|175:288,1,80
456,64,157500,6,0,P|256:40|104:176,1,400
60,268,160312,6,0,P|260:292|412:156,1,400
304,104,163125,6,0,L|128:92,1,160
184,208,164531,2,0,L|360:220,1,160
440,292,165937,6,0,P|460:236|432:136,1,160
328,92,167343,2,0,L|232:84,2,80
436,140,168750,6,0,B|380:228|288:200|288:200|228:264|282:334|282:334|188:344,1,400
96,292,171562,6,0,B|144:228|80:136|80:136|148:152|204:88|204:88|240:52|304:68,1,400
404,92,174375,6,0,P|392:176|408:256,1,160
304,312,175781,2,0,L|216:312,2,80
256,192,177187,12,0,180649,0:0:0:0:
88,96,183461,6,0,P|144:120|244:100,1,160,0|2,0:0|0:0,0:0:0:0:
318,13,184867,2,0,P|262:-11|162:9,1,160,0|2,0:0|0:0,0:0:0:0:
88,96,186274,6,0,B|68:176|68:176|80:268,1,160,0|2,0:0|0:0,0:0:0:0:
196,276,187680,2,0,L|196:188,2,80,0|0|2,0:0|0:0|0:0,0:0:0:0:
304,228,189086,6,0,P|320:156|392:116,1,160,0|2,0:0|0:0,0:0:0:0:
424,232,190492,2,0,P|405:307|336:343,1,160,0|2,0:0|0:0,0:0:0:0:
232,284,191899,6,0,P|160:240|32:320,1,240
276,44,194711,6,0,B|292:124|292:124|280:220,1,160,0|2,0:0|0:0,0:0:0:0:
396,240,196117,2,0,B|380:160|380:160|392:64,1,160,0|2,0:0|0:0,0:0:0:0:
476,168,197524,6,0,P|504:228|464:324,1,160,0|2,0:0|0:0,0:0:0:0:
356,320,198930,2,0,L|264:324,2,80,0|0|2,0:0|0:0|0:0,0:0:0:0:
324,204,200336,6,0,P|248:188|208:108,1,160,0|2,0:0|0:0,0:0:0:0:
324,84,201742,2,0,P|400:100|440:180,1,160,0|2,0:0|0:0,0:0:0:0:
456,288,203149,6,0,B|412:284|376:308|376:308|340:296|316:248,1,160
228,184,204555,2,0,L|144:188,2,80,0|0|2,0:0|0:0|0:0,0:0:0:0:
168,80,205961,6,0,B|300:40|372:168|372:168|300:232|348:328|348:328|212:236|105:341|105:341|72:324,1,720
52,208,210649,6,0,B|60:120|60:124,1,80,0|2,0:0|0:0,0:0:0:0:
148,48,211586,6,0,P|336:120|516:44,1,400,0|2,0:0|0:0,0:0:0:0:
488,168,214399,6,0,L|472:256,2,80,0|0|2,0:0|0:0|0:0,0:0:0:0:
372,192,215805,2,0,L|388:104,2,80,0|0|2,0:0|0:0|0:0,0:0:0:0:
272,256,217211,6,0,B|136:256|120:120|120:120|224:168|284:96,1,400,0|2,0:0|0:0,0:0:0:0:
384,44,220024,6,0,P|420:112|412:208,1,160,0|2,0:0|0:0,0:0:0:0:
336,284,221430,2,0,P|300:216|308:120,1,160,0|2,0:0|0:0,0:0:0:0:
208,60,222836,6,0,L|48:92,1,160,0|2,0:0|0:0,0:0:0:0:
48,212,224242,2,0,P|40:272|40:304,2,80,0|0|2,0:0|0:0|0:0,0:0:0:0:
156,268,225649,6,0,P|232:280|332:268,1,160,0|2,0:0|0:0,0:0:0:0:
396,188,227055,2,0,L|404:104,2,80,0|0|2,0:0|0:0|0:0,0:0:0:0:
284,140,228461,6,0,P|208:128|108:140,1,160,0|2,0:0|0:0,0:0:0:0:
44,220,229867,2,0,L|36:304,1,80
152,264,230805,2,0,L|160:348,1,80,2|2,0:0|0:0,0:0:0:0:
