osu file format v14

[General]
AudioFilename: AkitoMatsuda.mp3
AudioLeadIn: 0
PreviewTime: 10938
Countdown: 0
SampleSet: Normal
StackLeniency: 0.7
Mode: 1
LetterboxInBreaks: 0
WidescreenStoryboard: 0

[Editor]
DistanceSpacing: 0.5
BeatDivisor: 4
GridSize: 32
TimelineZoom: 2.599999

[Metadata]
Title:After After
TitleUnicode:アフターアフター
Artist:Matsuda Akito
ArtistUnicode:松田彬人
Creator:Franklin_DeJavu
Version:yzrin's Inner Oni
Source:ディーふらぐ!
Tags:ゲーム製作部CD(仮)~サントラ② game seisakubu cd (kari) ~ sound track 2 d-frag d-fragments fdjv yuzu__rinrin tyistiana
BeatmapID:1448201
BeatmapSetID:682326

[Difficulty]
HPDrainRate:6
CircleSize:3
OverallDifficulty:6
ApproachRate:9
SliderMultiplier:1.4
SliderTickRate:1

[Events]
//Background and Video events
0,0,"BG.png",0,0
//Break Periods
//Storyboard Layer 0 (Background)
//Storyboard Layer 1 (Fail)
//Storyboard Layer 2 (Pass)
//Storyboard Layer 3 (Foreground)
//Storyboard Sound Samples

[TimingPoints]
560,324.324324324324,4,1,0,57,1,0
42073,-100,4,1,0,57,0,1
62830,-100,4,1,0,57,0,0
83587,-100,4,1,0,57,0,1
85208,-100,4,1,0,57,0,0

[HitObjects]
256,192,560,5,0,0:0:0:0:
256,192,722,1,8,0:0:0:0:
256,192,803,1,8,0:0:0:0:
256,192,884,1,8,0:0:0:0:
256,192,1046,1,8,0:0:0:0:
256,192,1370,1,8,0:0:0:0:
256,192,1532,1,0,0:0:0:0:
256,192,1695,1,8,0:0:0:0:
256,192,2019,1,8,0:0:0:0:
256,192,2181,1,0,0:0:0:0:
256,192,2343,1,8,0:0:0:0:
256,192,2668,1,0,0:0:0:0:
256,192,2830,1,8,0:0:0:0:
256,192,2992,1,8,0:0:0:0:
256,192,3316,1,8,0:0:0:0:
256,192,3478,1,0,0:0:0:0:
256,192,3641,1,8,0:0:0:0:
256,192,3965,1,8,0:0:0:0:
256,192,4127,1,0,0:0:0:0:
256,192,4289,1,0,0:0:0:0:
256,192,4451,1,8,0:0:0:0:
256,192,4614,1,0,0:0:0:0:
256,192,4695,1,0,0:0:0:0:
256,192,4776,1,8,0:0:0:0:
256,192,5749,1,0,0:0:0:0:
256,192,5911,1,8,0:0:0:0:
256,192,5992,1,8,0:0:0:0:
256,192,6073,1,8,0:0:0:0:
256,192,6235,1,8,0:0:0:0:
256,192,6559,1,8,0:0:0:0:
256,192,6722,1,0,0:0:0:0:
256,192,6884,1,8,0:0:0:0:
256,192,7208,1,8,0:0:0:0:
256,192,7370,1,0,0:0:0:0:
256,192,7532,1,8,0:0:0:0:
256,192,7857,1,0,0:0:0:0:
256,192,8019,1,8,0:0:0:0:
256,192,8181,1,8,0:0:0:0:
256,192,8505,1,8,0:0:0:0:
256,192,8668,1,0,0:0:0:0:
256,192,8830,1,8,0:0:0:0:
256,192,9154,1,8,0:0:0:0:
256,192,9316,1,0,0:0:0:0:
256,192,9478,1,0,0:0:0:0:
256,192,9641,1,8,0:0:0:0:
256,192,9803,1,0,0:0:0:0:
256,192,9884,1,0,0:0:0:0:
256,192,9965,1,8,0:0:0:0:
256,192,10614,1,8,0:0:0:0:
256,192,10695,1,8,0:0:0:0:
256,192,10776,1,8,0:0:0:0:
256,192,10938,1,4,0:0:0:0:
256,192,11100,1,0,0:0:0:0:
256,192,11181,1,0,0:0:0:0:
256,192,11262,1,8,0:0:0:0:
256,192,11424,1,8,0:0:0:0:
256,192,11587,1,0,0:0:0:0:
256,192,11749,1,8,0:0:0:0:
256,192,11911,1,8,0:0:0:0:
256,192,11992,1,0,0:0:0:0:
256,192,12073,1,8,0:0:0:0:
256,192,12235,1,0,0:0:0:0:
256,192,12397,1,0,0:0:0:0:
256,192,12478,1,0,0:0:0:0:
256,192,12559,1,8,0:0:0:0:
256,192,12722,1,8,0:0:0:0:
256,192,12884,1,0,0:0:0:0:
256,192,12965,1,0,0:0:0:0:
256,192,13046,1,8,0:0:0:0:
256,192,13127,1,0,0:0:0:0:
256,192,13208,1,8,0:0:0:0:
256,192,13370,1,8,0:0:0:0:
256,192,13532,1,0,0:0:0:0:
256,192,13695,1,8,0:0:0:0:
256,192,13776,1,0,0:0:0:0:
256,192,13857,1,8,0:0:0:0:
256,192,14019,1,8,0:0:0:0:
256,192,14181,1,0,0:0:0:0:
256,192,14262,1,0,0:0:0:0:
256,192,14343,1,8,0:0:0:0:
256,192,14505,1,8,0:0:0:0:
256,192,14668,1,8,0:0:0:0:
256,192,14749,1,8,0:0:0:0:
256,192,14830,1,0,0:0:0:0:
256,192,14992,1,0,0:0:0:0:
256,192,15154,1,8,0:0:0:0:
256,192,15316,1,0,0:0:0:0:
256,192,15641,1,0,0:0:0:0:
256,192,15803,1,8,0:0:0:0:
256,192,15965,1,8,0:0:0:0:
256,192,16046,1,8,0:0:0:0:
256,192,16127,1,0,0:0:0:0:
256,192,16289,1,0,0:0:0:0:
256,192,16370,1,0,0:0:0:0:
256,192,16451,1,8,0:0:0:0:
256,192,16613,1,8,0:0:0:0:
256,192,16776,1,0,0:0:0:0:
256,192,16938,1,8,0:0:0:0:
256,192,17100,1,8,0:0:0:0:
256,192,17181,1,0,0:0:0:0:
256,192,17262,1,8,0:0:0:0:
256,192,17424,1,0,0:0:0:0:
256,192,17586,1,0,0:0:0:0:
256,192,17667,1,0,0:0:0:0:
256,192,17748,1,8,0:0:0:0:
256,192,17911,1,8,0:0:0:0:
256,192,18073,1,0,0:0:0:0:
256,192,18154,1,0,0:0:0:0:
256,192,18235,1,8,0:0:0:0:
256,192,18316,1,0,0:0:0:0:
256,192,18397,1,8,0:0:0:0:
256,192,18559,1,8,0:0:0:0:
256,192,18721,1,0,0:0:0:0:
256,192,18884,1,8,0:0:0:0:
256,192,18965,1,0,0:0:0:0:
256,192,19046,1,8,0:0:0:0:
256,192,19208,1,8,0:0:0:0:
256,192,19370,1,0,0:0:0:0:
256,192,19451,1,0,0:0:0:0:
256,192,19532,1,8,0:0:0:0:
256,192,19694,1,8,0:0:0:0:
256,192,19857,1,8,0:0:0:0:
256,192,19938,1,8,0:0:0:0:
256,192,20019,1,0,0:0:0:0:
256,192,20181,1,0,0:0:0:0:
256,192,20343,1,8,0:0:0:0:
256,192,20505,1,0,0:0:0:0:
256,192,20830,1,8,0:0:0:0:
256,192,20911,1,8,0:0:0:0:
256,192,20992,1,8,0:0:0:0:
256,192,21154,1,8,0:0:0:0:
256,192,21316,1,4,0:0:0:0:
256,192,21478,1,0,0:0:0:0:
256,192,21559,1,0,0:0:0:0:
256,192,21641,1,8,0:0:0:0:
256,192,21722,1,0,0:0:0:0:
256,192,21803,1,8,0:0:0:0:
256,192,21884,1,8,0:0:0:0:
256,192,21965,1,0,0:0:0:0:
256,192,22046,1,8,0:0:0:0:
256,192,22127,1,0,0:0:0:0:
256,192,22208,1,0,0:0:0:0:
256,192,22289,1,8,0:0:0:0:
256,192,22451,1,0,0:0:0:0:
256,192,22614,1,0,0:0:0:0:
256,192,22938,1,8,0:0:0:0:
256,192,23100,1,0,0:0:0:0:
256,192,23262,1,0,0:0:0:0:
256,192,23424,1,0,0:0:0:0:
256,192,23505,1,0,0:0:0:0:
256,192,23587,1,8,0:0:0:0:
256,192,23749,1,0,0:0:0:0:
256,192,23911,1,0,0:0:0:0:
256,192,24073,1,0,0:0:0:0:
256,192,24154,1,0,0:0:0:0:
256,192,24236,1,8,0:0:0:0:
256,192,24317,1,0,0:0:0:0:
256,192,24398,1,8,0:0:0:0:
256,192,24479,1,8,0:0:0:0:
256,192,24560,1,0,0:0:0:0:
256,192,24641,1,8,0:0:0:0:
256,192,24722,1,8,0:0:0:0:
256,192,24803,1,0,0:0:0:0:
256,192,24884,1,8,0:0:0:0:
256,192,25046,1,8,0:0:0:0:
256,192,25208,1,0,0:0:0:0:
256,192,25532,1,8,0:0:0:0:
256,192,25695,1,0,0:0:0:0:
256,192,25857,1,0,0:0:0:0:
256,192,26019,1,8,0:0:0:0:
256,192,26100,1,0,0:0:0:0:
256,192,26181,1,8,0:0:0:0:
256,192,26343,1,8,0:0:0:0:
256,192,26505,1,0,0:0:0:0:
256,192,26667,1,0,0:0:0:0:
256,192,26748,1,0,0:0:0:0:
256,192,26830,1,8,0:0:0:0:
256,192,26911,1,0,0:0:0:0:
256,192,26992,1,8,0:0:0:0:
256,192,27073,1,8,0:0:0:0:
256,192,27154,1,0,0:0:0:0:
256,192,27235,1,8,0:0:0:0:
256,192,27316,1,0,0:0:0:0:
256,192,27397,1,0,0:0:0:0:
256,192,27478,1,8,0:0:0:0:
256,192,27640,1,0,0:0:0:0:
256,192,27803,1,0,0:0:0:0:
256,192,28127,1,8,0:0:0:0:
256,192,28289,1,0,0:0:0:0:
256,192,28451,1,0,0:0:0:0:
256,192,28613,1,8,0:0:0:0:
256,192,28694,1,0,0:0:0:0:
256,192,28776,1,8,0:0:0:0:
256,192,28938,1,0,0:0:0:0:
256,192,29100,1,0,0:0:0:0:
256,192,29262,1,0,0:0:0:0:
256,192,29343,1,0,0:0:0:0:
256,192,29425,1,8,0:0:0:0:
256,192,29506,1,0,0:0:0:0:
256,192,29587,1,8,0:0:0:0:
256,192,29668,1,8,0:0:0:0:
256,192,29749,1,0,0:0:0:0:
256,192,29830,1,8,0:0:0:0:
256,192,29911,1,8,0:0:0:0:
256,192,29992,1,0,0:0:0:0:
256,192,30073,1,8,0:0:0:0:
256,192,30235,1,8,0:0:0:0:
256,192,30397,1,0,0:0:0:0:
256,192,30721,1,8,0:0:0:0:
256,192,31046,1,8,0:0:0:0:
256,192,31127,1,8,0:0:0:0:
256,192,31208,1,8,0:0:0:0:
256,192,31289,1,8,0:0:0:0:
256,192,31370,1,0,0:0:0:0:
256,192,31695,1,4,0:0:0:0:
256,192,31857,1,0,0:0:0:0:
256,192,31938,1,0,0:0:0:0:
256,192,32019,1,8,0:0:0:0:
256,192,32181,1,8,0:0:0:0:
256,192,32344,1,0,0:0:0:0:
256,192,32506,1,8,0:0:0:0:
256,192,32668,1,8,0:0:0:0:
256,192,32749,1,0,0:0:0:0:
256,192,32830,1,8,0:0:0:0:
256,192,32992,1,0,0:0:0:0:
256,192,33154,1,0,0:0:0:0:
256,192,33235,1,0,0:0:0:0:
256,192,33316,1,8,0:0:0:0:
256,192,33479,1,8,0:0:0:0:
256,192,33641,1,0,0:0:0:0:
256,192,33722,1,0,0:0:0:0:
256,192,33803,1,8,0:0:0:0:
256,192,33884,1,0,0:0:0:0:
256,192,33965,1,8,0:0:0:0:
256,192,34127,1,8,0:0:0:0:
256,192,34289,1,0,0:0:0:0:
256,192,34452,1,8,0:0:0:0:
256,192,34533,1,0,0:0:0:0:
256,192,34614,1,8,0:0:0:0:
256,192,34776,1,8,0:0:0:0:
256,192,34938,1,0,0:0:0:0:
256,192,35019,1,0,0:0:0:0:
256,192,35100,1,8,0:0:0:0:
256,192,35262,1,8,0:0:0:0:
256,192,35425,1,8,0:0:0:0:
256,192,35506,1,8,0:0:0:0:
256,192,35587,1,0,0:0:0:0:
256,192,35749,1,0,0:0:0:0:
256,192,35911,1,8,0:0:0:0:
256,192,36073,1,0,0:0:0:0:
256,192,36398,1,0,0:0:0:0:
256,192,36560,1,8,0:0:0:0:
256,192,36722,1,8,0:0:0:0:
256,192,36803,1,8,0:0:0:0:
256,192,36884,1,0,0:0:0:0:
256,192,37046,1,0,0:0:0:0:
256,192,37127,1,0,0:0:0:0:
256,192,37208,1,8,0:0:0:0:
256,192,37370,1,8,0:0:0:0:
256,192,37533,1,0,0:0:0:0:
256,192,37695,1,8,0:0:0:0:
256,192,37857,1,8,0:0:0:0:
256,192,37938,1,0,0:0:0:0:
256,192,38019,1,8,0:0:0:0:
256,192,38181,1,0,0:0:0:0:
256,192,38343,1,0,0:0:0:0:
256,192,38424,1,0,0:0:0:0:
256,192,38505,1,8,0:0:0:0:
256,192,38668,1,8,0:0:0:0:
256,192,38830,1,0,0:0:0:0:
256,192,38911,1,0,0:0:0:0:
256,192,38992,1,8,0:0:0:0:
256,192,39073,1,0,0:0:0:0:
256,192,39154,1,8,0:0:0:0:
256,192,39316,1,8,0:0:0:0:
256,192,39478,1,0,0:0:0:0:
256,192,39641,1,8,0:0:0:0:
256,192,39722,1,0,0:0:0:0:
256,192,39803,1,8,0:0:0:0:
256,192,39965,1,8,0:0:0:0:
256,192,40127,1,0,0:0:0:0:
256,192,40208,1,0,0:0:0:0:
256,192,40289,1,8,0:0:0:0:
256,192,40451,1,8,0:0:0:0:
256,192,40614,1,8,0:0:0:0:
256,192,40695,1,8,0:0:0:0:
256,192,40776,1,0,0:0:0:0:
256,192,40938,1,0,0:0:0:0:
256,192,41100,1,8,0:0:0:0:
256,192,41262,1,0,0:0:0:0:
256,192,41424,1,0,0:0:0:0:
256,192,41505,1,8,0:0:0:0:
256,192,41587,1,0,0:0:0:0:
256,192,41668,1,0,0:0:0:0:
256,192,41749,1,8,0:0:0:0:
256,192,41830,1,0,0:0:0:0:
256,192,41911,1,8,0:0:0:0:
256,192,42073,1,4,0:0:0:0:
256,192,42235,1,4,0:0:0:0:
256,192,42397,1,12,0:0:0:0:
256,192,42722,1,4,0:0:0:0:
256,192,42884,1,4,0:0:0:0:
256,192,43046,1,12,0:0:0:0:
256,192,43370,1,12,0:0:0:0:
256,192,43532,1,12,0:0:0:0:
256,192,43695,1,12,0:0:0:0:
256,192,44019,1,8,0:0:0:0:
256,192,44100,1,0,0:0:0:0:
256,192,44181,1,8,0:0:0:0:
256,192,44262,1,0,0:0:0:0:
256,192,44343,1,8,0:0:0:0:
256,192,44505,1,8,0:0:0:0:
256,192,44668,1,4,0:0:0:0:
256,192,44830,1,4,0:0:0:0:
256,192,44992,1,12,0:0:0:0:
256,192,45317,1,4,0:0:0:0:
256,192,45479,1,4,0:0:0:0:
256,192,45641,1,12,0:0:0:0:
256,192,45965,1,12,0:0:0:0:
256,192,46127,1,12,0:0:0:0:
256,192,46290,1,12,0:0:0:0:
256,192,46614,1,0,0:0:0:0:
256,192,46695,1,8,0:0:0:0:
256,192,46776,1,0,0:0:0:0:
256,192,46857,1,8,0:0:0:0:
256,192,46938,1,0,0:0:0:0:
256,192,47100,1,8,0:0:0:0:
256,192,47262,1,4,0:0:0:0:
256,192,47424,1,4,0:0:0:0:
256,192,47587,1,12,0:0:0:0:
256,192,47911,1,12,0:0:0:0:
256,192,48073,1,4,0:0:0:0:
256,192,48235,1,12,0:0:0:0:
256,192,48559,1,12,0:0:0:0:
256,192,48722,1,12,0:0:0:0:
256,192,48884,1,12,0:0:0:0:
256,192,49208,1,8,0:0:0:0:
256,192,49289,1,0,0:0:0:0:
256,192,49370,1,8,0:0:0:0:
256,192,49451,1,0,0:0:0:0:
256,192,49532,1,8,0:0:0:0:
256,192,49695,1,8,0:0:0:0:
256,192,49857,1,4,0:0:0:0:
256,192,50019,1,4,0:0:0:0:
256,192,50181,1,12,0:0:0:0:
256,192,50505,1,12,0:0:0:0:
256,192,50668,1,4,0:0:0:0:
256,192,50830,1,12,0:0:0:0:
256,192,51154,1,12,0:0:0:0:
256,192,51316,1,12,0:0:0:0:
256,192,51478,1,12,0:0:0:0:
256,192,51803,1,0,0:0:0:0:
256,192,51884,1,8,0:0:0:0:
256,192,51965,1,0,0:0:0:0:
256,192,52046,1,8,0:0:0:0:
256,192,52127,1,0,0:0:0:0:
256,192,52289,1,8,0:0:0:0:
256,192,52451,1,4,0:0:0:0:
256,192,52613,1,4,0:0:0:0:
256,192,52775,1,12,0:0:0:0:
256,192,53100,1,4,0:0:0:0:
256,192,53262,1,4,0:0:0:0:
256,192,53424,1,12,0:0:0:0:
256,192,53748,1,12,0:0:0:0:
256,192,53910,1,12,0:0:0:0:
256,192,54073,1,12,0:0:0:0:
256,192,54397,1,8,0:0:0:0:
256,192,54478,1,0,0:0:0:0:
256,192,54559,1,8,0:0:0:0:
256,192,54640,1,0,0:0:0:0:
256,192,54721,1,8,0:0:0:0:
256,192,54883,1,8,0:0:0:0:
256,192,55046,1,4,0:0:0:0:
256,192,55208,1,4,0:0:0:0:
256,192,55370,1,12,0:0:0:0:
256,192,55695,1,4,0:0:0:0:
256,192,55857,1,4,0:0:0:0:
256,192,56019,1,12,0:0:0:0:
256,192,56343,1,12,0:0:0:0:
256,192,56505,1,12,0:0:0:0:
256,192,56668,1,12,0:0:0:0:
256,192,56992,1,0,0:0:0:0:
256,192,57073,1,8,0:0:0:0:
256,192,57154,1,0,0:0:0:0:
256,192,57235,1,8,0:0:0:0:
256,192,57316,1,0,0:0:0:0:
256,192,57478,1,8,0:0:0:0:
256,192,57640,1,4,0:0:0:0:
256,192,57802,1,4,0:0:0:0:
256,192,57965,1,12,0:0:0:0:
256,192,58289,1,12,0:0:0:0:
256,192,58451,1,4,0:0:0:0:
256,192,58613,1,12,0:0:0:0:
256,192,58937,1,12,0:0:0:0:
256,192,59100,1,12,0:0:0:0:
256,192,59262,1,12,0:0:0:0:
256,192,59586,1,8,0:0:0:0:
256,192,59667,1,0,0:0:0:0:
256,192,59748,1,8,0:0:0:0:
256,192,59829,1,0,0:0:0:0:
256,192,59910,1,8,0:0:0:0:
256,192,60073,1,8,0:0:0:0:
256,192,60235,1,4,0:0:0:0:
256,192,60397,1,4,0:0:0:0:
256,192,60559,1,12,0:0:0:0:
256,192,60883,1,12,0:0:0:0:
256,192,61046,1,4,0:0:0:0:
256,192,61208,1,12,0:0:0:0:
256,192,61532,1,12,0:0:0:0:
256,192,61694,1,12,0:0:0:0:
256,192,61856,1,12,0:0:0:0:
256,192,62181,1,8,0:0:0:0:
256,192,62262,1,0,0:0:0:0:
256,192,62343,1,0,0:0:0:0:
256,192,62505,1,8,0:0:0:0:
256,192,62668,1,8,0:0:0:0:
256,192,62830,1,4,0:0:0:0:
256,192,62992,1,8,0:0:0:0:
256,192,63154,1,8,0:0:0:0:
256,192,63235,1,8,0:0:0:0:
256,192,63316,1,0,0:0:0:0:
256,192,63397,1,0,0:0:0:0:
256,192,63478,1,8,0:0:0:0:
256,192,63641,1,0,0:0:0:0:
256,192,63803,1,8,0:0:0:0:
256,192,63965,1,8,0:0:0:0:
256,192,64127,1,0,0:0:0:0:
256,192,64289,1,8,0:0:0:0:
256,192,64451,1,8,0:0:0:0:
256,192,64532,1,8,0:0:0:0:
256,192,64614,1,0,0:0:0:0:
256,192,64776,1,8,0:0:0:0:
256,192,65100,1,8,0:0:0:0:
256,192,65262,1,8,0:0:0:0:
256,192,65343,1,8,0:0:0:0:
256,192,65424,1,0,0:0:0:0:
256,192,65587,1,0,0:0:0:0:
256,192,65749,1,8,0:0:0:0:
256,192,65911,1,8,0:0:0:0:
256,192,66073,1,0,0:0:0:0:
256,192,66235,1,0,0:0:0:0:
256,192,66316,1,0,0:0:0:0:
256,192,66397,1,8,0:0:0:0:
256,192,66559,1,0,0:0:0:0:
256,192,66722,1,8,0:0:0:0:
256,192,66884,1,8,0:0:0:0:
256,192,66965,1,8,0:0:0:0:
256,192,67046,1,8,0:0:0:0:
256,192,67208,1,0,0:0:0:0:
256,192,67370,1,8,0:0:0:0:
256,192,67695,1,8,0:0:0:0:
256,192,67857,1,0,0:0:0:0:
256,192,67938,1,0,0:0:0:0:
256,192,68019,1,8,0:0:0:0:
256,192,68181,1,8,0:0:0:0:
256,192,68262,1,8,0:0:0:0:
256,192,68343,1,8,0:0:0:0:
256,192,68505,1,0,0:0:0:0:
256,192,68668,1,8,0:0:0:0:
256,192,68830,1,0,0:0:0:0:
256,192,68911,1,0,0:0:0:0:
256,192,68992,1,8,0:0:0:0:
256,192,69154,1,0,0:0:0:0:
256,192,69316,1,8,0:0:0:0:
256,192,69478,1,0,0:0:0:0:
256,192,69559,1,0,0:0:0:0:
256,192,69641,1,8,0:0:0:0:
256,192,69803,1,8,0:0:0:0:
256,192,69965,1,0,0:0:0:0:
256,192,70046,1,0,0:0:0:0:
256,192,70127,1,8,0:0:0:0:
256,192,70208,1,0,0:0:0:0:
256,192,70289,1,8,0:0:0:0:
256,192,70451,1,8,0:0:0:0:
256,192,70614,1,0,0:0:0:0:
256,192,70776,1,0,0:0:0:0:
256,192,70857,1,0,0:0:0:0:
256,192,70938,1,8,0:0:0:0:
256,192,71100,1,0,0:0:0:0:
256,192,71262,1,8,0:0:0:0:
256,192,71424,1,8,0:0:0:0:
256,192,71505,1,0,0:0:0:0:
256,192,71587,1,8,0:0:0:0:
256,192,71749,1,8,0:0:0:0:
256,192,71911,1,0,0:0:0:0:
256,192,72235,1,8,0:0:0:0:
256,192,72397,1,0,0:0:0:0:
256,192,72478,1,0,0:0:0:0:
256,192,72559,1,8,0:0:0:0:
256,192,72722,1,8,0:0:0:0:
256,192,72884,1,0,0:0:0:0:
256,192,73046,1,8,0:0:0:0:
256,192,73208,1,4,0:0:0:0:
256,192,73370,1,8,0:0:0:0:
256,192,73532,1,8,0:0:0:0:
256,192,73613,1,8,0:0:0:0:
256,192,73694,1,0,0:0:0:0:
256,192,73775,1,0,0:0:0:0:
256,192,73856,1,8,0:0:0:0:
256,192,74019,1,0,0:0:0:0:
256,192,74181,1,8,0:0:0:0:
256,192,74343,1,8,0:0:0:0:
256,192,74505,1,0,0:0:0:0:
256,192,74667,1,8,0:0:0:0:
256,192,74829,1,8,0:0:0:0:
256,192,74910,1,8,0:0:0:0:
256,192,74992,1,0,0:0:0:0:
256,192,75154,1,8,0:0:0:0:
256,192,75478,1,8,0:0:0:0:
256,192,75640,1,8,0:0:0:0:
256,192,75721,1,8,0:0:0:0:
256,192,75802,1,0,0:0:0:0:
256,192,75965,1,0,0:0:0:0:
256,192,76127,1,8,0:0:0:0:
256,192,76289,1,8,0:0:0:0:
256,192,76451,1,0,0:0:0:0:
256,192,76613,1,0,0:0:0:0:
256,192,76694,1,0,0:0:0:0:
256,192,76775,1,8,0:0:0:0:
256,192,76937,1,0,0:0:0:0:
256,192,77100,1,8,0:0:0:0:
256,192,77262,1,8,0:0:0:0:
256,192,77343,1,8,0:0:0:0:
256,192,77424,1,8,0:0:0:0:
256,192,77586,1,0,0:0:0:0:
256,192,77748,1,8,0:0:0:0:
256,192,78073,1,8,0:0:0:0:
256,192,78235,1,0,0:0:0:0:
256,192,78316,1,0,0:0:0:0:
256,192,78397,1,8,0:0:0:0:
256,192,78559,1,8,0:0:0:0:
256,192,78640,1,8,0:0:0:0:
256,192,78721,1,8,0:0:0:0:
256,192,78883,1,0,0:0:0:0:
256,192,79046,1,8,0:0:0:0:
256,192,79208,1,0,0:0:0:0:
256,192,79289,1,0,0:0:0:0:
256,192,79370,1,8,0:0:0:0:
256,192,79532,1,0,0:0:0:0:
256,192,79694,1,8,0:0:0:0:
256,192,79856,1,0,0:0:0:0:
256,192,79937,1,0,0:0:0:0:
256,192,80019,1,8,0:0:0:0:
256,192,80181,1,8,0:0:0:0:
256,192,80343,1,0,0:0:0:0:
256,192,80424,1,0,0:0:0:0:
256,192,80505,1,8,0:0:0:0:
256,192,80587,1,0,0:0:0:0:
256,192,80667,1,8,0:0:0:0:
256,192,80829,1,8,0:0:0:0:
256,192,80992,1,0,0:0:0:0:
256,192,81154,1,0,0:0:0:0:
256,192,81235,1,0,0:0:0:0:
256,192,81316,1,8,0:0:0:0:
256,192,81478,1,0,0:0:0:0:
256,192,81640,1,8,0:0:0:0:
256,192,81802,1,8,0:0:0:0:
256,192,81883,1,0,0:0:0:0:
256,192,81965,1,8,0:0:0:0:
256,192,82127,1,8,0:0:0:0:
256,192,82289,1,0,0:0:0:0:
256,192,82613,1,8,0:0:0:0:
256,192,82775,1,0,0:0:0:0:
256,192,82856,1,0,0:0:0:0:
256,192,82937,1,8,0:0:0:0:
256,192,83019,1,0,0:0:0:0:
256,192,83100,1,8,0:0:0:0:
256,192,83262,1,0,0:0:0:0:
256,192,83424,1,8,0:0:0:0:
256,192,83587,1,4,0:0:0:0:
256,192,83749,1,4,0:0:0:0:
256,192,83911,1,12,0:0:0:0:
256,192,84073,1,0,0:0:0:0:
256,192,84235,1,8,0:0:0:0:
256,192,84316,1,8,0:0:0:0:
256,192,84397,1,0,0:0:0:0:
256,192,84559,1,8,0:0:0:0:
256,192,84641,1,0,0:0:0:0:
256,192,84722,1,0,0:0:0:0:
256,192,84884,1,12,0:0:0:0:
256,192,85046,1,12,0:0:0:0:
256,192,85208,1,12,0:0:0:0:
