osu file format v14

[General]
AudioFilename: AkitoMatsuda.mp3
AudioLeadIn: 0
PreviewTime: 10938
Countdown: 0
SampleSet: Normal
StackLeniency: 0.7
Mode: 1
LetterboxInBreaks: 0
WidescreenStoryboard: 1

[Editor]
DistanceSpacing: 0.8
BeatDivisor: 1
GridSize: 32
TimelineZoom: 0.9999999

[Metadata]
Title:After After
TitleUnicode:アフターアフター
Artist:Matsuda Akito
ArtistUnicode:松田彬人
Creator:Franklin_DeJavu
Version:Tyis' Kantan
Source:ディーふらぐ!
Tags:ゲーム製作部CD(仮)~サントラ② game seisakubu cd (kari) ~ sound track 2 d-frag d-fragments fdjv yuzu__rinrin tyistiana
BeatmapID:1694862
BeatmapSetID:682326

[Difficulty]
HPDrainRate:8
CircleSize:3
OverallDifficulty:3
ApproachRate:9
SliderMultiplier:1.4
SliderTickRate:1

[Events]
//Background and Video events
0,0,"one.png",0,0
//Break Periods
//Storyboard Layer 0 (Background)
//Storyboard Layer 1 (Fail)
//Storyboard Layer 2 (Pass)
//Storyboard Layer 3 (Foreground)
//Storyboard Sound Samples

[TimingPoints]
560,324.324324324324,4,1,0,57,1,0
42073,-100,4,1,0,57,0,1
62830,-100,4,1,0,57,0,0
83587,-100,4,1,0,57,0,1
85208,-100,4,1,0,57,0,0

[HitObjects]
256,192,884,5,8,0:0:0:0:
256,192,1532,1,8,0:0:0:0:
256,192,2181,1,8,0:0:0:0:
256,192,2830,1,8,0:0:0:0:
256,192,3478,1,8,0:0:0:0:
256,192,4127,1,8,0:0:0:0:
256,192,4451,1,0,0:0:0:0:
256,192,4776,1,8,0:0:0:0:
256,192,6073,1,8,0:0:0:0:
256,192,6721,1,8,0:0:0:0:
256,192,7370,1,8,0:0:0:0:
256,192,8019,1,8,0:0:0:0:
256,192,8667,1,8,0:0:0:0:
256,192,9316,1,8,0:0:0:0:
256,192,9640,1,0,0:0:0:0:
256,192,9965,1,8,0:0:0:0:
256,192,10938,1,4,0:0:0:0:
256,192,11911,1,8,0:0:0:0:
256,192,12559,1,8,0:0:0:0:
256,192,12884,1,0,0:0:0:0:
256,192,13208,1,8,0:0:0:0:
256,192,13857,1,0,0:0:0:0:
256,192,14505,1,0,0:0:0:0:
256,192,15154,1,8,0:0:0:0:
256,192,16451,1,0,0:0:0:0:
256,192,17100,1,8,0:0:0:0:
256,192,17749,1,8,0:0:0:0:
256,192,18073,1,0,0:0:0:0:
256,192,18397,1,8,0:0:0:0:
256,192,19046,1,0,0:0:0:0:
256,192,19695,1,0,0:0:0:0:
256,192,20343,1,8,0:0:0:0:
256,192,21316,1,4,0:0:0:0:
256,192,21965,1,8,0:0:0:0:
256,192,22289,1,8,0:0:0:0:
256,192,22614,1,0,0:0:0:0:
256,192,23911,1,0,0:0:0:0:
256,192,24559,1,8,0:0:0:0:
256,192,24884,1,8,0:0:0:0:
256,192,25208,1,0,0:0:0:0:
256,192,26505,1,0,0:0:0:0:
256,192,27154,1,8,0:0:0:0:
256,192,27478,1,0,0:0:0:0:
256,192,27803,1,8,0:0:0:0:
256,192,29100,1,0,0:0:0:0:
256,192,29748,1,8,0:0:0:0:
256,192,30073,1,0,0:0:0:0:
256,192,30397,1,8,0:0:0:0:
256,192,31695,1,4,0:0:0:0:
256,192,32668,1,8,0:0:0:0:
256,192,33316,1,8,0:0:0:0:
256,192,33641,1,0,0:0:0:0:
256,192,33965,1,8,0:0:0:0:
256,192,34614,1,0,0:0:0:0:
256,192,35262,1,0,0:0:0:0:
256,192,35911,1,8,0:0:0:0:
256,192,37208,1,0,0:0:0:0:
256,192,37857,1,8,0:0:0:0:
256,192,38506,1,8,0:0:0:0:
256,192,38830,1,0,0:0:0:0:
256,192,39154,1,8,0:0:0:0:
256,192,39803,1,0,0:0:0:0:
256,192,40452,1,0,0:0:0:0:
256,192,41100,1,8,0:0:0:0:
256,192,42073,1,4,0:0:0:0:
256,192,42722,1,8,0:0:0:0:
256,192,43370,1,0,0:0:0:0:
256,192,44668,1,4,0:0:0:0:
256,192,45316,1,8,0:0:0:0:
256,192,45965,1,0,0:0:0:0:
256,192,47262,1,4,0:0:0:0:
256,192,47911,1,0,0:0:0:0:
256,192,48559,1,8,0:0:0:0:
256,192,49857,1,4,0:0:0:0:
256,192,50505,1,0,0:0:0:0:
256,192,51154,1,8,0:0:0:0:
256,192,52451,1,4,0:0:0:0:
256,192,53100,1,12,0:0:0:0:
256,192,53749,1,4,0:0:0:0:
256,192,55046,1,4,0:0:0:0:
256,192,55695,1,12,0:0:0:0:
256,192,56343,1,4,0:0:0:0:
256,192,57641,1,4,0:0:0:0:
256,192,58289,1,4,0:0:0:0:
256,192,58938,1,12,0:0:0:0:
256,192,60235,1,12,0:0:0:0:
256,192,60884,1,12,0:0:0:0:
256,192,61532,1,4,0:0:0:0:
256,192,62830,1,4,0:0:0:0:
256,192,64127,1,0,0:0:0:0:
256,192,64451,1,8,0:0:0:0:
256,192,64776,1,0,0:0:0:0:
256,192,65424,1,0,0:0:0:0:
256,192,66722,1,8,0:0:0:0:
256,192,67046,1,0,0:0:0:0:
256,192,67370,1,8,0:0:0:0:
256,192,68019,1,0,0:0:0:0:
256,192,69316,1,8,0:0:0:0:
256,192,69641,1,0,0:0:0:0:
256,192,69965,1,0,0:0:0:0:
256,192,70614,1,8,0:0:0:0:
256,192,71911,1,8,0:0:0:0:
256,192,72559,1,8,0:0:0:0:
256,192,73208,1,4,0:0:0:0:
256,192,74505,1,8,0:0:0:0:
256,192,74830,1,8,0:0:0:0:
256,192,75154,1,0,0:0:0:0:
256,192,75803,1,0,0:0:0:0:
256,192,77100,1,0,0:0:0:0:
256,192,77424,1,0,0:0:0:0:
256,192,77748,1,8,0:0:0:0:
256,192,78397,1,0,0:0:0:0:
256,192,79695,1,8,0:0:0:0:
256,192,80019,1,8,0:0:0:0:
256,192,80343,1,0,0:0:0:0:
256,192,80992,1,8,0:0:0:0:
256,192,82289,1,8,0:0:0:0:
256,192,82938,1,8,0:0:0:0:
256,192,83587,1,4,0:0:0:0:
256,192,84235,1,12,0:0:0:0:
256,192,84884,1,4,0:0:0:0:
