osu file format v14

[General]
AudioFilename: AkitoMatsuda.mp3
AudioLeadIn: 0
PreviewTime: 10938
Countdown: 0
SampleSet: Normal
StackLeniency: 0.7
Mode: 1
LetterboxInBreaks: 0
WidescreenStoryboard: 0

[Editor]
DistanceSpacing: 0.8
BeatDivisor: 4
GridSize: 32
TimelineZoom: 0.9999994

[Metadata]
Title:After After
TitleUnicode:アフターアフター
Artist:Matsuda Akito
ArtistUnicode:松田彬人
Creator:Franklin_DeJavu
Version:Futsuu
Source:ディーふらぐ!
Tags:ゲーム製作部CD(仮)~サントラ② game seisakubu cd (kari) ~ sound track 2 d-frag d-fragments fdjv yuzu__rinrin tyistiana
BeatmapID:1443734
BeatmapSetID:682326

[Difficulty]
HPDrainRate:7.5
CircleSize:3
OverallDifficulty:4
ApproachRate:9
SliderMultiplier:1.4
SliderTickRate:1

[Events]
//Background and Video events
0,0,"two.png",0,0
//Break Periods
//Storyboard Layer 0 (Background)
//Storyboard Layer 1 (Fail)
//Storyboard Layer 2 (Pass)
//Storyboard Layer 3 (Foreground)
//Storyboard Sound Samples

[TimingPoints]
560,324.324324324324,4,1,0,57,1,0
42073,-100,4,1,0,57,0,1
62830,-100,4,1,0,57,0,0
83587,-100,4,1,0,57,0,1
85208,-100,4,1,0,57,0,0

[HitObjects]
128,96,560,5,0,0:0:0:0:
384,96,884,1,8,0:0:0:0:
384,96,1532,1,8,0:0:0:0:
128,96,1857,1,0,0:0:0:0:
384,96,2181,1,8,0:0:0:0:
384,96,2830,1,8,0:0:0:0:
128,96,3154,1,0,0:0:0:0:
384,96,3478,1,8,0:0:0:0:
384,96,4127,1,8,0:0:0:0:
384,96,4451,1,8,0:0:0:0:
128,96,4614,1,0,0:0:0:0:
384,96,4776,1,8,0:0:0:0:
128,96,5749,1,0,0:0:0:0:
384,96,6073,1,8,0:0:0:0:
384,96,6721,1,8,0:0:0:0:
128,96,7046,1,0,0:0:0:0:
384,96,7370,1,8,0:0:0:0:
384,96,8019,1,8,0:0:0:0:
128,96,8343,1,0,0:0:0:0:
384,96,8667,1,8,0:0:0:0:
384,96,9316,1,8,0:0:0:0:
384,96,9640,1,8,0:0:0:0:
128,96,9803,1,0,0:0:0:0:
384,96,9965,1,8,0:0:0:0:
128,288,10938,1,4,0:0:0:0:
384,96,11262,1,8,0:0:0:0:
384,96,11911,1,8,0:0:0:0:
128,96,12235,1,0,0:0:0:0:
384,96,12559,1,8,0:0:0:0:
384,96,12884,1,8,0:0:0:0:
128,96,13046,1,0,0:0:0:0:
384,96,13208,1,8,0:0:0:0:
128,96,13532,1,0,0:0:0:0:
384,96,13857,1,8,0:0:0:0:
384,96,14505,1,8,0:0:0:0:
128,96,14830,1,0,0:0:0:0:
128,96,14992,1,0,0:0:0:0:
384,96,15154,1,8,0:0:0:0:
128,96,15478,1,0,0:0:0:0:
384,96,15803,1,8,0:0:0:0:
384,96,16451,1,8,0:0:0:0:
128,96,16776,1,0,0:0:0:0:
128,96,16938,1,0,0:0:0:0:
384,96,17100,1,8,0:0:0:0:
128,96,17424,1,0,0:0:0:0:
384,96,17749,1,8,0:0:0:0:
384,96,18073,1,8,0:0:0:0:
128,96,18235,1,0,0:0:0:0:
384,96,18397,1,8,0:0:0:0:
384,96,19046,1,8,0:0:0:0:
128,96,19370,1,0,0:0:0:0:
384,96,19695,1,8,0:0:0:0:
128,96,20019,1,0,0:0:0:0:
128,96,20181,1,0,0:0:0:0:
384,96,20343,1,8,0:0:0:0:
128,96,20830,1,0,0:0:0:0:
384,96,20992,1,8,0:0:0:0:
128,288,21316,1,4,0:0:0:0:
384,96,21641,1,8,0:0:0:0:
128,96,21965,1,0,0:0:0:0:
128,96,22127,1,0,0:0:0:0:
384,96,22289,1,8,0:0:0:0:
128,96,22614,1,0,0:0:0:0:
384,96,22938,1,8,0:0:0:0:
384,96,23587,1,8,0:0:0:0:
128,96,23911,1,0,0:0:0:0:
128,96,24073,1,0,0:0:0:0:
384,96,24235,1,8,0:0:0:0:
128,96,24559,1,0,0:0:0:0:
384,96,24884,1,8,0:0:0:0:
128,96,25046,1,0,0:0:0:0:
128,96,25208,1,0,0:0:0:0:
384,96,25532,1,8,0:0:0:0:
384,96,26181,1,8,0:0:0:0:
128,96,26505,1,0,0:0:0:0:
128,96,26668,1,0,0:0:0:0:
384,96,26830,1,8,0:0:0:0:
128,96,27154,1,0,0:0:0:0:
384,96,27478,1,8,0:0:0:0:
128,96,27641,1,0,0:0:0:0:
128,96,27803,1,0,0:0:0:0:
384,96,28127,1,8,0:0:0:0:
384,96,28776,1,8,0:0:0:0:
128,96,29100,1,0,0:0:0:0:
128,96,29262,1,0,0:0:0:0:
384,96,29424,1,8,0:0:0:0:
128,96,29749,1,0,0:0:0:0:
384,96,30073,1,8,0:0:0:0:
128,96,30397,1,0,0:0:0:0:
128,96,30559,1,0,0:0:0:0:
384,96,30722,1,8,0:0:0:0:
384,96,31370,1,8,0:0:0:0:
128,288,31695,1,4,0:0:0:0:
384,96,32019,1,8,0:0:0:0:
384,96,32668,1,8,0:0:0:0:
128,96,32992,1,0,0:0:0:0:
384,96,33316,1,8,0:0:0:0:
384,96,33641,1,8,0:0:0:0:
128,96,33803,1,0,0:0:0:0:
384,96,33965,1,8,0:0:0:0:
128,96,34289,1,0,0:0:0:0:
384,96,34614,1,8,0:0:0:0:
384,96,35262,1,8,0:0:0:0:
128,96,35587,1,0,0:0:0:0:
128,96,35749,1,0,0:0:0:0:
384,96,35911,1,8,0:0:0:0:
128,96,36235,1,0,0:0:0:0:
384,96,36560,1,8,0:0:0:0:
384,96,37208,1,8,0:0:0:0:
128,96,37533,1,0,0:0:0:0:
128,96,37695,1,0,0:0:0:0:
384,96,37857,1,8,0:0:0:0:
128,96,38181,1,0,0:0:0:0:
384,96,38506,1,8,0:0:0:0:
384,96,38830,1,8,0:0:0:0:
128,96,38992,1,0,0:0:0:0:
384,96,39154,1,8,0:0:0:0:
128,96,39479,1,0,0:0:0:0:
384,96,39803,1,8,0:0:0:0:
384,96,40452,1,8,0:0:0:0:
128,96,40776,1,0,0:0:0:0:
128,96,40938,1,0,0:0:0:0:
384,96,41100,1,8,0:0:0:0:
128,96,41425,1,0,0:0:0:0:
384,96,41749,1,8,0:0:0:0:
128,288,42073,1,4,0:0:0:0:
128,96,42722,1,0,0:0:0:0:
128,96,43046,1,0,0:0:0:0:
384,96,43370,1,8,0:0:0:0:
128,96,44019,1,0,0:0:0:0:
384,96,44343,1,8,0:0:0:0:
128,288,44668,1,4,0:0:0:0:
384,96,45316,1,8,0:0:0:0:
128,96,45641,1,0,0:0:0:0:
384,96,45965,1,8,0:0:0:0:
384,96,46614,1,8,0:0:0:0:
128,96,46938,1,0,0:0:0:0:
128,288,47262,1,4,0:0:0:0:
128,96,47911,1,0,0:0:0:0:
384,96,48235,1,8,0:0:0:0:
128,96,48559,1,0,0:0:0:0:
128,96,49208,1,0,0:0:0:0:
384,96,49532,1,8,0:0:0:0:
128,288,49857,1,4,0:0:0:0:
128,96,50505,1,0,0:0:0:0:
384,96,50830,1,8,0:0:0:0:
128,96,51154,1,0,0:0:0:0:
128,96,51803,1,0,0:0:0:0:
128,96,52127,1,0,0:0:0:0:
128,288,52451,1,4,0:0:0:0:
128,288,53100,1,4,0:0:0:0:
128,288,53424,1,4,0:0:0:0:
384,288,53749,1,12,0:0:0:0:
384,96,54397,1,8,0:0:0:0:
384,96,54721,1,8,0:0:0:0:
128,288,55046,1,4,0:0:0:0:
384,288,55695,1,12,0:0:0:0:
128,288,56019,1,4,0:0:0:0:
384,288,56343,1,12,0:0:0:0:
128,96,56992,1,0,0:0:0:0:
128,96,57316,1,0,0:0:0:0:
128,288,57640,1,4,0:0:0:0:
128,288,58289,1,4,0:0:0:0:
384,288,58614,1,12,0:0:0:0:
128,288,58938,1,4,0:0:0:0:
384,96,59586,1,8,0:0:0:0:
384,96,59910,1,8,0:0:0:0:
128,288,60235,1,4,0:0:0:0:
384,288,60884,1,12,0:0:0:0:
128,288,61208,1,4,0:0:0:0:
384,288,61532,1,12,0:0:0:0:
128,96,62181,1,0,0:0:0:0:
384,96,62505,1,8,0:0:0:0:
128,288,62830,1,4,0:0:0:0:
384,96,63154,1,8,0:0:0:0:
384,96,63803,1,8,0:0:0:0:
128,96,64127,1,0,0:0:0:0:
384,96,64451,1,8,0:0:0:0:
128,96,64614,1,0,0:0:0:0:
128,96,64776,1,0,0:0:0:0:
384,96,65100,1,8,0:0:0:0:
128,96,65424,1,0,0:0:0:0:
384,96,65749,1,8,0:0:0:0:
384,96,66397,1,8,0:0:0:0:
128,96,66722,1,0,0:0:0:0:
384,96,67046,1,8,0:0:0:0:
128,96,67208,1,0,0:0:0:0:
384,96,67370,1,8,0:0:0:0:
384,96,67695,1,8,0:0:0:0:
128,96,68019,1,0,0:0:0:0:
384,96,68343,1,8,0:0:0:0:
384,96,68992,1,8,0:0:0:0:
128,96,69316,1,0,0:0:0:0:
384,96,69641,1,8,0:0:0:0:
384,96,69803,1,8,0:0:0:0:
128,96,69965,1,0,0:0:0:0:
384,96,70289,1,8,0:0:0:0:
128,96,70614,1,0,0:0:0:0:
384,96,70938,1,8,0:0:0:0:
384,96,71587,1,8,0:0:0:0:
128,96,71911,1,0,0:0:0:0:
384,96,72235,1,8,0:0:0:0:
128,96,72559,1,0,0:0:0:0:
384,96,72722,1,8,0:0:0:0:
384,96,72884,1,8,0:0:0:0:
128,288,73208,1,4,0:0:0:0:
384,96,73532,1,8,0:0:0:0:
384,96,74181,1,8,0:0:0:0:
128,96,74505,1,0,0:0:0:0:
384,96,74830,1,8,0:0:0:0:
128,96,74992,1,0,0:0:0:0:
128,96,75154,1,0,0:0:0:0:
384,96,75478,1,8,0:0:0:0:
128,96,75803,1,0,0:0:0:0:
384,96,76127,1,8,0:0:0:0:
384,96,76776,1,8,0:0:0:0:
128,96,77100,1,0,0:0:0:0:
384,96,77424,1,8,0:0:0:0:
128,96,77586,1,0,0:0:0:0:
384,96,77748,1,8,0:0:0:0:
384,96,78073,1,8,0:0:0:0:
128,96,78397,1,0,0:0:0:0:
384,96,78722,1,8,0:0:0:0:
384,96,79370,1,8,0:0:0:0:
128,96,79695,1,0,0:0:0:0:
384,96,80019,1,8,0:0:0:0:
128,96,80181,1,0,0:0:0:0:
128,96,80343,1,0,0:0:0:0:
384,96,80668,1,8,0:0:0:0:
128,96,80992,1,0,0:0:0:0:
384,96,81316,1,8,0:0:0:0:
384,96,81965,1,8,0:0:0:0:
128,96,82289,1,0,0:0:0:0:
384,96,82614,1,8,0:0:0:0:
128,96,82938,1,0,0:0:0:0:
128,96,83100,1,0,0:0:0:0:
384,96,83262,1,8,0:0:0:0:
128,288,83587,1,4,0:0:0:0:
128,288,84235,1,4,0:0:0:0:
384,288,84559,1,12,0:0:0:0:
384,288,84884,1,12,0:0:0:0:
384,288,85046,1,12,0:0:0:0:
384,288,85208,1,12,0:0:0:0:
