osu file format v14

[General]
AudioFilename: MatrixMarioX - beatmania IIDX 7 GRAND - The Ripping Paradise.mp3
AudioLeadIn: 0
PreviewTime: 43230
Countdown: 0
SampleSet: Normal
StackLeniency: 0.7
Mode: 1
LetterboxInBreaks: 0
WidescreenStoryboard: 0

[Editor]
DistanceSpacing: 0.6
BeatDivisor: 4
GridSize: 32
TimelineZoom: 1.5

[Metadata]
Title:The Ripping Paradise
TitleUnicode:The Ripping Paradise
Artist:MatrixMarioX
ArtistUnicode:MatrixMarioX
Creator:OzzyOzrock
Version:AQAP
Source:
Tags:beatmania IIDX GRAND SiivaGunner GilvaSunner SilvaGunner
BeatmapID:1092002
BeatmapSetID:514003

[Difficulty]
HPDrainRate:6
CircleSize:5
OverallDifficulty:6
ApproachRate:6
SliderMultiplier:1.4
SliderTickRate:1

[Events]
//Background and Video events
0,0,"GRAND BG.jpg",0,0
//Break Periods
//Storyboard Layer 0 (Background)
//Storyboard Layer 1 (Fail)
//Storyboard Layer 2 (Pass)
//Storyboard Layer 3 (Foreground)
//Storyboard Sound Samples

[TimingPoints]
1630,400,4,1,0,80,1,0
48030,-100,4,1,0,40,0,0
48130,-100,4,1,0,50,0,0
48230,-100,4,1,0,60,0,0
48330,-100,4,1,0,70,0,0
48430,-100,4,1,0,80,0,0
65630,-100,4,1,0,80,0,1
78430,-100,4,1,0,80,0,0
82030,-100,4,1,0,60,0,0
82430,-100,4,1,0,40,0,0
83630,-100,4,1,0,60,0,0
84030,-100,4,1,0,80,0,0
100830,-100,4,1,0,80,0,1
113530,-100,4,1,0,80,0,0

[HitObjects]
224,128,1630,5,4,0:0:0:0:
384,256,2030,1,8,0:0:0:0:
128,288,2430,1,0,0:0:0:0:
128,288,2630,1,0,0:0:0:0:
384,288,2830,1,8,0:0:0:0:
352,256,3030,1,8,0:0:0:0:
384,256,3130,1,8,0:0:0:0:
128,288,3230,1,0,0:0:0:0:
384,256,3630,1,8,0:0:0:0:
416,256,3830,1,8,0:0:0:0:
416,256,3896,1,8,0:0:0:0:
416,256,3963,1,8,0:0:0:0:
128,288,4030,1,0,0:0:0:0:
384,256,4230,1,8,0:0:0:0:
128,256,4430,1,0,0:0:0:0:
128,256,4630,1,0,0:0:0:0:
128,256,4830,1,0,0:0:0:0:
352,256,5230,1,8,0:0:0:0:
384,224,5430,1,8,0:0:0:0:
384,224,5530,1,8,0:0:0:0:
160,256,5630,1,0,0:0:0:0:
96,256,5830,1,0,0:0:0:0:
96,256,6030,1,0,0:0:0:0:
384,256,6130,1,8,0:0:0:0:
384,256,6230,1,8,0:0:0:0:
384,256,6330,1,8,0:0:0:0:
128,256,6430,1,0,0:0:0:0:
128,288,6830,1,0,0:0:0:0:
128,288,7030,1,0,0:0:0:0:
128,288,7130,1,0,0:0:0:0:
320,224,7330,1,8,0:0:0:0:
128,256,7430,1,0,0:0:0:0:
128,256,7530,1,0,0:0:0:0:
320,224,7630,1,8,0:0:0:0:
352,224,7830,1,8,0:0:0:0:
96,96,8030,1,4,0:0:0:0:
416,256,8230,1,8,0:0:0:0:
192,256,8430,1,0,0:0:0:0:
416,256,8630,1,8,0:0:0:0:
416,256,8730,1,8,0:0:0:0:
160,256,8830,1,0,0:0:0:0:
384,256,9030,1,8,0:0:0:0:
192,256,9230,1,0,0:0:0:0:
192,256,9330,1,0,0:0:0:0:
384,256,9430,1,8,0:0:0:0:
128,256,9630,1,0,0:0:0:0:
128,288,9930,1,0,0:0:0:0:
352,256,10030,1,8,0:0:0:0:
160,288,10230,1,0,0:0:0:0:
416,256,10430,1,8,0:0:0:0:
192,288,10530,1,0,0:0:0:0:
320,288,10630,1,8,0:0:0:0:
320,288,10730,1,8,0:0:0:0:
160,288,10830,1,0,0:0:0:0:
160,288,10930,1,0,0:0:0:0:
352,256,11030,1,8,0:0:0:0:
352,256,11130,1,8,0:0:0:0:
192,288,11230,1,0,0:0:0:0:
416,288,11430,1,8,0:0:0:0:
416,288,11530,1,8,0:0:0:0:
256,288,11630,1,0,0:0:0:0:
384,288,11830,1,8,0:0:0:0:
384,288,11930,1,8,0:0:0:0:
224,288,12030,1,0,0:0:0:0:
384,288,12130,1,8,0:0:0:0:
224,288,12230,1,0,0:0:0:0:
352,288,12330,1,8,0:0:0:0:
224,288,12430,1,0,0:0:0:0:
384,288,12530,1,8,0:0:0:0:
384,288,12630,1,8,0:0:0:0:
384,288,12730,1,8,0:0:0:0:
192,288,12830,1,0,0:0:0:0:
160,96,13630,1,4,0:0:0:0:
320,64,14030,1,12,0:0:0:0:
128,96,14430,1,4,0:0:0:0:
384,256,14630,1,8,0:0:0:0:
384,256,14730,1,8,0:0:0:0:
192,256,14930,1,0,0:0:0:0:
384,256,15130,1,8,0:0:0:0:
384,256,15330,1,8,0:0:0:0:
160,288,15430,1,0,0:0:0:0:
192,288,16030,1,0,0:0:0:0:
352,256,16230,1,8,0:0:0:0:
160,288,16330,1,0,0:0:0:0:
160,256,16530,1,0,0:0:0:0:
352,256,16730,1,8,0:0:0:0:
352,256,16930,1,8,0:0:0:0:
352,256,17030,1,8,0:0:0:0:
160,288,17230,1,0,0:0:0:0:
352,256,17430,1,8,0:0:0:0:
352,256,17530,1,8,0:0:0:0:
160,288,17630,1,0,0:0:0:0:
352,256,17830,1,8,0:0:0:0:
352,256,17930,1,8,0:0:0:0:
192,288,18130,1,0,0:0:0:0:
320,256,18330,1,8,0:0:0:0:
352,256,18530,1,8,0:0:0:0:
192,288,18630,1,0,0:0:0:0:
320,256,19330,1,8,0:0:0:0:
320,256,19430,1,8,0:0:0:0:
320,256,19630,1,8,0:0:0:0:
320,256,19830,1,8,0:0:0:0:
128,288,19930,1,0,0:0:0:0:
192,320,20130,1,0,0:0:0:0:
320,256,20330,1,8,0:0:0:0:
128,288,20430,1,0,0:0:0:0:
352,288,20530,1,8,0:0:0:0:
416,256,20730,1,8,0:0:0:0:
160,288,20830,1,0,0:0:0:0:
384,256,21030,1,8,0:0:0:0:
384,256,21130,1,8,0:0:0:0:
160,256,21330,1,0,0:0:0:0:
352,256,21530,1,8,0:0:0:0:
352,256,21730,1,8,0:0:0:0:
192,288,21830,1,0,0:0:0:0:
352,288,22730,1,8,0:0:0:0:
352,288,22830,1,8,0:0:0:0:
128,320,23030,1,0,0:0:0:0:
352,288,23130,1,8,0:0:0:0:
128,288,23330,1,0,0:0:0:0:
352,288,23530,1,8,0:0:0:0:
192,288,23730,1,0,0:0:0:0:
352,288,23830,1,8,0:0:0:0:
128,128,24030,1,4,0:0:0:0:
448,288,24230,1,8,0:0:0:0:
448,288,24330,1,8,0:0:0:0:
160,256,24530,1,0,0:0:0:0:
384,256,24730,1,8,0:0:0:0:
128,288,24830,1,0,0:0:0:0:
128,288,24896,1,0,0:0:0:0:
128,288,24963,1,0,0:0:0:0:
352,288,25030,1,8,0:0:0:0:
96,288,25130,1,0,0:0:0:0:
448,256,25230,1,8,0:0:0:0:
448,256,25330,1,8,0:0:0:0:
160,288,25430,1,0,0:0:0:0:
128,288,25630,1,0,0:0:0:0:
128,288,25830,1,0,0:0:0:0:
352,256,25930,1,8,0:0:0:0:
384,256,26130,1,8,0:0:0:0:
160,288,26230,1,0,0:0:0:0:
352,256,26430,1,8,0:0:0:0:
352,256,26530,1,8,0:0:0:0:
160,288,26630,1,0,0:0:0:0:
128,288,26830,1,0,0:0:0:0:
352,224,27030,1,8,0:0:0:0:
64,96,27230,1,4,0:0:0:0:
352,224,27430,1,8,0:0:0:0:
160,256,27530,1,0,0:0:0:0:
352,256,27730,1,8,0:0:0:0:
160,256,27930,1,0,0:0:0:0:
160,256,28130,1,0,0:0:0:0:
288,256,28230,1,8,0:0:0:0:
128,256,28430,1,0,0:0:0:0:
384,256,28630,1,8,0:0:0:0:
384,256,28730,1,8,0:0:0:0:
384,256,28930,1,8,0:0:0:0:
384,256,29030,1,8,0:0:0:0:
352,224,29230,1,8,0:0:0:0:
192,256,29430,1,0,0:0:0:0:
384,256,29530,1,8,0:0:0:0:
192,256,29730,1,0,0:0:0:0:
352,224,29930,1,8,0:0:0:0:
160,256,30030,1,0,0:0:0:0:
352,256,30130,1,8,0:0:0:0:
352,224,30330,1,8,0:0:0:0:
352,256,30630,1,8,0:0:0:0:
352,256,30730,1,8,0:0:0:0:
352,256,30830,1,8,0:0:0:0:
96,288,31030,1,0,0:0:0:0:
352,224,31130,1,8,0:0:0:0:
128,288,31330,1,0,0:0:0:0:
352,256,31530,1,8,0:0:0:0:
160,288,31730,1,0,0:0:0:0:
352,256,31830,1,8,0:0:0:0:
160,288,32030,1,0,0:0:0:0:
352,256,32230,1,0,0:0:0:0:
352,256,32330,1,0,0:0:0:0:
128,288,32530,1,0,0:0:0:0:
384,256,32630,1,8,0:0:0:0:
384,256,32830,1,8,0:0:0:0:
384,256,32930,1,8,0:0:0:0:
192,288,33030,1,0,0:0:0:0:
192,288,33230,1,0,0:0:0:0:
384,256,33430,1,8,0:0:0:0:
128,96,33630,1,4,0:0:0:0:
192,224,33830,1,0,0:0:0:0:
352,256,33930,1,8,0:0:0:0:
160,256,34030,1,0,0:0:0:0:
352,256,34130,1,8,0:0:0:0:
160,288,34230,1,0,0:0:0:0:
160,288,34330,1,0,0:0:0:0:
320,256,34430,1,8,0:0:0:0:
128,288,34630,1,0,0:0:0:0:
320,256,34730,1,8,0:0:0:0:
160,288,34830,1,0,0:0:0:0:
384,256,34930,1,8,0:0:0:0:
192,256,35030,1,0,0:0:0:0:
192,256,35096,1,0,0:0:0:0:
192,256,35163,1,0,0:0:0:0:
320,256,35230,1,8,0:0:0:0:
128,320,35430,1,0,0:0:0:0:
288,256,35530,1,8,0:0:0:0:
96,288,35630,1,0,0:0:0:0:
320,256,35730,1,8,0:0:0:0:
160,288,35830,1,0,0:0:0:0:
160,288,35930,1,0,0:0:0:0:
320,256,36030,1,8,0:0:0:0:
320,256,36130,1,8,0:0:0:0:
320,256,36230,1,8,0:0:0:0:
320,256,36330,1,8,0:0:0:0:
320,256,36430,1,8,0:0:0:0:
320,256,36530,1,8,0:0:0:0:
320,256,36630,1,8,0:0:0:0:
320,256,36730,1,8,0:0:0:0:
320,256,36830,1,8,0:0:0:0:
128,288,37030,1,0,0:0:0:0:
352,256,37230,1,8,0:0:0:0:
224,256,37330,1,0,0:0:0:0:
352,256,37530,1,8,0:0:0:0:
160,288,37730,1,0,0:0:0:0:
320,256,37930,1,8,0:0:0:0:
320,256,38130,1,8,0:0:0:0:
160,288,38230,1,0,0:0:0:0:
256,192,38430,12,0,39830,0:0:0:0:
64,96,40030,5,4,0:0:0:0:
416,288,43230,5,8,0:0:0:0:
96,288,45330,5,0,0:0:0:0:
96,288,45430,1,0,0:0:0:0:
416,256,45530,1,8,0:0:0:0:
416,256,45730,1,8,0:0:0:0:
416,256,45830,1,8,0:0:0:0:
352,256,46030,1,8,0:0:0:0:
416,256,46096,1,8,0:0:0:0:
416,256,46163,1,8,0:0:0:0:
416,256,46230,1,8,0:0:0:0:
448,256,46330,1,8,0:0:0:0:
160,256,46430,1,0,0:0:0:0:
128,128,48030,1,4,0:0:0:0:
128,128,48130,1,4,0:0:0:0:
128,128,48230,1,4,0:0:0:0:
128,128,48330,1,4,0:0:0:0:
128,128,48430,1,4,0:0:0:0:
128,128,48530,1,4,0:0:0:0:
128,128,48730,1,4,0:0:0:0:
128,128,48930,1,4,0:0:0:0:
128,128,49130,1,4,0:0:0:0:
128,128,49330,1,4,0:0:0:0:
128,128,49430,1,4,0:0:0:0:
128,128,49530,1,4,0:0:0:0:
96,128,49630,2,4,L|608:96,1,490
128,96,51230,1,4,0:0:0:0:
192,256,52830,1,0,0:0:0:0:
192,256,52930,1,0,0:0:0:0:
352,256,53030,1,8,0:0:0:0:
224,256,53130,1,0,0:0:0:0:
352,256,53230,1,8,0:0:0:0:
192,288,53330,1,0,0:0:0:0:
192,288,53430,1,0,0:0:0:0:
352,288,53530,1,8,0:0:0:0:
352,288,53730,1,8,0:0:0:0:
352,288,53930,1,8,0:0:0:0:
192,256,54130,1,0,0:0:0:0:
352,256,54230,1,8,0:0:0:0:
352,256,54330,1,8,0:0:0:0:
64,288,54430,1,0,0:0:0:0:
64,288,54530,1,0,0:0:0:0:
288,256,54630,1,8,0:0:0:0:
96,256,54730,1,0,0:0:0:0:
320,256,54830,1,8,0:0:0:0:
128,256,54930,1,0,0:0:0:0:
128,256,55030,1,0,0:0:0:0:
384,256,55130,1,8,0:0:0:0:
384,256,55330,1,8,0:0:0:0:
384,256,55530,1,8,0:0:0:0:
160,288,55730,1,0,0:0:0:0:
384,256,55830,1,8,0:0:0:0:
384,256,55896,1,8,0:0:0:0:
384,256,55963,1,8,0:0:0:0:
192,288,56030,1,0,0:0:0:0:
160,288,56130,1,0,0:0:0:0:
448,256,56230,1,8,0:0:0:0:
128,256,56330,1,0,0:0:0:0:
320,224,56430,1,8,0:0:0:0:
160,288,56530,1,0,0:0:0:0:
160,288,56630,1,0,0:0:0:0:
352,256,56730,1,8,0:0:0:0:
288,256,56930,1,8,0:0:0:0:
64,320,57030,1,0,0:0:0:0:
64,320,57096,1,0,0:0:0:0:
64,320,57163,1,0,0:0:0:0:
416,288,57230,1,8,0:0:0:0:
128,256,57330,1,0,0:0:0:0:
384,288,57430,1,8,0:0:0:0:
384,288,57530,1,8,0:0:0:0:
128,288,57630,1,0,0:0:0:0:
96,288,57730,1,0,0:0:0:0:
352,256,57830,1,8,0:0:0:0:
160,288,57930,1,0,0:0:0:0:
352,256,58030,1,8,0:0:0:0:
160,288,58130,1,0,0:0:0:0:
160,288,58230,1,0,0:0:0:0:
384,256,58330,1,8,0:0:0:0:
160,320,58430,1,0,0:0:0:0:
384,256,58530,1,8,0:0:0:0:
160,288,58630,1,0,0:0:0:0:
96,288,58730,1,0,0:0:0:0:
384,256,58830,1,8,0:0:0:0:
384,256,58896,1,8,0:0:0:0:
384,256,58963,1,8,0:0:0:0:
128,288,59030,1,0,0:0:0:0:
128,288,59130,1,0,0:0:0:0:
384,256,59230,1,8,0:0:0:0:
384,224,59430,1,8,0:0:0:0:
352,288,59630,1,8,0:0:0:0:
416,256,59730,1,8,0:0:0:0:
128,256,59930,1,0,0:0:0:0:
416,256,60030,1,8,0:0:0:0:
384,224,60230,1,8,0:0:0:0:
352,288,60430,1,8,0:0:0:0:
416,256,60530,1,8,0:0:0:0:
128,256,60730,1,0,0:0:0:0:
416,256,60830,1,8,0:0:0:0:
384,224,61030,1,8,0:0:0:0:
352,288,61230,1,8,0:0:0:0:
416,256,61330,1,8,0:0:0:0:
128,256,61530,1,0,0:0:0:0:
416,256,61630,1,8,0:0:0:0:
384,224,61830,1,8,0:0:0:0:
352,288,62030,1,8,0:0:0:0:
416,256,62130,1,8,0:0:0:0:
128,256,62330,1,0,0:0:0:0:
416,256,62430,1,8,0:0:0:0:
384,256,62530,1,8,0:0:0:0:
128,256,62730,1,0,0:0:0:0:
416,256,62830,1,8,0:0:0:0:
384,256,62930,1,8,0:0:0:0:
96,288,63130,1,0,0:0:0:0:
416,256,63230,1,8,0:0:0:0:
416,256,63296,1,8,0:0:0:0:
416,256,63363,1,8,0:0:0:0:
128,288,63430,1,0,0:0:0:0:
128,256,63530,1,0,0:0:0:0:
384,256,63630,1,8,0:0:0:0:
384,256,63696,1,8,0:0:0:0:
384,256,63763,1,8,0:0:0:0:
160,256,63830,1,0,0:0:0:0:
128,256,63930,1,0,0:0:0:0:
256,192,64030,12,0,64630,0:0:0:0:
64,96,64830,5,4,0:0:0:0:
352,96,65230,1,12,0:0:0:0:
160,256,65630,1,0,0:0:0:0:
352,224,65830,1,8,0:0:0:0:
192,256,65930,1,0,0:0:0:0:
384,256,66030,1,8,0:0:0:0:
384,256,66130,1,8,0:0:0:0:
160,256,66230,1,0,0:0:0:0:
416,256,66330,1,8,0:0:0:0:
416,256,66530,1,8,0:0:0:0:
224,288,66730,1,0,0:0:0:0:
384,256,66830,1,8,0:0:0:0:
192,288,66930,1,0,0:0:0:0:
448,256,67030,1,8,0:0:0:0:
416,288,67130,1,8,0:0:0:0:
128,288,67230,1,0,0:0:0:0:
384,256,67430,1,8,0:0:0:0:
224,288,67530,1,0,0:0:0:0:
448,288,67630,1,8,0:0:0:0:
224,320,67730,1,0,0:0:0:0:
224,320,67830,1,0,0:0:0:0:
448,288,67930,1,8,0:0:0:0:
448,288,68130,1,8,0:0:0:0:
192,288,68330,1,0,0:0:0:0:
384,256,68430,1,8,0:0:0:0:
384,256,68530,1,8,0:0:0:0:
384,256,68630,1,8,0:0:0:0:
192,288,68730,1,0,0:0:0:0:
224,320,68930,1,0,0:0:0:0:
352,256,69030,1,8,0:0:0:0:
384,256,69230,1,8,0:0:0:0:
160,288,69330,1,0,0:0:0:0:
384,256,69430,1,8,0:0:0:0:
160,288,69530,1,0,0:0:0:0:
416,256,69730,1,8,0:0:0:0:
160,288,69930,1,0,0:0:0:0:
384,256,70030,1,8,0:0:0:0:
224,288,70130,1,0,0:0:0:0:
384,256,70230,1,8,0:0:0:0:
384,256,70330,1,8,0:0:0:0:
384,256,70430,1,8,0:0:0:0:
384,256,70630,1,8,0:0:0:0:
160,288,70730,1,0,0:0:0:0:
160,288,70930,1,0,0:0:0:0:
384,256,71030,1,8,0:0:0:0:
384,256,71130,1,8,0:0:0:0:
192,288,71230,1,0,0:0:0:0:
192,288,71330,1,0,0:0:0:0:
320,256,71430,1,8,0:0:0:0:
192,288,71530,1,0,0:0:0:0:
384,256,71630,1,8,0:0:0:0:
384,256,71696,1,8,0:0:0:0:
384,256,71763,1,8,0:0:0:0:
160,288,71830,1,0,0:0:0:0:
160,288,71930,1,0,0:0:0:0:
160,256,72030,1,0,0:0:0:0:
352,224,72230,1,8,0:0:0:0:
192,256,72330,1,0,0:0:0:0:
384,256,72430,1,8,0:0:0:0:
384,256,72530,1,8,0:0:0:0:
160,256,72630,1,0,0:0:0:0:
416,256,72730,1,8,0:0:0:0:
416,256,72930,1,8,0:0:0:0:
224,288,73130,1,0,0:0:0:0:
384,256,73230,1,8,0:0:0:0:
192,288,73330,1,0,0:0:0:0:
448,256,73430,1,8,0:0:0:0:
416,288,73530,1,8,0:0:0:0:
128,288,73630,1,0,0:0:0:0:
384,256,73830,1,8,0:0:0:0:
224,288,73930,1,0,0:0:0:0:
448,288,74030,1,8,0:0:0:0:
224,320,74130,1,0,0:0:0:0:
224,320,74230,1,0,0:0:0:0:
448,288,74330,1,8,0:0:0:0:
448,288,74530,1,8,0:0:0:0:
192,288,74730,1,0,0:0:0:0:
384,256,74830,1,8,0:0:0:0:
384,256,74930,1,8,0:0:0:0:
384,256,75030,1,8,0:0:0:0:
160,288,75130,1,0,0:0:0:0:
416,288,75230,1,8,0:0:0:0:
192,256,75430,1,0,0:0:0:0:
416,256,75530,1,8,0:0:0:0:
224,288,75630,1,0,0:0:0:0:
224,288,75730,1,0,0:0:0:0:
384,288,75830,1,8,0:0:0:0:
224,288,76030,1,0,0:0:0:0:
416,288,76130,1,8,0:0:0:0:
416,288,76330,1,8,0:0:0:0:
416,288,76530,1,8,0:0:0:0:
224,320,76630,1,0,0:0:0:0:
384,288,76830,1,8,0:0:0:0:
192,320,76930,1,0,0:0:0:0:
192,320,77030,1,0,0:0:0:0:
352,288,77130,1,8,0:0:0:0:
224,288,77230,1,0,0:0:0:0:
224,288,77330,1,0,0:0:0:0:
320,288,77430,1,8,0:0:0:0:
224,320,77530,1,0,0:0:0:0:
224,320,77630,1,0,0:0:0:0:
352,288,77730,1,8,0:0:0:0:
192,288,77830,1,0,0:0:0:0:
384,288,77930,1,8,0:0:0:0:
224,320,78030,1,0,0:0:0:0:
352,288,78130,1,8,0:0:0:0:
192,288,78230,1,0,0:0:0:0:
192,288,78296,1,0,0:0:0:0:
192,288,78363,1,0,0:0:0:0:
352,288,78430,1,8,0:0:0:0:
352,288,78630,1,8,0:0:0:0:
352,288,78830,1,8,0:0:0:0:
160,288,79030,1,0,0:0:0:0:
384,256,79130,1,8,0:0:0:0:
384,256,79330,1,8,0:0:0:0:
384,256,79630,1,8,0:0:0:0:
384,256,79830,1,8,0:0:0:0:
96,288,79930,1,0,0:0:0:0:
416,288,80030,1,8,0:0:0:0:
416,288,80230,1,8,0:0:0:0:
416,288,80430,1,8,0:0:0:0:
192,288,80630,1,0,0:0:0:0:
352,288,80730,1,8,0:0:0:0:
352,288,80930,1,8,0:0:0:0:
384,256,81230,1,8,0:0:0:0:
128,288,81430,1,0,0:0:0:0:
384,288,81530,1,8,0:0:0:0:
256,192,81630,12,0,82830,0:0:0:0:
256,192,83230,12,0,84630,0:0:0:0:
160,96,84830,5,0,0:0:0:0:
352,224,85130,1,8,0:0:0:0:
128,256,85230,1,0,0:0:0:0:
416,128,85430,1,12,0:0:0:0:
96,288,85630,1,0,0:0:0:0:
384,288,85830,1,8,0:0:0:0:
192,288,85930,1,0,0:0:0:0:
384,288,86030,1,8,0:0:0:0:
384,128,86230,1,12,0:0:0:0:
160,288,86430,1,0,0:0:0:0:
384,288,86730,1,8,0:0:0:0:
128,288,86830,1,0,0:0:0:0:
384,288,87030,1,8,0:0:0:0:
128,256,87230,1,0,0:0:0:0:
384,96,87430,1,12,0:0:0:0:
192,96,87630,1,4,0:0:0:0:
96,320,87830,1,0,0:0:0:0:
352,256,87930,1,8,0:0:0:0:
160,288,88030,1,0,0:0:0:0:
320,288,88230,1,8,0:0:0:0:
320,288,88330,1,8,0:0:0:0:
160,288,88430,1,0,0:0:0:0:
352,288,88630,1,8,0:0:0:0:
160,96,88830,1,4,0:0:0:0:
128,288,89230,1,0,0:0:0:0:
320,288,89430,1,8,0:0:0:0:
128,96,89630,1,4,0:0:0:0:
96,288,89930,1,0,0:0:0:0:
96,288,90130,1,0,0:0:0:0:
96,224,90330,1,0,0:0:0:0:
96,224,90430,1,0,0:0:0:0:
128,288,91030,1,0,0:0:0:0:
160,96,91230,1,4,0:0:0:0:
384,256,91530,1,8,0:0:0:0:
128,256,91630,1,0,0:0:0:0:
192,288,91930,1,0,0:0:0:0:
384,256,92130,1,8,0:0:0:0:
224,288,92230,1,0,0:0:0:0:
224,288,92330,1,0,0:0:0:0:
384,288,92430,1,8,0:0:0:0:
160,256,92630,1,0,0:0:0:0:
384,256,92830,1,8,0:0:0:0:
384,256,93130,1,8,0:0:0:0:
384,256,93230,1,8,0:0:0:0:
384,256,93330,1,8,0:0:0:0:
288,256,93430,1,8,0:0:0:0:
352,256,93530,1,8,0:0:0:0:
160,224,93730,1,0,0:0:0:0:
384,224,93830,1,8,0:0:0:0:
160,256,93930,1,0,0:0:0:0:
384,256,94030,1,8,0:0:0:0:
192,288,94130,1,0,0:0:0:0:
416,288,94230,1,8,0:0:0:0:
128,288,94430,1,0,0:0:0:0:
352,256,94630,1,8,0:0:0:0:
192,64,94830,1,4,0:0:0:0:
384,288,95130,1,8,0:0:0:0:
160,224,95230,1,0,0:0:0:0:
160,256,95296,1,0,0:0:0:0:
160,256,95363,1,0,0:0:0:0:
352,256,95430,1,8,0:0:0:0:
160,96,95630,1,4,0:0:0:0:
160,288,95830,1,0,0:0:0:0:
160,288,95930,1,0,0:0:0:0:
96,224,96030,2,0,L|544:224,1,420
448,256,97630,1,8,0:0:0:0:
448,256,97730,1,8,0:0:0:0:
160,256,97830,1,0,0:0:0:0:
448,256,98030,1,8,0:0:0:0:
448,256,98130,1,8,0:0:0:0:
448,256,98230,1,8,0:0:0:0:
416,256,98430,1,8,0:0:0:0:
448,256,98530,1,8,0:0:0:0:
192,256,98630,1,0,0:0:0:0:
192,256,98696,1,0,0:0:0:0:
192,256,98763,1,0,0:0:0:0:
448,256,98830,1,8,0:0:0:0:
448,256,98930,1,8,0:0:0:0:
448,256,99030,1,8,0:0:0:0:
448,256,99130,1,8,0:0:0:0:
160,256,99230,1,0,0:0:0:0:
160,256,99330,1,0,0:0:0:0:
160,256,99430,1,0,0:0:0:0:
160,256,99530,1,0,0:0:0:0:
160,256,99630,1,0,0:0:0:0:
160,256,99730,1,0,0:0:0:0:
160,256,99830,1,0,0:0:0:0:
160,256,99930,1,0,0:0:0:0:
416,256,100030,1,8,0:0:0:0:
160,256,100130,1,0,0:0:0:0:
160,256,100230,1,0,0:0:0:0:
160,256,100330,1,0,0:0:0:0:
448,288,100430,1,8,0:0:0:0:
160,256,100830,1,0,0:0:0:0:
384,256,101030,1,8,0:0:0:0:
384,256,101130,1,8,0:0:0:0:
192,256,101230,1,0,0:0:0:0:
320,256,101430,1,8,0:0:0:0:
96,128,101630,1,4,0:0:0:0:
192,256,102030,1,0,0:0:0:0:
352,256,102230,1,8,0:0:0:0:
352,256,102330,1,8,0:0:0:0:
192,256,102430,1,0,0:0:0:0:
320,256,102630,1,8,0:0:0:0:
224,256,102830,1,0,0:0:0:0:
224,256,102930,1,0,0:0:0:0:
352,256,103030,1,8,0:0:0:0:
160,96,103230,1,4,0:0:0:0:
320,256,103530,1,8,0:0:0:0:
224,256,103630,1,0,0:0:0:0:
352,256,103830,1,8,0:0:0:0:
160,256,104030,1,0,0:0:0:0:
384,256,104230,1,8,0:0:0:0:
384,256,104330,1,8,0:0:0:0:
192,256,104430,1,0,0:0:0:0:
320,256,104630,1,8,0:0:0:0:
96,128,104830,1,4,0:0:0:0:
192,256,105230,1,0,0:0:0:0:
352,256,105430,1,8,0:0:0:0:
352,256,105530,1,8,0:0:0:0:
192,256,105630,1,0,0:0:0:0:
320,256,105830,1,8,0:0:0:0:
224,256,106030,1,0,0:0:0:0:
224,256,106130,1,0,0:0:0:0:
352,256,106230,1,8,0:0:0:0:
160,96,106430,1,4,0:0:0:0:
192,288,106630,1,0,0:0:0:0:
192,288,106730,1,0,0:0:0:0:
384,256,106830,1,8,0:0:0:0:
384,256,106896,1,8,0:0:0:0:
384,256,106963,1,8,0:0:0:0:
192,256,107030,1,0,0:0:0:0:
160,256,107130,1,0,0:0:0:0:
384,288,107230,1,8,0:0:0:0:
384,256,107430,1,8,0:0:0:0:
192,256,107530,1,0,0:0:0:0:
384,256,107630,1,8,0:0:0:0:
384,256,107730,1,8,0:0:0:0:
192,256,107830,1,0,0:0:0:0:
160,288,107930,1,0,0:0:0:0:
160,224,108030,1,0,0:0:0:0:
384,288,108130,1,8,0:0:0:0:
384,288,108330,1,8,0:0:0:0:
384,288,108530,1,8,0:0:0:0:
192,256,108630,1,0,0:0:0:0:
192,256,108730,1,0,0:0:0:0:
384,256,108830,1,8,0:0:0:0:
384,256,109030,1,8,0:0:0:0:
192,256,109130,1,0,0:0:0:0:
384,256,109230,1,8,0:0:0:0:
384,256,109330,1,8,0:0:0:0:
192,256,109430,1,0,0:0:0:0:
160,288,109530,1,0,0:0:0:0:
416,320,109630,1,8,0:0:0:0:
384,288,109730,1,8,0:0:0:0:
384,288,109930,1,8,0:0:0:0:
192,256,110130,1,0,0:0:0:0:
192,256,110230,1,0,0:0:0:0:
384,288,110330,1,8,0:0:0:0:
352,288,110430,1,8,0:0:0:0:
64,256,110530,1,0,0:0:0:0:
384,256,110630,1,8,0:0:0:0:
64,256,110730,1,0,0:0:0:0:
384,224,110830,1,8,0:0:0:0:
64,256,110930,1,0,0:0:0:0:
192,256,111030,1,0,0:0:0:0:
320,256,111130,1,8,0:0:0:0:
96,224,111230,1,0,0:0:0:0:
320,256,111330,1,8,0:0:0:0:
384,288,111430,1,8,0:0:0:0:
32,256,111530,1,0,0:0:0:0:
384,256,111630,1,8,0:0:0:0:
160,256,111830,1,0,0:0:0:0:
384,288,112030,1,8,0:0:0:0:
96,256,112230,1,0,0:0:0:0:
384,256,112330,1,8,0:0:0:0:
384,288,112530,1,8,0:0:0:0:
160,256,112630,1,0,0:0:0:0:
128,256,112830,1,0,0:0:0:0:
384,256,112930,1,8,0:0:0:0:
160,256,113130,1,0,0:0:0:0:
160,256,113330,1,0,0:0:0:0:
160,256,113430,1,0,0:0:0:0:
320,256,113530,1,8,0:0:0:0:
