osu file format v11

[General]
AudioFilename: All I Know (Rolling Out Mix).mp3
AudioLeadIn: 0
PreviewTime: 41260
Countdown: 1
SampleSet: Normal
StackLeniency: 0.7
Mode: 0
LetterboxInBreaks: 1

[Editor]
DistanceSpacing: 1
BeatDivisor: 4
GridSize: 4

[Metadata]
Title:All I Know (Rolling Out Mix)
TitleUnicode:All I Know (Rolling Out Mix)
Artist:Matrix & Futurebound ft. Luke Bingham
ArtistUnicode:Matrix & Futurebound ft. Luke Bingham
Creator:noneed
Version:Hard
Source:
Tags:liquid dnb
BeatmapID:211992
BeatmapSetID:74713

[Difficulty]
HPDrainRate:7
CircleSize:5
OverallDifficulty:7
ApproachRate:7
SliderMultiplier:1.6
SliderTickRate:1

[Events]
//Background and Video events
0,0,"girlinspace.jpg"
//Break Periods
//Storyboard Layer 0 (Background)
//Storyboard Layer 1 (Fail)
//Storyboard Layer 2 (Pass)
//Storyboard Layer 3 (Foreground)
//Storyboard Sound Samples
//Background Colour Transformations
3,100,163,162,255

[TimingPoints]
2682,344.827586206897,4,1,0,80,1,0

[HitObjects]
96,100,2681,6,0,P|96:148|128:196,1,80
152,244,3026,1,0,0:0:0
208,180,3199,1,0,0:0:0
264,236,3371,2,0,P|277:264|277:312,1,80
208,348,3716,1,0,0:0:0
128,348,3888,1,0,0:0:0
64,300,4061,2,0,P|40:280|32:228,2,80
172,48,4750,5,0,0:0:0
216,116,4923,1,0,0:0:0
256,48,5095,2,0,P|344:48,1,80
312,124,5440,2,0,P|392:124,1,80
364,200,5785,2,0,P|452:200,1,80
448,280,6130,1,0,0:0:0
256,352,6475,1,0,0:0:0
64,280,6819,1,0,0:0:0
256,156,7164,1,0,0:0:0
384,256,7509,6,0,P|424:220|432:188,1,80
432,116,7854,1,0,0:0:0
372,64,8026,1,0,0:0:0
312,116,8199,2,0,P|262:137|230:130,1,80
160,112,8544,1,0,0:0:0
96,64,8716,1,0,0:0:0
160,112,8888,2,0,P|124:208,1,80
96,260,9233,1,0,0:0:0
60,332,9406,1,0,0:0:0
96,260,9578,2,0,P|56:180,2,80
256,272,10268,6,0,P|340:272,2,80
256,192,10785,1,0,0:0:0
336,192,10957,1,0,0:0:0
176,192,11302,1,0,0:0:0
96,192,11475,1,0,0:0:0
96,112,11647,2,0,P|176:112,2,80
336,112,12337,2,0,P|416:112,1,80
412,192,12682,5,0,0:0:0
256,288,13026,1,0,0:0:0
100,192,13371,1,0,0:0:0
256,96,13716,2,0,P|212:176,1,80
180,240,14061,1,0,0:0:0
256,288,14233,1,0,0:0:0
332,240,14406,1,0,0:0:0
256,96,14750,2,0,P|300:176,3,80
116,312,15785,5,0,0:0:0
192,336,15957,1,0,0:0:0
256,288,16130,1,0,0:0:0
320,336,16302,2,0,P|360:340|360:340|400:316,1,80
404,240,16647,1,0,0:0:0
340,192,16819,1,0,0:0:0
260,192,16992,1,0,0:0:0
184,220,17164,2,0,P|144:244|96:240|56:216|40:172,3,160
156,68,18544,5,0,0:0:0
224,112,18716,1,0,0:0:0
260,192,18888,1,0,0:0:0
368,72,19233,2,0,P|334:98|324:132,1,80
352,208,19578,2,0,P|386:182|394:138,1,80
368,72,19923,2,0,P|284:36,1,80
217,40,20268,2,0,P|144:72,1,80
72,104,20613,1,0,0:0:0
72,104,20785,1,0,0:0:0
184,316,21302,5,0,0:0:0
256,348,21475,1,0,0:0:0
332,320,21647,1,0,0:0:0
304,244,21819,2,0,P|296:192|320:148,1,80
184,316,22337,1,0,0:0:0
208,244,22509,2,0,P|216:192|192:148,1,80
152,108,22854,1,0,0:0:0
84,68,23026,1,0,0:0:0
428,68,23371,1,0,0:0:0
256,292,23716,6,0,P|256:372,1,80
340,240,24061,2,0,P|340:320,1,80
172,240,24406,2,0,P|172:320,1,80
256,188,24750,1,0,0:0:0
80,96,25440,5,0,0:0:0
256,24,25785,1,0,0:0:0
432,96,26130,1,0,0:0:0
80,288,26819,5,0,0:0:0
256,360,27164,1,0,0:0:0
432,288,27509,1,0,0:0:0
352,16,28199,5,0,0:0:0
424,192,28544,1,0,0:0:0
352,368,28889,1,0,0:0:0
256,112,29233,1,0,0:0:0
256,192,29406,1,0,0:0:0
256,272,29578,1,0,0:0:0
108,192,29923,2,0,P|192:192,1,80
324,192,30268,2,0,P|404:192,1,80
