osu file format v13

[General]
AudioFilename: Matrix Futurebound - Magnetic Eyes (feat Baby Blue).mp3
AudioLeadIn: 1500
PreviewTime: 43426
Countdown: 0
SampleSet: Soft
StackLeniency: 0.7
Mode: 0
LetterboxInBreaks: 0
WidescreenStoryboard: 0

[Editor]
Bookmarks: 495,17046,28081,44632,66701,77736,88770,110839
DistanceSpacing: 1.7
BeatDivisor: 4
GridSize: 4
TimelineZoom: 3.299999

[Metadata]
Title:Magnetic Eyes (feat. Baby Blue)
TitleUnicode:Magnetic Eyes (feat. Baby Blue)
Artist:Matrix & Futurebound
ArtistUnicode:Matrix & Futurebound
Creator:Desperate-kun
Version:Twinsane
Source:
Tags:mao dnb drum and bass collab collaboration cut
BeatmapID:452044
BeatmapSetID:189756

[Difficulty]
HPDrainRate:7
CircleSize:4.3
OverallDifficulty:8
ApproachRate:9
SliderMultiplier:1.8
SliderTickRate:1

[Events]
//Background and Video events
0,0,"BG.png",0,0
//Break Periods
//Storyboard Layer 0 (Background)
//Storyboard Layer 1 (Fail)
//Storyboard Layer 2 (Pass)
//Storyboard Layer 3 (Foreground)
//Storyboard Sound Samples
//Background Colour Transformations
3,100,163,162,255

[TimingPoints]
495,344.827586206897,4,2,1,70,1,0
495,-133.333333333333,4,2,1,70,0,0
28081,-100,4,2,1,70,0,0
44632,-100,4,1,1,75,0,1
63943,-100,4,2,1,70,0,0
66701,-100,4,1,1,70,0,0
88770,-100,4,1,1,75,0,1
110667,-200,4,2,1,70,0,1
110839,-100,4,2,1,70,0,0

[Colours]
Combo1 : 203,171,184
Combo2 : 180,255,104
Combo3 : 125,236,255
Combo4 : 255,176,98

[HitObjects]
50,129,495,5,0,0:0:0:0:
45,158,839,1,0,0:0:0:0:
41,188,1184,1,0,0:0:0:0:
37,218,1529,1,0,0:0:0:0:
139,117,1874,5,0,0:0:0:0:
133,161,2218,1,0,0:0:0:0:
127,206,2563,1,0,0:0:0:0:
121,250,2908,1,0,0:0:0:0:
228,106,3253,5,0,0:0:0:0:
220,165,3597,1,0,0:0:0:0:
212,224,3942,1,0,0:0:0:0:
204,284,4287,1,0,0:0:0:0:
317,95,4632,5,0,0:0:0:0:
302,206,4976,1,0,0:0:0:0:
288,318,5321,1,0,0:0:0:0:
196,248,5667,1,0,0:0:0:0:
317,95,6012,1,2,0:3:0:0:
104,182,6357,6,0,P|69:253|85:309,2,135.000005149842,2|0|0,0:2|0:0|0:0,0:0:0:0:
192,149,7391,2,0,P|225:92|214:26,2,135.000005149842,2|0|0,0:0|0:0|0:0,0:0:0:0:
131,75,8426,1,0,0:0:0:0:
252,222,8770,1,0,0:0:0:0:
419,133,9115,6,0,P|478:144|523:215,2,135.000005149842,2|0|0,0:0|0:0|0:0,0:0:0:0:
433,226,10150,2,0,P|452:282|413:357,2,135.000005149842,2|0|0,0:0|0:0|0:0,0:0:0:0:
357,282,11184,1,0,0:0:0:0:
256,122,11529,1,0,0:0:0:0:
155,282,11874,5,2,0:0:0:0:
79,226,12219,2,0,P|59:282|98:357,1,135.000005149842,0|0,0:0|0:0,0:0:0:0:
231,338,12908,2,0,P|250:281|211:206,2,135.000005149842,2|0|0,0:0|0:0|0:0,0:0:0:0:
155,282,13943,1,0,0:0:0:0:
328,207,14288,1,0,0:0:0:0:
496,291,14632,6,0,P|446:318|360:290,1,135.000005149842,2|0,0:0|0:0,0:0:0:0:
256,151,15322,1,0,0:0:0:0:
139,301,15667,2,0,P|75:319|16:291,1,135.000005149842,2|0,0:0|0:0,0:0:0:0:
83,223,16357,1,0,0:0:0:0:
83,223,16701,1,0,0:0:0:0:
380,92,17046,1,4,0:0:0:0:
476,252,17391,5,0,0:0:0:0:
476,252,17563,2,0,B|409:234|409:274|341:250,1,135.000005149842,2|0,0:0|0:0,0:0:0:0:
276,184,18081,2,0,L|132:192,1,135.000005149842,2|0,0:0|0:0,0:0:0:0:
76,260,18598,2,0,P|96:320|176:352,1,135.000005149842,2|0,0:0|0:0,0:0:0:0:
168,260,19115,1,2,0:0:0:0:
235,83,19460,1,2,0:3:0:0:
349,233,19805,6,0,P|406:258|480:213,1,135.000005149842,2|0,0:0|0:0,0:0:0:0:
406,177,20322,2,0,B|400:131|400:131|384:109|384:109|376:42,1,135.000005149842,2|0,0:0|0:0,0:0:0:0:
453,75,20839,2,0,P|409:117|328:112,1,135.000005149842,2|0,0:0|0:0,0:0:0:0:
267,76,21357,1,2,0:0:0:0:
267,76,21529,2,0,L|187:77,1,67.5000025749208,2|0,0:0|0:0,0:0:0:0:
118,78,21874,1,2,0:0:0:0:
3,192,22219,1,2,0:3:0:0:
154,247,22563,6,0,B|217:248|217:248|236:255|236:255|297:256,1,135.000005149842,2|0,0:0|0:0,0:0:0:0:
354,208,23081,1,2,0:0:0:0:
354,208,23253,2,0,P|332:251|354:337,1,135.000005149842,0|0,0:0|0:0,0:0:0:0:
432,192,23943,1,0,3:0:0:0:
432,192,24115,2,0,L|429:114,1,67.5000025749208,2|0,0:0|0:0,0:0:0:0:
307,17,24632,1,2,0:0:0:0:
256,170,24977,1,2,0:3:0:0:
388,262,25322,6,0,P|439:273|505:228,1,135.000005149842,0|0,3:0|0:0,0:0:0:0:
432,192,25839,1,2,0:0:0:0:
432,192,26012,2,0,P|386:181|352:192,1,67.5000025749208,0|0,0:0|0:0,0:0:0:0:
305,238,26357,1,2,0:0:0:0:
162,314,26701,1,0,3:0:0:0:
162,314,26874,2,0,P|119:328|34:303,1,135.000005149842,2|0,0:0|0:0,0:0:0:0:
16,224,27391,1,2,0:0:0:0:
103,87,27736,1,2,0:0:0:0:
256,139,28081,6,0,L|234:323,1,180,4|0,0:0|0:0,0:0:0:0:
333,164,28598,2,0,L|321:253,1,90,0|0,1:0|0:0,0:0:0:0:
411,189,29115,6,0,L|399:278,1,90,0|0,1:0|0:0,0:0:0:0:
481,106,29460,2,0,L|492:16,2,90,0|0|0,0:0|1:0|0:0,0:0:0:0:
411,189,30150,5,0,1:0:0:0:
341,272,30495,5,0,1:0:0:0:
281,182,30667,1,0,1:0:0:0:
221,92,30839,2,0,P|151:75|51:148,1,180,0|0,1:0|0:0,0:0:0:0:
281,182,31357,2,0,P|351:199|451:126,1,180,0|0,1:0|0:0,0:0:0:0:
157,183,31874,6,0,B|142:253|142:253|161:295|161:295|146:366,1,180,0|0,1:0|0:0,0:0:0:0:
345,93,32391,2,0,B|330:163|330:163|349:205|349:205|336:265,1,180,0|0,1:0|0:0,0:0:0:0:
412,349,32908,2,0,B|446:355|446:355|508:334,1,90,0|0,1:0|0:0,0:0:0:0:
335,265,33253,1,0,1:0:0:0:
200,316,33426,1,0,1:0:0:0:
68,258,33598,6,0,P|36:168|87:90,1,180,0|0,1:0|0:0,0:0:0:0:
143,182,34115,2,0,P|193:193|241:179,1,90,0|0,1:0|0:0,0:0:0:0:
191,83,34632,6,0,P|241:94|289:80,1,90,0|0,1:0|0:0,0:0:0:0:
376,41,34977,2,0,P|419:29|463:38,2,90,0|0|0,0:0|1:0|3:0,0:0:0:0:
278,85,35667,5,0,1:0:0:0:
180,129,36012,5,0,1:0:0:0:
257,203,36184,1,0,1:0:0:0:
335,277,36357,2,0,P|422:281|484:220,1,180,0|0,1:0|0:0,0:0:0:0:
383,178,36874,2,0,P|387:90|326:28,1,180,0|0,1:0|0:0,0:0:0:0:
243,217,37391,6,0,P|231:304|284:373,1,180,0|0,1:0|0:0,0:0:0:0:
424,335,37908,2,0,P|436:248|383:179,1,180,0|0,1:0|0:0,0:0:0:0:
335,277,38426,1,2,0:3:0:0:
335,277,38598,1,0,1:0:0:0:
193,146,38770,1,0,1:0:0:0:
319,146,38943,1,0,1:0:0:0:
255,35,39115,6,0,P|137:38|77:108,1,180,0|0,1:0|0:0,0:0:0:0:
74,182,39632,2,0,L|86:271,1,90,0|0,1:0|0:0,0:0:0:0:
179,205,40150,6,0,L|191:294,1,90,0|0,1:0|0:0,0:0:0:0:
320,294,40495,2,0,L|333:205,2,90,0|0|0,3:0|1:0|3:0,0:0:0:0:
191,294,41184,5,2,0:3:0:0:
61,294,41529,5,0,1:0:0:0:
92,190,41701,1,0,1:0:0:0:
123,86,41874,1,0,1:0:0:0:
362,59,42219,1,0,1:0:0:0:
389,298,42563,1,0,1:0:0:0:
150,325,42908,1,0,1:0:0:0:
170,95,43253,5,0,0:0:0:0:
170,95,43426,1,0,0:0:0:0:
352,106,43598,1,2,3:0:0:0:
352,106,43770,1,0,0:0:0:0:
341,288,43942,1,0,3:0:0:0:
341,288,44115,1,4,0:0:0:0:
159,277,44288,1,2,3:0:0:0:
159,277,44460,1,4,0:0:0:0:
256,192,44632,6,0,L|346:189,1,90,4|0,0:0|0:0,0:0:0:0:
196,124,44977,1,8,0:0:0:0:
196,124,45150,2,0,B|105:148|105:82|18:117,1,180,2|0,0:2|0:0,0:0:0:0:
97,259,45667,2,0,L|187:256,1,90,8|0,0:0|0:0,0:0:0:0:
342,209,46012,5,2,0:2:0:0:
291,362,46184,1,2,0:2:0:0:
442,339,46357,2,0,P|480:316|495:274,1,90,8|0,0:0|0:0,0:0:0:0:
481,125,46701,1,2,0:2:0:0:
342,209,46874,1,2,0:2:0:0:
347,47,47046,1,8,0:0:0:0:
347,47,47219,1,0,0:0:0:0:
424,188,47391,6,0,P|424:237|401:279,1,90,2|0,0:2|0:0,0:0:0:0:
255,334,47736,1,8,0:0:0:0:
255,334,47908,2,0,B|322:336|322:336|348:348|348:348|440:349,1,180,2|0,0:2|0:0,0:0:0:0:
297,256,48426,2,0,L|202:255,1,90,8|2,0:0|0:2,0:0:0:0:
70,168,48770,5,2,0:2:0:0:
196,65,48943,1,2,0:0:0:0:
219,219,49115,2,0,P|172:230|131:209,1,90,8|0,0:0|0:0,0:0:0:0:
184,146,49460,1,2,0:0:0:0:
223,302,49632,1,0,0:0:0:0:
63,247,49805,1,10,0:0:0:0:
135,34,49977,1,0,0:0:0:0:
135,34,50063,1,0,0:0:0:0:
135,34,50150,6,0,L|235:42,1,90,4|0,0:2|0:0,0:0:0:0:
364,124,50495,2,0,L|264:132,1,90,8|0,0:0|0:0,0:0:0:0:
417,55,50839,1,2,0:2:0:0:
366,209,51012,1,0,0:0:0:0:
366,209,51184,2,0,P|363:258|384:303,1,90,8|0,0:0|0:0,0:0:0:0:
225,351,51529,6,0,P|240:309|237:264,1,90
124,148,51874,1,8,0:0:0:0:
124,148,52046,2,0,B|216:184|200:132|300:160,1,180,2|0,0:2|0:0,0:0:0:0:
437,246,52563,2,0,P|398:283|355:289,1,90,8|0,0:0|0:0,0:0:0:0:
372,127,52908,6,0,P|396:79|435:59,1,90,2|0,0:2|0:0,0:0:0:0:
366,209,53253,1,8,0:0:0:0:
219,139,53426,1,0,0:0:0:0:
219,139,53512,1,0,0:0:0:0:
219,139,53598,2,0,B|209:98|209:98|222:47,1,90,2|0,0:2|0:0,0:0:0:0:
286,202,53943,2,0,B|296:243|296:243|283:294,1,90,8|0,0:0|0:0,0:0:0:0:
193,360,54288,6,0,P|147:361|101:334,1,90
16,208,54632,2,2,B|74:222|74:222|95:220|95:220|147:232,1,135,8|0,0:0|0:0,0:0:0:0:
202,281,54977,1,2,0:0:0:0:
116,142,55150,1,2,0:0:0:0:
116,142,55236,1,0,0:0:0:0:
116,142,55322,2,0,L|122:44,1,90,8|0,0:0|0:0,0:0:0:0:
281,79,55667,6,2,B|278:147|278:147|290:180|290:180|286:271,1,180,4|8,0:2|0:0,0:0:0:0:
157,355,56184,2,2,P|221:306|334:342,1,180,2|0,0:2|0:0,0:0:0:0:
157,355,56701,2,2,L|64:337,1,90,8|2,0:0|0:0,0:0:0:0:
104,179,57046,6,0,P|117:221|108:264,1,90,0|2,0:0|0:2,0:0:0:0:
162,111,57391,2,0,P|153:67|166:25,1,90,8|0,0:0|0:0,0:0:0:0:
328,7,57736,1,2,0:2:0:0:
251,150,57908,1,0,0:0:0:0:
386,68,58081,2,0,L|481:69,1,90,8|0,0:0|0:0,0:0:0:0:
362,180,58426,6,2,B|323:106|375:93|328:7,1,180,6|8,0:2|0:0,0:0:0:0:
251,150,58943,2,2,P|291:180|412:130,1,180,2|0,0:2|0:0,0:0:0:0:
259,71,59460,2,2,P|225:74|180:120,1,90,8|2,0:0|0:0,0:0:0:0:
130,262,59805,6,0,L|110:162,1,90,2|0,0:2|0:0,0:0:0:0:
245,267,60150,2,0,L|227:355,1,90,8|0,0:0|0:0,0:0:0:0:
190,196,60495,1,2,0:0:0:0:
342,141,60667,1,2,0:2:0:0:
364,301,60839,2,2,P|412:299|459:259,1,90,10|0,0:0|0:0,0:0:0:0:
470,156,61184,6,0,L|461:56,1,90,4|0,0:2|0:0,0:0:0:0:
306,113,61529,2,0,L|314:202,1,90,8|0,0:0|0:0,0:0:0:0:
369,355,61874,1,2,0:2:0:0:
403,197,62046,1,0,0:0:0:0:
247,247,62219,1,8,0:0:0:0:
404,282,62391,1,0,0:0:0:0:
404,282,62477,1,0,0:0:0:0:
404,282,62563,6,0,L|501:276,1,90,2|0,0:2|0:0,0:0:0:0:
443,122,62908,1,8,0:0:0:0:
443,122,63081,2,2,P|389:114|321:205,1,180,2|0,0:2|0:0,0:0:0:0:
483,192,63598,2,2,P|515:154|517:104,1,90,8|0,0:0|0:0,0:0:0:0:
382,27,63943,5,2,0:0:0:0:
368,26,64115,1,0,0:0:0:0:
355,24,64287,1,0,0:0:0:0:
209,96,64460,5,2,0:0:0:0:
227,93,64632,1,0,0:0:0:0:
245,91,64804,1,0,0:0:0:0:
380,180,64977,5,2,0:0:0:0:
353,176,65149,1,0,0:0:0:0:
326,173,65321,1,0,0:0:0:0:
190,264,65495,5,2,0:0:0:0:
231,258,65667,1,0,0:0:0:0:
271,254,65839,1,0,0:0:0:0:
396,357,66012,5,2,0:0:0:0:
335,348,66184,1,0,0:0:0:0:
275,342,66356,1,0,0:0:0:0:
326,173,66528,5,2,0:0:0:0:
353,176,66615,1,0,0:0:0:0:
380,180,66701,2,0,L|482:189,1,90,4|0,0:2|0:0,0:0:0:0:
355,303,67046,2,0,L|265:295,1,90,8|0,0:0|0:0,0:0:0:0:
126,209,67391,2,0,P|173:257|141:366,1,180,2|8,0:2|0:0,0:0:0:0:
87,293,67908,1,0,0:0:0:0:
231,203,68081,6,0,P|243:156|231:101,1,90,2|0,0:2|0:0,0:0:0:0:
174,64,68339,1,0,0:0:0:0:
174,64,68426,2,0,P|162:107|167:151,1,90,8|0,0:0|3:0,0:0:0:0:
307,69,68770,1,2,0:2:0:0:
384,171,68943,1,0,0:0:0:0:
470,78,69115,1,8,0:0:0:0:
381,213,69288,1,0,0:0:0:0:
307,69,69460,6,0,P|174:63|127:110,1,180,2|8,0:2|0:0,0:0:0:0:
105,169,69977,2,0,L|92:263,1,90,0|2,0:0|0:2,0:0:0:0:
237,183,70322,1,0,0:0:0:0:
146,317,70495,2,0,P|101:336|49:329,1,90,8|0,0:0|0:0,0:0:0:0:
236,309,70839,6,0,B|331:283|317:358|414:326,1,180,4|8,0:2|0:0,0:0:0:0:
407,164,71357,1,0,0:0:0:0:
407,164,71443,1,0,0:0:0:0:
407,164,71529,2,0,P|377:208|377:263,1,90,2|0,0:2|0:0,0:0:0:0:
463,238,71874,1,8,0:0:0:0:
458,76,72046,1,0,0:0:0:0:
319,161,72219,6,0,P|269:172|215:168,1,90,2|0,0:2|0:0,0:0:0:0:
87,94,72563,2,0,P|130:83|175:84,1,90,8|0,0:0|0:0,0:0:0:0:
158,245,72908,2,0,P|157:289|167:333,1,90,2|0,0:2|0:0,0:0:0:0:
320,277,73253,2,0,P|363:266|408:267,1,90,8|0,0:0|0:0,0:0:0:0:
261,350,73598,6,0,P|174:372|89:347,1,180,6|8,0:2|0:0,0:0:0:0:
122,263,74115,2,2,P|175:282|88:182,1,450,2|2,0:2|0:2,0:0:0:0:
178,193,75150,5,0,0:0:0:0:
259,155,75322,2,0,P|318:138|439:168,1,180,8|2,0:0|0:2,0:0:0:0:
474,242,75839,1,0,0:0:0:0:
348,139,76012,2,0,P|337:91|351:46,1,90,8|0,0:0|0:0,0:0:0:0:
312,222,76357,6,0,P|297:268|261:295,1,90,2|0,0:2|0:0,0:0:0:0:
185,334,76701,1,8,0:0:0:0:
222,213,76874,2,0,P|190:243|147:251,1,90
56,248,77219,1,0,0:0:0:0:
147,161,77391,2,0,P|104:171|63:156,1,90,8|0,0:0|0:0,0:0:0:0:
11,80,77736,5,6,0:2:0:0:
250,38,77908,1,0,0:0:0:0:
250,38,77995,1,0,0:0:0:0:
250,38,78081,2,0,L|343:41,1,90,8|0,0:0|0:0,0:0:0:0:
426,67,78426,1,2,0:2:0:0:
443,227,78598,1,0,0:0:0:0:
294,162,78770,1,8,0:0:0:0:
455,146,78943,1,0,0:0:0:0:
455,146,79029,1,0,0:0:0:0:
455,146,79115,6,0,P|495:168|517:210,1,90,2|0,0:2|0:0,0:0:0:0:
362,259,79460,1,8,0:0:0:0:
362,259,79632,2,2,B|228:304|244:204|88:252,1,270,2|8,0:2|0:0,0:0:0:0:
220,356,80322,1,0,0:0:0:0:
220,356,80408,1,0,0:0:0:0:
220,356,80495,6,0,L|318:353,1,90,2|0,0:2|0:0,0:0:0:0:
312,191,80839,1,8,0:0:0:0:
168,266,81012,1,0,0:0:0:0:
258,132,81184,1,2,0:2:0:0:
361,259,81357,1,0,0:0:0:0:
210,197,81529,2,0,P|182:163|177:119,1,90,8|0,0:0|0:0,0:0:0:0:
308,22,81874,6,0,L|294:122,1,90,2|0,0:2|0:0,0:0:0:0:
360,259,82219,1,8,0:0:0:0:
200,283,82391,1,0,0:0:0:0:
258,132,82563,1,2,0:2:0:0:
281,292,82736,1,0,0:0:0:0:
347,145,82908,1,8,0:0:0:0:
180,164,83081,1,0,0:0:0:0:
180,164,83167,1,0,0:0:0:0:
180,164,83253,6,0,P|171:115|197:70,1,90,4|0,0:2|0:0,0:0:0:0:
271,47,83598,1,0,3:0:0:0:
243,209,83770,2,0,B|164:207|164:207|137:219|137:219|61:218,1,180,2|0,3:0|0:0,0:0:0:0:
94,53,84288,2,0,L|97:142,1,90,0|0,3:0|0:0,0:0:0:0:
50,297,84632,5,0,0:0:0:0:
50,297,84805,2,0,P|102:292|215:366,1,180,2|0,3:0|0:0,0:0:0:0:
365,312,85322,2,0,L|376:211,1,90,2|0,3:0|0:0,0:0:0:0:
265,102,85667,2,0,L|274:191,1,90,0|0,3:0|0:0,0:0:0:0:
314,33,86012,6,0,B|270:17|270:17|216:26,1,90,0|0,0:0|3:0,0:0:0:0:
93,116,86357,2,0,B|137:132|137:132|191:123,1,90,0|0,0:0|3:0,0:0:0:0:
28,66,86701,2,0,B|12:110|12:110|21:164,1,90,0|0,0:0|3:0,0:0:0:0:
111,286,87046,2,0,B|127:242|127:242|119:199,1,90,0|0,0:0|3:0,0:0:0:0:
28,322,87391,6,0,L|23:372,1,45,0|0,1:0|2:2,0:0:0:0:
111,286,87563,2,0,L|114:336,1,45,0|0,1:0|2:2,0:0:0:0:
195,190,87736,6,0,L|191:139,1,45,0|0,1:0|2:2,0:0:0:0:
278,154,87909,2,0,L|283:104,1,45,0|0,1:0|2:2,0:0:0:0:
349,256,88081,6,0,L|344:306,1,45,0|0,1:0|2:2,0:0:0:0:
432,220,88253,2,0,L|435:270,1,45,4|0,1:2|2:2,0:0:0:0:
493,113,88426,5,0,0:0:0:0:
466,96,88512,1,0,0:0:0:0:
435,90,88598,1,4,0:2:0:0:
404,96,88684,1,0,0:0:0:0:
378,112,88770,6,0,P|300:155|217:109,1,180,4|8,0:1|0:0,0:0:0:0:
96,16,89288,2,0,B|106:77|106:77|89:128|89:128|101:195,1,180,0|0,0:0|0:0,0:0:0:0:
136,349,89805,1,8,0:0:0:0:
232,219,89977,1,0,0:0:0:0:
175,66,90150,5,2,0:2:0:0:
163,227,90322,2,0,P|191:272|232:289,1,90,0|8,0:0|0:0,0:0:0:0:
385,272,90667,1,0,0:0:0:0:
232,219,90839,2,0,L|142:229,1,90,2|0,0:2|0:0,0:0:0:0:
267,125,91184,2,0,L|356:114,1,90,8|0,0:0|0:0,0:0:0:0:
190,64,91529,6,2,L|11:88,1,180,4|8,0:2|0:0,0:0:0:0:
161,149,92046,2,2,L|72:160,1,90,0|2,0:0|0:0,0:0:0:0:
118,315,92391,1,0,0:0:0:0:
229,197,92563,2,0,P|241:152|229:106,1,90,8|2,0:0|0:2,0:0:0:0:
256,271,92908,5,0,0:0:0:0:
396,190,93081,2,0,P|355:209|329:245,2,90,0|8|0,0:0|0:0|0:0,0:0:0:0:
464,42,93598,1,2,0:0:0:0:
511,196,93770,1,0,0:0:0:0:
383,95,93943,2,2,L|275:86,1,90,8|0,0:0|0:0,0:0:0:0:
212,79,94201,1,0,0:0:0:0:
212,79,94288,6,0,P|142:145|41:100,1,180,4|8,0:2|0:0,0:0:0:0:
123,58,94805,1,0,0:0:0:0:
111,219,94977,2,0,L|103:313,1,90,2|0,0:2|0:0,0:0:0:0:
218,194,95322,1,8,0:0:0:0:
256,351,95495,1,0,0:0:0:0:
294,194,95667,5,2,0:2:0:0:
408,308,95839,2,0,L|401:219,1,90,0|8,0:0|0:0,0:0:0:0:
465,69,96184,2,0,L|473:159,1,90,0|2,0:0|0:2,0:0:0:0:
356,45,96529,1,0,0:0:0:0:
256,172,96701,1,8,0:0:0:0:
156,45,96874,1,0,0:0:0:0:
208,240,97046,6,0,P|256:302|304:240,1,180,6|8,0:2|0:0,0:0:0:0:
256,82,97563,2,0,L|256:172,1,90,0|2,0:0|0:2,0:0:0:0:
356,134,97908,2,0,L|356:44,1,90,0|8,0:0|0:0,0:0:0:0:
445,269,98253,6,0,P|417:318|302:314,1,180
66,268,98770,2,0,P|123:334|207:316,1,180,8|2,0:0|0:2,0:0:0:0:
256,160,99288,1,0,0:0:0:0:
304,316,99460,1,8,0:0:0:0:
174,221,99632,1,0,0:0:0:0:
338,221,99805,6,0,P|384:205|411:176,1,90,4|0,0:2|0:0,0:0:0:0:
444,91,100150,1,8,0:0:0:0:
280,91,100322,2,0,P|234:107|207:136,1,90,0|2,0:0|0:2,0:0:0:0:
174,221,100667,1,0,0:0:0:0:
338,221,100839,1,8,0:0:0:0:
199,305,101012,6,0,P|137:302|93:188,1,180,0|0,0:0|0:0,0:0:0:0:
143,44,101529,2,0,P|150:88|138:131,1,90,8|0,0:0|0:0,0:0:0:0:
60,80,101874,1,2,0:2:0:0:
219,53,102046,1,0,0:0:0:0:
57,169,102219,2,0,P|44:213|54:260,1,90,8|0,0:0|0:0,0:0:0:0:
200,318,102563,6,2,B|251:313|251:313|315:328|315:328|381:322,1,180,4|8,0:2|0:0,0:0:0:0:
507,223,103081,2,2,B|444:228|444:228|380:213|380:213|329:218,1,180,0|0,0:0|0:0,0:0:0:0:
329,218,103512,1,0,0:0:0:0:
329,218,103598,1,8,0:0:0:0:
507,223,103770,6,2,P|450:192|443:80,1,180,0|0,0:0|0:0,0:0:0:0:
508,26,104288,1,8,0:0:0:0:
349,59,104460,1,0,0:0:0:0:
458,179,104632,1,2,0:2:0:0:
299,212,104805,1,2,0:2:0:0:
408,332,104977,1,8,0:0:0:0:
104,332,105322,6,0,P|167:318|158:218,1,180,6|8,0:2|0:0,0:0:0:0:
141,58,105839,2,0,P|78:72|87:172,1,180,0|0,0:0|0:0,0:0:0:0:
241,124,106357,2,0,P|289:110|335:113,1,90,8|0,0:0|0:0,0:0:0:0:
414,138,106701,5,0,0:0:0:0:
362,283,106874,1,0,0:0:0:0:
212,311,107046,1,8,0:0:0:0:
110,195,107219,1,0,0:0:0:0:
200,205,107391,2,0,P|246:203|296:174,1,90,2|0,0:2|0:0,0:0:0:0:
385,55,107736,2,0,P|364:95|360:140,1,90,8|0,0:0|0:0,0:0:0:0:
337,314,108081,6,0,P|358:274|362:230,2,90,4|0|8,0:2|0:0|0:0,0:0:0:0:
174,314,108598,2,0,P|153:274|150:230,2,90,0|2|0,0:0|0:2|0:0,0:0:0:0:
256,168,109115,2,0,L|256:262,1,90,8|0,0:0|0:0,0:0:0:0:
347,123,109460,5,2,3:0:0:0:
436,132,109632,1,0,3:0:0:0:
436,132,109805,1,8,0:0:0:0:
317,242,109977,1,2,3:0:0:0:
228,233,110149,1,0,3:0:0:0:
228,233,110322,1,0,0:0:0:0:
335,104,110495,1,2,3:0:0:0:
424,113,110667,1,0,0:0:0:0:
440,226,110839,5,4,0:0:0:0:
256,192,110926,12,0,113598,0:0:0:0:
