osu file format v14

[General]
AudioFilename: false alarm.mp3
AudioLeadIn: 0
PreviewTime: 42152
Countdown: 0
SampleSet: Soft
StackLeniency: 0.7
Mode: 0
LetterboxInBreaks: 0
WidescreenStoryboard: 0

[Editor]
Bookmarks: 7645,26282,44919,63556,82193,100830,119467,138105,156742,166060,177709,196346,214983
DistanceSpacing: 3
BeatDivisor: 8
GridSize: 16
TimelineZoom: 2

[Metadata]
Title:False Alarm
TitleUnicode:False Alarm
Artist:Matoma & Becky Hill
ArtistUnicode:Matoma & Becky Hill
Creator:Euny
Version:But here We are
Source:
Tags:
BeatmapID:1213837
BeatmapSetID:572940

[Difficulty]
HPDrainRate:6
CircleSize:4
OverallDifficulty:8
ApproachRate:9
SliderMultiplier:2.2
SliderTickRate:1

[Events]
//Background and Video events
0,0,"^-^.jpg",0,0
//Break Periods
//Storyboard Layer 0 (Background)
//Storyboard Layer 1 (Fail)
//Storyboard Layer 2 (Pass)
//Storyboard Layer 3 (Foreground)
//Storyboard Sound Samples

[TimingPoints]
7645,582.4111822947,4,2,0,30,1,0
7645,-250,4,2,0,30,0,0
26282,-125,4,2,0,30,0,0
30359,-90.9090909090909,4,2,0,30,0,0
30941,-125,4,2,0,30,0,0
35018,-90.9090909090909,4,2,0,30,0,0
35600,-125,4,2,0,30,0,0
44919,-83.3333333333333,4,2,0,30,0,1
46520,-66.6666666666667,4,2,0,30,0,0
46957,-83.3333333333333,4,2,0,30,0,0
48850,-66.6666666666667,4,2,0,30,0,0
49291,-83.3333333333333,4,2,0,30,0,0
51180,-66.6666666666667,4,2,0,30,0,0
51617,-83.3333333333333,4,2,0,30,0,0
55839,-66.6666666666667,4,2,0,30,0,0
56276,-83.3333333333333,4,2,0,30,0,0
58169,-66.6666666666667,4,2,0,30,0,0
58605,-83.3333333333333,4,2,0,30,0,0
60498,-66.6666666666667,4,2,0,30,0,0
60935,-83.3333333333333,4,2,0,30,0,0
63556,-125,4,2,0,30,0,0
67633,-90.9090909090909,4,2,0,30,0,0
68215,-125,4,2,0,30,0,0
76951,-90.9090909090909,4,2,0,30,0,0
77534,-125,4,2,0,30,0,0
81320,-90.9090909090909,4,2,0,30,0,0
82193,-250,4,2,0,30,0,0
100830,-125,4,2,0,30,0,0
119467,-83.3333333333333,4,2,0,30,0,1
121069,-83.3333333333333,4,2,0,30,0,0
138105,-83.3333333333333,4,2,0,30,0,1
139706,-83.3333333333333,4,2,0,30,0,0
166060,-166.666666666667,4,2,0,30,0,0
170720,-125,4,2,0,30,0,0
173049,-100,4,2,0,30,0,0
173923,-250,4,2,0,30,0,0
174505,-100,4,2,0,30,0,0
177709,-83.3333333333333,4,2,0,30,0,1
179310,-83.3333333333333,4,2,0,30,0,0
196346,-100,4,2,0,30,0,0
217862,-333.333333333333,4,2,0,30,0,0

[Colours]
Combo1 : 158,247,254
Combo2 : 255,172,199
Combo3 : 255,189,130

[HitObjects]
168,274,7645,6,0,B|127:239|127:239|192:253|192:253|246:241|246:241|308:282|358:237|333:207|298:226,1,308
333,343,9974,6,0,P|428:236|339:125,1,308
226,178,12304,6,0,B|210:140|210:140|207:213|190:257|90:270|67:174|146:201,1,264
212,300,14342,1,0,0:0:0:0:
306,220,14633,6,0,B|320:279,2,44
225,30,15507,2,0,P|249:65|247:108,1,88
116,85,16381,2,0,L|172:91,1,44
271,114,16963,6,0,B|266:200|266:200|333:177|370:206|361:260|321:225,1,220
351,109,18710,2,0,P|371:117|390:128,1,44
431,245,19293,6,0,P|442:225|457:209,1,44
512,321,19875,1,0,0:0:0:0:
400,375,20166,1,0,0:0:0:0:
317,284,20458,1,0,0:0:0:0:
217,357,20749,1,0,0:0:0:0:
180,238,21040,2,0,B|148:248|148:229|113:239,1,66
54,317,21622,5,0,0:0:0:0:
256,192,21695,12,0,25554,0:0:0:0:
409,145,26282,6,0,L|360:146,1,44
277,94,26500,2,0,P|309:77|346:75,1,66
195,119,26864,2,0,L|184:62,1,44
255,179,27155,2,0,L|216:225,1,44
99,294,27446,5,0,0:0:0:0:
99,294,27592,2,0,P|105:253|93:191,1,88
130,372,28029,2,0,L|185:366,1,44
249,291,28320,2,0,L|198:286,1,44
315,228,28611,6,0,L|271:205,1,44
402,209,28903,2,0,L|371:162,1,44
497,305,29194,2,0,B|517:336|517:336|492:230|527:155|527:155|489:124|454:150|484:190,1,308
322,276,30359,6,0,B|344:267|368:275|368:275|395:259|395:259|425:260|433:240,1,121.000003692627
234,64,30941,6,0,L|175:78,1,44
317,112,31232,1,0,0:0:0:0:
317,112,31378,1,0,0:0:0:0:
230,161,31523,2,0,L|224:212,1,44
306,236,31815,1,0,0:0:0:0:
266,318,31960,1,0,0:0:0:0:
178,351,32106,2,0,P|205:295|145:310,1,154
74,356,32688,2,0,B|67:293,1,44
56,223,32979,1,0,0:0:0:0:
50,201,33271,6,0,L|16:228,2,44
151,256,33707,1,0,0:0:0:0:
102,331,33853,2,0,P|84:315|72:297,1,44
227,290,34144,2,0,P|234:248|218:207,1,88
197,87,34581,2,0,L|194:130,2,44
285,21,35018,6,0,L|276:141,1,121.000003692627
40,96,35600,6,0,P|61:99|83:97,1,44
20,16,35891,1,0,0:0:0:0:
20,16,36037,1,0,0:0:0:0:
146,8,36183,2,0,L|144:60,1,44
196,140,36474,2,0,L|214:89,1,44
284,14,36765,6,0,L|282:66,1,44
334,146,37056,2,0,L|352:95,1,44
416,11,37347,2,0,L|414:63,1,44
466,143,37638,2,0,L|484:92,1,44
507,222,37930,6,0,B|436:245|436:202|377:225,1,132
337,359,38512,2,0,L|339:307,1,44
287,227,38803,2,0,L|269:278,1,44
199,353,39094,6,0,L|201:301,1,44
149,221,39386,2,0,L|131:272,1,44
67,356,39677,2,0,L|69:304,1,44
17,224,39968,2,0,L|-1:275,1,44
0,137,40260,6,0,P|44:142|80:167,1,88
154,241,40696,1,0,0:0:0:0:
154,241,40842,2,0,L|204:209,1,44
326,168,41133,2,0,B|353:202|353:202|358:251|390:274|390:274|280:278|280:278|294:250,1,264
445,200,42298,5,0,0:0:0:0:
349,184,42589,1,0,0:0:0:0:
250,252,42880,1,0,0:0:0:0:
99,166,43172,1,0,0:0:0:0:
74,361,43463,6,0,P|121:358|106:312,1,110
35,248,43900,1,0,0:0:0:0:
19,288,43972,1,0,0:0:0:0:
3,326,44045,1,0,0:0:0:0:
16,80,44336,2,0,B|17:52|17:52|-21:106|14:147,1,132
158,287,44919,5,0,0:0:0:0:
153,206,45064,1,0,0:0:0:0:
239,305,45210,1,0,0:0:0:0:
239,305,45356,1,0,0:0:0:0:
224,165,45501,2,0,P|233:197|231:230,1,65.9999979858399
92,106,45792,2,0,P|121:122|157:126,1,65.9999979858399
150,27,46084,5,0,0:0:0:0:
13,88,46229,2,0,P|-13:79|5:60,1,65.9999979858399
243,70,46520,6,0,P|296:34|232:29,1,165.000006294251
193,138,46957,6,0,P|220:155|252:162,1,65.9999979858399
106,89,47248,5,0,0:0:0:0:
100,181,47394,1,0,0:0:0:0:
38,46,47540,1,0,0:0:0:0:
38,46,47612,1,0,0:0:0:0:
38,46,47685,1,0,0:0:0:0:
187,75,47831,1,0,0:0:0:0:
35,127,47976,1,0,0:0:0:0:
258,32,48122,2,0,P|266:63|264:96,1,65.9999979858399
176,215,48413,5,0,0:0:0:0:
327,257,48559,2,0,P|343:233|317:216,1,65.9999979858399
114,347,48850,6,0,P|136:292|140:361,1,165.000006294251
88,213,49287,6,0,L|-7:235,1,82.5000031471254
193,211,49578,5,0,0:0:0:0:
341,248,49724,1,0,0:0:0:0:
262,322,49869,1,0,0:0:0:0:
262,322,50015,1,0,0:0:0:0:
258,161,50161,1,0,0:0:0:0:
258,161,50306,1,0,0:0:0:0:
347,332,50452,2,0,P|381:324|413:299,1,65.9999979858399
263,243,50743,5,0,0:0:0:0:
182,357,50889,2,0,P|176:324|181:291,1,65.9999979858399
359,124,51180,6,0,B|323:115|323:115|368:160|379:188|361:220|328:195,1,165.000006294251
251,68,51617,6,0,L|315:38,1,65.9999979858399
199,193,51908,5,0,0:0:0:0:
280,166,52053,1,0,0:0:0:0:
280,166,52126,1,0,0:0:0:0:
280,166,52199,1,0,0:0:0:0:
124,148,52345,1,0,0:0:0:0:
182,275,52490,1,0,0:0:0:0:
353,194,52636,1,0,0:0:0:0:
228,37,52781,2,0,P|233:65|231:110,1,65.9999979858399
0,4,53073,5,0,0:0:0:0:
0,4,53218,1,0,0:0:0:0:
13,229,53364,1,0,0:0:0:0:
205,128,53509,1,0,0:0:0:0:
136,238,53655,2,0,P|133:206|138:173,1,65.9999979858399
219,255,53946,1,0,0:0:0:0:
165,315,54092,1,0,0:0:0:0:
112,375,54237,6,0,P|91:351|85:319,1,65.9999979858399
249,333,54529,1,0,0:0:0:0:
249,333,54675,1,0,0:0:0:0:
195,211,54820,2,0,P|162:218|97:194,1,98.9999969787599
74,146,55111,2,0,L|142:132,1,65.9999979858399
341,97,55403,5,0,0:0:0:0:
193,29,55548,2,0,P|186:56|214:54,1,65.9999979858399
435,149,55839,6,0,P|434:214|384:171,1,165.000006294251
419,2,56276,6,0,L|416:88,1,65.9999979858399
342,20,56567,1,0,0:0:0:0:
413,118,56713,1,0,0:0:0:0:
314,100,56858,1,0,0:0:0:0:
314,100,56931,1,0,0:0:0:0:
314,100,57004,1,0,0:0:0:0:
363,176,57149,1,0,0:0:0:0:
235,87,57295,1,0,0:0:0:0:
313,242,57441,2,0,P|341:258|374:260,1,65.9999979858399
281,169,57732,5,0,0:0:0:0:
202,351,57878,2,0,P|180:332|200:308,1,65.9999979858399
112,85,58169,6,0,B|109:110|138:137|138:137|124:189|124:189|93:142,1,165.000006294251
256,73,58606,6,0,P|224:77|191:72,1,65.9999979858399
332,23,58897,5,0,0:0:0:0:
337,156,59043,1,0,0:0:0:0:
249,29,59188,1,0,0:0:0:0:
249,29,59334,1,0,0:0:0:0:
407,105,59480,1,0,0:0:0:0:
407,105,59625,1,0,0:0:0:0:
263,194,59771,2,0,P|255:161|259:128,1,65.9999979858399
412,187,60062,5,0,0:0:0:0:
323,297,60208,2,0,B|280:273|280:273|301:271,1,65.9999979858399
415,378,60499,2,0,B|426:258|426:258|391:306,1,165.000006294251
500,361,60935,2,0,L|507:289,1,65.9999979858399
512,145,61226,6,0,L|482:212,1,65.9999979858399
370,125,61518,2,0,L|446:120,1,65.9999979858399
430,268,61809,2,0,L|403:207,1,65.9999979858399
295,36,62100,2,0,P|294:65|267:54,1,65.9999979858399
512,65,62391,5,0,0:0:0:0:
393,12,62537,1,0,0:0:0:0:
393,12,62610,1,0,0:0:0:0:
393,12,62682,1,0,0:0:0:0:
331,120,62828,2,0,B|264:146|264:102|191:121,1,131.99999597168
331,238,63265,1,0,0:0:0:0:
372,230,63337,1,0,0:0:0:0:
408,207,63410,1,0,0:0:0:0:
431,171,63483,1,0,0:0:0:0:
437,129,63556,6,0,L|453:217,1,88
484,338,63993,1,0,0:0:0:0:
484,338,64138,2,0,L|440:338,1,44
346,159,64430,2,0,L|351:209,1,44
246,116,64721,6,0,L|290:107,1,44
358,44,65012,2,0,L|312:35,1,44
168,28,65303,2,0,P|164:49|166:71,1,44
229,177,65594,2,0,P|232:156|230:134,1,44
68,158,65886,6,0,B|113:168|102:142|154:151,1,88
36,236,66322,1,0,0:0:0:0:
35,236,66468,2,0,P|-7:189|-8:125,1,132
115,223,67050,1,0,0:0:0:0:
115,223,67196,2,0,P|117:245|112:267,2,44
80,343,67633,6,0,P|109:348|139:346,1,60.5000018463135
285,241,67924,1,0,0:0:0:0:
285,241,68070,1,0,0:0:0:0:
214,107,68215,6,0,P|197:146|207:189,1,88
372,257,68652,1,0,0:0:0:0:
372,257,68798,2,0,L|351:312,1,44
427,181,69089,2,0,L|444:235,1,44
445,101,69380,6,0,L|399:84,1,44
311,23,69671,2,0,L|326:75,1,44
192,64,69962,2,0,L|240:72,1,44
103,144,70254,2,0,L|149:136,1,44
74,225,70545,6,0,P|36:202|18:163,1,88
156,210,70982,1,0,0:0:0:0:
156,210,71127,2,0,P|153:258|129:293,1,88
113,23,71710,6,0,L|66:32,2,44
187,70,72147,1,0,0:0:0:0:
309,30,72292,2,0,L|261:39,1,44
378,82,72583,1,0,0:0:0:0:
378,82,72729,1,0,0:0:0:0:
512,20,72875,6,0,P|475:26|498:55,1,88
385,0,73311,1,0,0:0:0:0:
385,0,73457,1,0,0:0:0:0:
457,277,73748,2,0,L|441:328,1,44
317,302,74039,6,0,P|371:304|338:261,1,132
219,205,74622,2,0,L|227:248,1,44
233,77,74913,1,0,0:0:0:0:
226,49,75204,6,0,B|180:67|181:43|131:53,1,88
150,210,75641,1,0,0:0:0:0:
150,210,75787,2,0,P|162:153|150:120,1,88
89,275,76369,2,0,P|113:291|130:296,2,44
209,268,76806,1,0,0:0:0:0:
57,200,76951,6,0,P|31:216|13:240,1,60.5000018463135
135,371,77243,1,0,0:0:0:0:
135,371,77388,1,0,0:0:0:0:
273,212,77534,6,0,P|291:251|288:294,1,88
195,184,77971,1,0,0:0:0:0:
195,184,78117,2,0,L|145:194,1,44
256,106,78408,2,0,L|205:95,1,44
346,89,78699,6,0,L|326:48,1,44
430,141,78990,2,0,L|444:97,1,44
374,228,79281,2,0,L|354:185,1,44
430,310,79573,2,0,L|452:273,1,44
382,377,79863,6,0,P|351:346|348:303,1,88
505,236,80300,1,0,0:0:0:0:
505,236,80446,2,0,L|401:237,1,88
260,30,81028,1,0,0:0:0:0:
262,75,81100,1,0,0:0:0:0:
246,118,81173,1,0,0:0:0:0:
214,150,81246,1,0,0:0:0:0:
170,166,81320,6,0,L|126:163,1,30.2500009231568
212,253,81465,2,0,L|249:269,1,30.2500009231568
327,170,81611,2,0,L|319:199,1,30.2500009231568
416,291,81756,2,0,L|406:262,1,30.2500009231568
364,60,81902,5,0,0:0:0:0:
417,56,81974,1,0,0:0:0:0:
463,83,82047,1,0,0:0:0:0:
485,132,82120,1,0,0:0:0:0:
476,184,82193,5,0,0:0:0:0:
