osu file format v5

[General]
AudioFilename: 2-04 These Hard Times.mp3
AudioLeadIn: 1500
PreviewTime: -1
Countdown: 0
SampleSet: Soft
StackLeniency: 0.7
Mode: 0
LetterboxInBreaks: 1
EditorBookmarks: 154788

[Metadata]
Title:These Hard Times
Artist:Matchbox Twenty
Creator:Seibei4211
Version:Normal
Source:
Tags:

[Difficulty]
HPDrainRate:5
CircleSize:5
OverallDifficulty:5
SliderMultiplier:1.3
SliderTickRate:1

[Events]
//Background and Video events
0,0,"Matchbox Twenty Pic.png"
//Break Periods
2,40732,50184
2,59881,66141
2,91796,101248
2,117648,122311
//Storyboard Layer 0 (Background)
//Storyboard Layer 1 (Failing)
//Storyboard Layer 2 (Passing)
//Storyboard Layer 3 (Foreground)
//Storyboard Sound Samples
//Background Colour Transformations
3,100,163,162,255

[TimingPoints]
320,638.300000000002,4,2,0,70

[HitObjects]
96,96,320,1,2
151,130,639,1,0
205,94,958,1,2
260,127,1277,1,0
316,94,1596,1,2
352,147,1915,1,0
296,181,2234,1,2
166,190,2873,5,2
214,233,3192,1,0
262,190,3511,1,2
305,237,3830,1,0
350,191,4149,1,2
396,236,4468,1,0
352,284,4788,1,2
222,288,5426,5,2
157,285,5745,1,0
188,228,6064,1,2
222,172,6383,1,0
156,173,6703,1,2
188,116,7022,1,0
188,51,7341,1,2
317,61,7979,5,2
384,64,8298,1,0
349,119,8617,1,2
317,175,8937,1,0
381,174,9256,1,2
348,119,9575,1,0
316,62,9894,1,6
203,126,10532,6,0,B|203:230,1,97.5
300,225,11490,1,0
300,354,12128,1,0
170,355,12766,2,0,B|170:216,1,130
224,65,14362,5,0
263,116,14681,1,0
303,165,15000,1,0
261,215,15320,1,0
222,265,15639,1,0
223,200,15958,2,0,B|223:127,1,65
106,192,16915,5,0
170,193,17234,1,0
235,192,17554,1,0
299,192,17873,2,0,B|299:276,2,65
299,127,18830,1,4
79,192,20745,6,0,B|154:192,1,65
208,193,21383,1,0
208,127,21703,2,0,B|284:127,1,65
337,127,22341,2,0,B|337:212,1,65
338,256,22979,2,0,B|288:239|265:222|249:196|217:236|184:252|155:259,1,195
214,141,24575,6,0,B|136:141,2,65
264,181,25532,1,0
316,143,25852,2,0,B|388:143,2,65
266,227,26969,1,0
266,227,27128,1,0
201,228,27447,5,0
199,163,27766,2,0,B|274:163,3,65
426,161,29522,5,0
426,161,29681,1,0
361,161,30000,1,0
295,161,30320,1,0
230,160,30639,2,2,B|156:160,1,65
166,224,31277,5,0
121,177,31596,1,2
78,225,31915,1,0
121,273,32235,1,2
185,273,32554,1,0
249,273,32873,1,2
351,193,33511,5,2
352,128,33830,1,0
352,63,34149,1,2
286,63,34469,1,0
286,127,34788,1,2
288,191,35107,1,0
223,192,35426,1,2
93,192,36064,5,2
93,256,36383,1,0
158,256,36703,1,2
158,191,37022,1,0
93,191,37341,5,2
93,255,37660,1,0
157,257,37979,1,2
287,257,38618,5,2
288,192,38937,1,0
288,127,39256,1,2
340,88,39575,1,0
390,128,39894,1,2
391,192,40213,1,0
391,256,40532,1,6
83,192,51384,6,0,B|186:192,1,97.5
278,192,52341,2,0,B|278:326,1,130
408,322,53618,2,0,B|408:184,1,130
81,95,55213,5,0
81,159,55532,1,0
79,224,55852,2,0,B|79:290,2,65
80,158,56809,1,2
275,160,57767,6,0,B|275:233,3,65
339,224,59043,6,0,B|406:224,2,65
395,97,67341,6,0,B|395:170,1,65
330,160,67979,2,0,B|192:160,1,130
135,171,68937,1,2
97,224,69256,5,4
226,224,69894,1,4
352,224,70533,1,4
352,288,70852,5,0
287,289,71171,1,0
287,224,71490,2,0,B|287:121,1,97.5
189,127,72447,1,4
189,257,73086,2,0,B|332:257,1,130
383,256,74043,1,4
212,160,75001,5,0
147,160,75320,2,0,B|129:209|162:224|167:245|152:288,2,130
339,128,77554,5,0
340,192,77873,2,0,B|299:174|274:156|236:188|205:191,2,130
144,192,80107,5,0
208,192,80426,2,0,B|224:160|258:144|303:160|318:207,2,130
206,257,82022,5,2
270,257,82341,1,0
317,212,82660,1,2
269,167,82979,1,0
203,167,83299,1,2
204,102,83618,1,0
268,102,83937,1,2
397,103,84575,5,2
354,53,84894,1,0
397,103,85213,1,2
440,54,85533,1,0
397,103,85852,1,2
399,167,86171,1,0
397,103,86490,1,2
267,96,87128,5,2
268,160,87447,1,0
210,129,87767,1,2
210,193,88086,1,0
153,161,88405,1,2
153,225,88724,1,0
96,193,89043,1,2
226,191,89682,5,2
281,225,90001,1,0
281,160,90320,1,2
337,192,90639,1,0
337,127,90958,1,2
392,160,91277,1,0
393,95,91596,1,6
128,192,102448,6,0,B|149:154|180:142|223:131|248:132,1,130
302,133,103405,2,0,B|348:140|364:146|400:168|424:205,4,130
237,133,106277,5,0
237,133,106596,1,0
194,182,106916,1,0
239,228,107235,1,0
239,228,107554,1,0
285,182,107873,1,4
90,191,108831,5,0
90,191,109150,1,0
89,126,109469,1,0
153,126,109788,1,0
153,126,110107,1,0
155,190,110426,1,4
415,192,111703,5,0
415,192,112022,1,0
350,192,112341,1,4
154,192,113299,1,0
154,192,113618,1,4
348,192,114575,1,4
256,192,114894,12,0,117448
84,97,123511,1,4
214,97,124150,2,0,B|214:238,1,130
278,225,125107,1,4
473,223,126065,6,0,B|380:223,1,65
278,224,127022,2,2,B|278:80,1,130
94,160,128618,5,2
95,224,128937,2,0,B|229:224,2,130
290,224,131171,5,2
290,159,131490,1,2
160,160,132128,1,4
256,192,132767,12,0,135639
128,160,136277,5,0
258,160,136916,1,0
387,160,137554,1,0
387,160,137873,1,0
387,160,138192,1,4
387,290,138831,5,0
257,288,139469,1,0
127,288,140107,1,0
127,288,140426,1,0
127,288,140746,1,4
256,288,141384,5,0
255,158,142022,1,0
125,160,142660,1,0
125,160,142980,1,0
125,160,143299,1,4
254,159,143937,5,0
383,160,144575,1,0
252,158,145214,1,0
252,158,145533,1,0
252,158,145852,1,4
254,287,146490,5,0
162,194,147129,1,0
253,101,147767,1,0
253,101,148086,1,0
253,101,148405,1,4
255,165,148724,5,0
255,165,149043,1,0
256,230,149363,1,0
256,230,149682,1,0
256,294,150001,1,0
256,294,150320,1,0
311,260,150639,5,4
362,220,150958,5,0
362,220,151277,1,0
363,154,151597,1,0
363,154,151916,1,0
298,152,152235,1,0
298,152,152554,1,0
233,152,152873,5,4
256,192,153192,12,2,154788
