osu file format v5

[General]
AudioFilename: 08 Mad Season.mp3
AudioLeadIn: 0
PreviewTime: -1
Countdown: 1
SampleSet: Normal
StackLeniency: 0.7
Mode: 0
LetterboxInBreaks: 1

[Metadata]
Title:Mad Season
Artist:Matchbox Twenty
Creator:LuigiHann
Version:Normal
Source:
Tags:

[Difficulty]
HPDrainRate:5
CircleSize:5
OverallDifficulty:5
SliderMultiplier:1.4
SliderTickRate:2

[Events]
//Background and Video events
0,0,"178271_1_f.jpg"
//Break Periods
2,33556,41687
2,89097,97579
2,150614,158880
//Storyboard Layer 0 (Background)
//Storyboard Layer 1 (Failing)
//Storyboard Layer 2 (Passing)
//Storyboard Layer 3 (Foreground)
//Storyboard Sound Samples
//Background Colour Transformations
3,100,163,162,255

[TimingPoints]
1593,705.882352941176,4,1,0,100
72170,697.682352941174,4,1,0,100
88914,705.841618497113,4,1,0,100
122790,690.478118497105,4,1,0,100

[HitObjects]
120,88,11475,1,0
240,64,12181,1,0
360,96,12887,2,0,B|402:106|416:168,1,70
400,264,13945,6,0,B|370:215|328:264,1,70
336,312,14651,2,0,B|288:336|256:288,1,70
224,256,15357,2,0,B|192:216,1,35
72,136,16416,5,4
56,272,17122,5,0
184,280,17828,1,0
232,160,18534,2,0,B|265:118|320:160,1,70
400,64,19592,5,0
440,112,19945,1,0
392,152,20298,1,0
440,192,20651,1,0
440,192,20828,1,0
408,248,21181,1,0
264,304,22063,6,0,B|224:320|184:288|152:256|136:224,1,140
120,72,24181,5,0
184,72,24534,1,0
368,72,25592,1,0
304,72,25945,1,0
160,192,27004,5,0
224,192,27357,1,0
288,192,27710,1,0
352,192,28063,1,4
288,192,28416,1,0
224,192,28769,1,0
160,192,29122,1,0
120,312,29828,5,0
232,248,30534,1,0
136,160,31240,1,0
184,120,31592,1,0
232,80,31945,1,0
360,80,32651,2,0,B|426:121|416:224,1,140
112,296,42887,6,0,B|64:304|48:264,2,70
176,288,43945,2,0,B|256:256,1,70
144,184,45004,5,0
184,136,45357,1,0
240,112,45710,1,0
304,96,46063,2,0,B|360:96|376:152,2,70
256,192,47475,12,0,48887
408,64,49592,5,0
408,128,49945,1,0
408,192,50298,1,4
280,192,51004,1,0
280,256,51357,1,0
280,320,51710,1,4
152,320,52416,5,0
152,256,52769,1,0
152,192,53122,1,4
152,128,53475,2,0,B|152:56,2,70
152,192,54534,1,4
248,272,55240,5,0
360,216,55945,1,0
472,160,56651,1,0
440,104,57004,1,0
384,72,57357,1,0
320,56,57710,2,0,B|272:64|248:96,3,70
136,136,59475,5,0
96,184,59828,1,0
72,240,60181,1,4
200,248,60887,6,4,L|240:312|304:288,1,140
360,264,61945,1,2
320,208,62298,2,4,L|400:160,2,70
280,152,63357,1,2
256,192,63710,12,2,64416
256,88,65122,5,0
256,152,65475,1,0
256,216,65828,1,2
192,328,66534,5,0
256,328,66887,1,0
320,328,67240,1,4
320,200,67945,1,0
256,200,68298,1,0
192,200,68651,1,4
88,120,69357,6,0,B|144:56,2,70
48,168,70416,1,2
88,216,70769,5,0
128,264,71122,1,0
176,304,71475,1,0
232,336,71828,1,0
416,320,72867,5,0
464,272,73216,1,0
408,232,73565,1,0
456,184,73914,1,0
408,136,74263,1,0
360,88,74611,1,0
232,72,75309,1,0
176,104,75658,1,0
112,208,76356,5,0
160,248,76704,1,0
128,304,77053,1,0
184,336,77402,1,0
304,320,78100,5,0
304,320,78274,1,0
384,264,78797,1,0
312,160,79495,1,0
312,160,79670,1,0
232,112,80193,2,0,B|176:104|128:144|112:200,1,140
152,296,81588,5,0
216,280,81937,2,0,B|296:256,1,70
344,240,82635,1,0
400,216,82984,2,0,B|456:168|448:112|408:80,1,140
296,72,84379,5,0
240,104,84728,2,0,B|160:152,1,70
128,176,85425,1,0
72,208,85774,2,0,B|24:248|32:298|96:320,1,140
256,192,87170,12,0,88911
112,80,98795,5,0
232,40,99501,1,0
352,72,100207,2,0,B|392:88|400:120,1,70
408,240,101266,6,0,B|413:289|352:304,2,70
424,176,102324,2,0,B|440:128,1,35
456,80,102854,1,0
304,40,103736,5,4
184,88,104442,5,0
88,176,105148,1,0
88,176,105324,1,0
112,288,105854,2,0,B|144:328|184:320,1,70
296,304,106912,6,0,B|344:304|344:240,1,70
280,240,107618,1,0
232,280,107971,2,0,B|192:248|152:232|145:202|150:169|184:145|230:153|232:40,1,280
360,56,110089,6,0,B|416:120,1,70
360,152,110795,2,0,B|416:216,1,70
368,256,111500,5,0
328,304,111853,1,0
288,352,112206,1,4
160,336,112912,5,0
136,312,113089,1,0
112,288,113265,1,0
64,240,113618,1,4
184,192,114324,6,0,B|272:176|256:80,1,140
224,32,115383,1,4
192,96,115735,2,0,B|200:136|232:184|304:192,1,140
384,264,117147,5,0
272,312,117853,1,0
160,256,118559,1,0
120,208,118912,1,0
256,192,119265,12,0,122088
256,224,122790,6,0,B|256:280,2,35
256,160,123480,1,2
256,96,123825,1,0
320,96,124170,6,0,B|320:56,2,35
320,160,124861,1,2
320,224,125206,2,0,B|352:296|295:354|248:304,1,140
216,288,126242,1,2
112,216,126760,6,0,B|64:176,3,35
32,152,127623,1,2
144,96,128313,5,0
208,96,128659,1,0
272,96,129004,1,4
376,168,129694,1,0
312,168,130040,1,0
248,168,130385,1,4
144,240,131075,1,0
208,240,131420,1,0
272,240,131766,1,4
336,240,132111,1,0
256,192,132456,12,0,133492
96,320,134528,5,0
48,272,134873,1,0
104,232,135218,1,0
56,184,135563,1,0
104,136,135909,1,0
152,88,136254,1,0
280,72,136944,1,0
336,104,137290,1,0
400,208,137980,5,0
352,248,138325,1,0
384,304,138670,1,0
328,336,139016,1,0
208,320,139706,5,0
208,320,139879,1,0
128,264,140397,1,0
200,160,141087,1,0
200,160,141260,1,0
280,112,141778,2,0,B|336:104|384:144|400:200,1,140
360,296,143159,5,0
296,280,143504,2,0,B|216:256,1,70
168,240,144194,1,0
112,216,144540,2,0,B|56:168|64:112|104:80,1,140
216,72,145921,5,0
272,104,146266,2,0,B|352:152,1,70
384,176,146956,1,0
440,208,147301,2,0,B|488:248|480:298|416:320,1,140
256,192,148855,12,0,150409
112,72,160075,6,0,B|112:168|224:160,1,140
200,96,161111,2,0,B|296:96|288:192,1,140
288,240,162147,5,0
320,296,162492,1,0
384,312,162837,1,0
440,280,163182,1,0
472,224,163528,1,0
464,160,163873,1,0
376,64,164563,6,0,B|320:200|184:144,1,210
144,144,165944,2,0,B|88:144|64:200,1,70
64,232,166635,1,4
160,312,167325,5,0
224,328,167671,1,0
288,312,168016,1,0
344,280,168361,1,0
400,248,168706,1,0
344,208,169052,1,0
280,184,169397,1,0
152,160,170087,6,0,B|96:152|64:168,2,70
272,184,171468,2,0,B|312:208|352:176,1,70
392,152,172159,1,4
480,64,172849,5,0
416,48,173194,1,0
352,48,173540,2,0,B|320:72|264:40,1,70
224,32,174230,1,0
160,40,174575,1,0
96,64,174921,1,4
80,184,175611,5,0
112,240,175956,2,0,B|128:272|176:272,1,70
232,272,176647,1,0
360,264,177337,1,0
440,168,178028,5,0
272,80,179063,1,0
96,144,180099,2,0,B|56:192|112:232,1,70
128,256,180790,5,0
304,320,181825,1,0
456,208,182861,5,0
368,112,183552,1,0
224,232,184587,1,0
56,152,185623,2,0,B|32:104|72:80,1,70
256,192,187349,12,4,189075
