osu file format v5

[General]
AudioFilename: 08 Mad Season.mp3
AudioLeadIn: 0
PreviewTime: -1
Countdown: 1
SampleSet: Normal
StackLeniency: 0.7
Mode: 0
LetterboxInBreaks: 1

[Metadata]
Title:Mad Season
Artist:Matchbox Twenty
Creator:LuigiHann
Version:Hard
Source:
Tags:

[Difficulty]
HPDrainRate:6
CircleSize:5
OverallDifficulty:6
SliderMultiplier:1.6
SliderTickRate:2

[Events]
//Background and Video events
0,0,"178271_1_f.jpg"
//Break Periods
2,32851,41837
2,89124,97753
2,150613,158685
//Storyboard Layer 0 (Background)
//Storyboard Layer 1 (Failing)
//Storyboard Layer 2 (Passing)
//Storyboard Layer 3 (Foreground)
//Storyboard Sound Samples
//Background Colour Transformations
3,100,163,162,255

[TimingPoints]
1593,705.882352941176,4,1,0,100
72170,697.682352941174,4,1,0,100
88914,705.841618497113,4,1,0,100
122790,690.478118497105,4,1,0,100

[HitObjects]
256,40,11475,5,0
256,200,12181,2,0,B|256:272,1,40
256,360,12887,1,0
256,280,13240,1,0
256,200,13592,1,4
256,120,13945,5,0
280,88,14122,1,0
304,120,14298,1,0
328,88,14475,1,0
352,120,14651,1,0
408,176,15004,1,0
360,240,15357,1,0
336,272,15534,1,0
152,192,16416,5,4
240,112,16945,6,0,B|272:80,1,40
384,192,17828,1,0
256,296,18534,1,0
256,216,18887,1,0
256,136,19240,1,4
328,168,19592,5,0
352,136,19769,1,0
392,136,19945,1,0
416,104,20122,1,0
456,104,20298,1,0
456,184,20651,1,0
456,224,20828,1,0
456,304,21181,2,0,B|456:360,1,40
296,344,22063,5,4
144,296,22769,1,0
144,296,23122,1,0
96,232,23475,1,0
96,232,23828,1,0
96,152,24181,6,0,B|96:96,1,40
96,32,24710,2,0,B|144:32,1,40
216,32,25240,1,4
296,32,25592,2,0,B|344:32,1,40
416,32,26122,2,0,B|416:80,1,40
416,152,26651,1,4
408,232,27004,5,0
408,232,27181,1,0
368,304,27534,1,0
288,320,27887,1,0
248,328,28063,1,0
208,312,28240,1,0
136,272,28592,1,0
80,208,28945,1,0
96,128,29298,5,0
128,104,29475,1,0
200,80,29828,1,0
256,136,30181,1,4
312,80,30534,1,0
368,136,30887,1,4
408,208,31240,2,0,B|408:264|344:264,1,80
280,264,31945,1,0
200,264,32298,1,0
200,264,32475,1,0
200,264,32651,1,4
96,96,42887,6,0,B|128:144,1,40
160,200,43416,1,0
224,296,43945,2,0,B|264:344|304:280,1,80
344,240,44651,1,0
392,176,45004,5,0
416,144,45181,1,0
440,112,45357,2,0,B|440:64,2,40
368,72,46063,1,0
328,72,46240,1,0
248,72,46592,1,0
256,192,46945,12,0,48887
104,96,49592,6,0,B|104:152,1,40
104,216,50122,2,0,B|104:264,3,40
104,336,51004,2,0,B|160:336,1,40
224,336,51534,2,0,B|280:336,3,40
336,304,52416,6,0,B|376:272,1,40
400,208,52945,1,4
400,128,53298,1,0
336,80,53651,2,0,B|288:48,2,40
400,128,54357,1,4
336,176,54710,6,0,B|296:200,1,40
232,232,55240,1,0
160,272,55592,1,4
88,232,55945,1,0
160,192,56298,1,4
232,152,56651,2,0,B|280:128|256:80,1,80
208,24,57357,2,0,B|160:56|192:104,1,80
232,152,58063,5,0
264,176,58240,1,0
296,200,58416,1,0
360,248,58769,1,4
256,312,59298,1,0
224,328,59475,1,0
184,312,59651,1,0
144,328,59828,1,0
64,328,60181,1,4
80,168,60887,6,0,B|128:112,1,40
128,104,61240,2,0,B|176:48,1,40
192,56,61592,2,0,B|248:56,1,40
272,56,61945,1,2
352,56,62298,6,0,B|408:104,1,40
416,104,62651,2,0,B|472:152,1,40
464,168,63003,2,0,B|464:224,1,40
464,248,63356,1,2
384,240,63710,6,0,B|336:296,1,40
336,304,64063,2,0,B|288:360,1,40
272,352,64415,2,0,B|216:352,1,40
192,352,64768,1,2
192,272,65122,6,0,B|136:224,1,40
128,224,65475,2,0,B|72:176,1,40
80,160,65827,2,0,B|80:104,1,40
80,80,66180,1,2
160,80,66534,6,0,B|256:80,1,80
320,80,67240,1,4
440,80,67769,2,0,B|440:128,3,40
440,200,68651,1,4
360,288,69181,5,0
320,304,69358,1,0
280,320,69534,2,0,B|232:344,1,40
168,352,70063,1,0
88,344,70416,1,4
88,248,70769,5,0
88,152,71122,1,0
184,152,71475,1,0
184,56,71828,1,0
424,56,72867,5,0
424,136,73216,1,0
344,136,73565,1,0
344,216,73914,1,0
344,296,74263,1,0
264,296,74611,1,0
104,304,75309,5,0
104,224,75658,1,0
104,104,76181,6,0,B|104:56,1,40
184,64,76704,1,0
264,64,77053,2,0,B|264:160,1,80
400,64,78100,6,0,B|400:112,1,40
256,192,78623,12,0,79146
120,64,79495,6,0,B|120:112,1,40
256,192,80018,12,0,81239
80,232,81588,1,0
136,288,81937,2,0,B|176:328|248:320,1,80
288,328,82635,1,0
368,312,82984,2,0,B|424:288|448:264|464:224|464:184,1,160
464,112,84030,1,4
400,64,84379,5,0
320,40,84728,1,0
240,32,85077,2,0,B|183:15|128:56,1,80
96,80,85774,2,0,B|7:143|72:248,1,160
96,288,86821,1,4
168,320,87170,5,0
248,336,87519,2,0,B|320:352|352:304,1,80
392,288,88216,1,0
440,224,88565,2,0,B|480:168|440:128,1,80
104,80,98795,5,0
264,56,99501,2,0,B|288:48|320:64,1,40
400,128,100207,1,0
424,200,100560,1,0
408,280,100913,5,0
336,312,101266,5,0
304,288,101442,1,0
272,256,101619,1,0
240,280,101795,1,0
208,304,101972,1,0
136,344,102324,2,0,B|120:376|80:328,1,40
56,280,102854,1,0
360,80,104442,6,0,B|416:112|408:168,1,80
408,216,105148,2,0,B|424:240|400:256,2,40
344,152,105854,2,0,B|320:104|256:112,1,80
200,104,106560,5,4
144,160,106912,6,0,B|120:200,1,40
112,232,107265,2,0,B|136:272,2,40
216,288,108148,2,0,B|288:248|344:216|288:168|256:112|272:64|320:32,1,280
448,88,110089,5,0
448,88,110442,1,0
408,160,110795,1,0
408,160,111148,1,0
336,192,111500,6,0,B|280:224|280:280,1,80
232,192,112206,2,0,B|176:224|176:280,2,80
296,144,113265,1,0
360,104,113618,2,0,B|416:72|416:16,1,80
456,112,114324,6,0,B|456:192|416:240|376:264,1,160
352,264,115206,2,0,B|312:224,1,40
368,168,115735,2,0,B|424:184|456:200|472:240|472:280,2,160
312,112,117500,5,4
256,168,117853,1,0
208,104,118206,1,4
136,144,118559,2,0,B|80:176|88:232,1,80
152,256,119265,1,0
208,312,119618,1,0
256,192,119971,12,0,121912
104,72,122789,6,0,B|112:120,3,40
120,152,123480,1,0
136,232,123825,1,2
184,296,124170,6,0,B|224:264,3,40
248,248,124861,1,0
312,192,125206,1,2
344,168,125379,2,2,B|435:129|445:169|430:197|384:184|373:130|440:88,1,200
312,72,126760,6,0,B|264:96,3,40
200,120,127623,1,2
200,120,127795,1,0
144,224,128313,5,0
200,272,128659,1,0
232,200,129004,1,4
312,288,129522,1,0
344,312,129694,1,0
368,280,129867,1,0
400,304,130040,1,0
440,232,130385,1,4
368,136,130903,5,0
336,112,131075,1,0
312,144,131248,1,0
280,120,131420,1,0
208,160,131766,1,0
136,120,132111,1,4
256,192,132456,12,4,133837
104,64,134528,5,0
144,128,134873,1,0
216,96,135218,1,0
256,168,135563,1,0
336,144,135909,1,0
384,208,136254,1,0
264,312,136944,5,0
184,312,137290,1,0
96,232,137807,5,0
104,192,137980,1,0
184,200,138325,1,0
216,128,138670,1,0
272,184,139016,1,0
376,304,139706,5,0
408,288,139879,1,0
256,192,140051,12,0,140742
128,304,141087,1,0
96,280,141260,1,0
256,192,141432,12,0,142813
464,40,143159,5,0
400,88,143504,2,0,B|384:128|440:168,1,80
472,216,144194,1,0
416,272,144540,2,0,B|376:320|320:296,3,80
264,296,145921,5,0
184,288,146266,1,0
104,272,146611,2,0,B|64:240|80:176,1,80
128,144,147301,2,0,B|169:245|280:168,1,160
296,112,148337,1,4
360,72,148682,5,0
416,128,149028,2,0,B|448:192|448:240|440:280|408:304,2,160
96,120,159730,5,0
176,104,160075,1,0
256,96,160421,2,0,B|312:88|344:112,1,80
400,144,161111,2,0,B|456:192|464:224|440:288,1,160
376,328,162147,5,0
344,344,162319,1,0
312,320,162492,1,0
248,272,162837,1,0
184,216,163182,1,0
152,184,163355,1,0
120,152,163528,1,0
64,96,163873,1,0
232,72,164563,5,0
272,72,164736,1,0
304,96,164908,1,0
328,168,165254,2,0,B|336:224|392:224,1,80
448,248,165944,2,0,B|488:296|456:344,1,80
392,344,166635,1,4
232,336,167325,5,0
176,280,167671,1,0
208,208,168016,1,0
152,152,168361,1,0
192,80,168706,1,0
216,48,168879,1,0
256,32,169052,1,0
336,48,169397,1,0
456,152,170087,5,0
472,192,170260,1,0
456,232,170432,1,0
408,296,170778,1,0
336,328,171123,1,0
264,288,171468,1,0
232,264,171641,1,0
192,272,171813,1,0
120,304,172159,1,4
72,152,172849,5,0
96,120,173022,1,0
120,88,173194,1,0
192,48,173540,2,0,B|248:32|288:64,1,80
328,112,174230,2,0,B|376:144|424:96,1,80
464,56,174921,1,0
424,208,175611,5,0
376,272,175956,1,0
344,296,176129,1,0
304,288,176302,1,0
224,256,176647,1,0
184,240,176819,1,0
144,256,176992,1,0
72,288,177337,1,0
40,256,177510,1,0
48,216,177683,1,0
96,152,178028,5,4
144,88,178373,1,0
216,56,178718,1,0
312,56,179063,1,4
376,104,179409,1,0
416,176,179754,2,0,B|424:240|376:264,2,80
256,192,180790,12,0,182171
168,312,182861,6,0,B|104:288|104:232,1,80
120,184,183552,1,4
168,120,183897,1,0
240,80,184242,1,0
320,80,184587,1,4
384,128,184933,1,0
416,200,185278,1,0
408,280,185623,1,0
376,304,185796,1,4
336,320,185968,1,4
256,192,187004,12,4,189766
