osu file format v5

[General]
AudioFilename: 04-matchbox_twenty_last_beautiful_girl.mp3
AudioLeadIn: 0
PreviewTime: -1
Countdown: 1
SampleSet: Normal
StackLeniency: 0.6
Mode: 0
LetterboxInBreaks: 1
EditorBookmarks: 8070,12070,46470,59870,80870,112870

[Metadata]
Title:Last Beautiful Girl
Artist:Matchbox Twenty
Creator:mrtn
Version:Normal
Source:
Tags:

[Difficulty]
HPDrainRate:5
CircleSize:4
OverallDifficulty:5
SliderMultiplier:0.8
SliderTickRate:1

[Events]
//Background and Video events
0,0,"mb20.jpg"
//Break Periods
2,50070,51670
2,74270,78470
//Storyboard Layer 0 (Background)
//Storyboard Layer 1 (Failing)
//Storyboard Layer 2 (Passing)
//Storyboard Layer 3 (Foreground)
//Storyboard Sound Samples
//Background Colour Transformations
3,100,163,162,255

[TimingPoints]
8070,400,4,1,0,100,1

[HitObjects]
288,112,8070,2,0,B|456:112,1,160
448,272,9670,2,0,B|288:272,2,160
88,232,12670,6,0,L|136:232,4,40
88,152,13870,1,0
88,152,14070,1,0
288,296,15270,6,0,L|456:296,1,160,0|0
448,128,16870,2,0,L|288:128,1,160,0|0
160,128,18270,5,4
160,128,18470,1,4
168,248,19070,6,0,L|208:296|240:296,2,80
88,248,20270,1,0
168,248,20670,1,0
288,248,21270,5,4
288,248,21470,1,4
288,248,21670,1,4
288,168,22070,1,4
288,168,22270,1,4
288,168,22470,1,4
128,168,23270,6,0,L|72:168,1,40,0|0
88,248,23870,1,0
88,168,24270,1,0
208,168,24870,5,4
208,248,25270,2,4,L|248:248,2,40
248,320,26070,2,4,L|192:320,2,40
152,184,27270,6,0,L|152:288|208:328,2,160,0|0|0
432,64,30470,5,0
352,64,30870,6,8,L|296:64,2,40
352,272,32270,5,0
352,272,32470,1,0
352,272,32670,1,0
352,192,33070,2,0,L|296:120,1,80
96,88,34470,6,0,L|96:232|290:232|290:79,1,480
64,328,38470,6,0,L|64:280,3,40
64,208,39470,1,0
64,128,39870,1,0
64,128,40070,5,4
144,128,40470,2,4,L|232:128,1,80
144,128,41270,1,4
224,128,41670,5,0
224,128,41870,1,0
224,128,42070,2,0,L|224:184,1,40
224,248,42670,1,0
304,248,43070,1,0
72,72,44670,6,0,L|40:48,2,40
136,120,45470,1,0
200,176,45870,1,0
200,296,46470,6,0,L|280:296,1,80,0|0
280,296,47070,1,0
280,256,47270,2,0,L|280:216,1,40,0|0
240,208,47670,6,0,L|240:128,1,80
240,88,48270,2,0,L|184:88,1,40
160,88,48670,2,0,L|160:32,2,40
160,128,49270,6,0,L|72:128,1,80
80,128,49870,1,0
80,80,52870,6,0,L|160:80,1,80
240,80,53670,2,0,L|288:80,1,40,0|0
320,80,54070,6,0,L|360:80,1,40,0|0
384,104,54470,2,0,L|432:168,1,80
432,248,55270,2,0,L|432:344,1,80
432,328,55870,1,0
352,328,56270,1,0
128,288,57270,5,0
128,208,57670,1,0
128,208,57870,1,0
208,208,58270,1,0
208,128,58670,1,0
184,288,60070,5,0
184,288,60270,2,0,B|184:192,1,80
184,208,60870,1,0
184,88,61470,2,0,L|280:88,1,80
344,88,62270,2,0,L|344:168,1,80
344,288,63270,1,0
344,288,63470,1,0
264,288,63870,1,0
264,288,64070,1,0
104,288,64870,5,0
104,288,65070,2,0,L|104:208,1,80
104,208,65870,1,0
104,128,66270,6,0,L|48:128,2,40
184,128,67070,1,0
184,128,67270,1,0
304,136,67870,5,0
384,136,68270,1,0
384,216,68670,1,0
304,216,69070,1,0
216,136,69670,5,0
216,136,69870,1,0
216,216,70270,1,0
216,216,70470,1,0
56,224,71270,6,0,L|56:272,1,40
56,344,71870,1,0
136,344,72270,1,0
216,344,72670,5,0
216,344,72870,1,0
216,344,73070,1,0
216,344,73270,2,0,L|384:344,1,160
96,104,79670,5,4
96,184,80070,2,4,L|192:184|192:112,1,160
352,120,81670,2,4,L|352:184|448:184,2,160
136,232,84470,5,0
136,232,84670,1,0
136,232,84870,2,0,L|224:232,1,80
216,112,85870,1,0
296,112,86270,1,0
296,272,87270,6,0,L|208:272|120:272,1,160
136,144,88870,2,0,L|296:144,1,160
80,224,91070,5,0
80,224,91270,2,0,L|168:224,1,80
160,224,91870,1,0
240,224,92270,1,0
240,304,92670,1,0
448,56,94270,5,0
448,56,94470,2,0,L|368:112,1,80
382,101,95070,1,0
320,144,95470,1,0
256,192,95870,1,0
56,56,97470,5,0
56,56,97670,1,0
56,56,97870,1,0
120,104,98270,2,0,L|184:168,1,80
280,216,99270,6,0,L|280:280,2,40
272,136,100070,2,0,L|312:104,1,40
344,112,100470,6,0,L|436:112,1,80
424,192,101270,1,0
424,192,101470,2,0,L|424:248,2,40
384,192,102070,5,0
384,192,102270,1,0
304,192,102670,1,0
224,192,103070,1,0
432,336,105470,6,0,L|432:256,1,80
432,256,106070,2,0,L|376:192,1,80
320,136,106870,2,0,L|272:136,1,40
240,136,107270,2,0,L|184:200,1,80
184,232,107870,2,0,L|184:328,1,80,0|0
224,312,108470,1,0
224,312,108670,1,0
296,272,109070,5,0
296,272,109270,1,0
296,112,110070,5,0
216,112,110470,2,0,L|216:160,1,40
216,232,111070,1,0
136,232,111470,1,0
424,232,112870,5,0
424,232,113070,1,0
424,152,113470,1,0
424,152,113670,1,0
304,152,114270,1,0
224,152,114670,1,0
224,232,115070,1,0
304,232,115470,1,0
424,232,116070,1,0
424,232,116270,1,0
424,152,116670,1,0
424,152,116870,1,0
264,160,117670,5,0
264,160,117870,2,0,L|184:160,1,80
104,160,118670,1,0
104,240,119070,2,0,L|160:240,2,40,0|0|0
104,160,119870,2,0,L|104:112,1,40
216,168,120670,1,0
296,168,121070,1,0
216,168,121470,1,0
296,168,121870,1,0
376,168,122270,2,0,L|376:120,2,40
376,248,123070,2,0,L|376:288,1,40
216,288,124070,5,0
216,288,124270,1,0
216,208,124670,1,0
296,208,125070,1,0
376,208,125470,6,0,L|416:208,3,40
