osu file format v5

[General]
AudioFilename: 05back2good.mp3
AudioLeadIn: 0
PreviewTime: -1
Countdown: 1
SampleSet: Soft
StackLeniency: 0.7
Mode: 0
LetterboxInBreaks: 1
EditorBookmarks: 59994,65596,84642,91924,165026,173149,209840

[Metadata]
Title:Back 2 Good
Artist:Matchbox Twenty
Creator:Sinistro
Version:Normal
Source:
Tags:

[Difficulty]
HPDrainRate:1
CircleSize:4
OverallDifficulty:2
SliderMultiplier:1.4
SliderTickRate:1

[Events]
//Background and Video events
0,0,"background.png"
//Break Periods
2,60195,64036
2,84842,90364
2,165226,171589
//Storyboard Layer 0 (Background)
//Storyboard Layer 1 (Failing)
//Storyboard Layer 2 (Passing)
//Storyboard Layer 3 (Foreground)
//Storyboard Sound Samples
//Background Colour Transformations
3,100,163,162,255

[TimingPoints]
1742,560.160100000002,4,2,0,100,1

[HitObjects]
104,64,11264,1,0
104,136,11544,2,0,B|96:174|98:218|125:280|232:272,1,210
408,64,13505,5,0
408,136,13785,2,0,B|416:174|414:218|387:280|280:272,1,210
256,64,15465,5,2
256,64,15746,1,2
184,64,16026,2,0,B|191:127|259:161|308:140|333:73|328:40,1,210
464,224,17706,5,2
464,224,17986,1,2
392,224,18266,2,0,B|350:285|288:306|240:264|228:181|172:160|72:248,1,350,2|0
408,40,21907,5,2
312,144,22467,1,0
408,248,23028,1,2
312,352,23588,1,0
168,352,24148,5,8
168,144,24988,2,0,B|224:160|264:208|296:256|304:280|312:304,1,210,0|2
432,344,26389,5,8
447,143,27229,2,0,B|391:159|351:207|319:255|311:279|303:303,1,210,0|2
96,288,28909,5,0
96,288,29189,1,0
96,288,29469,1,2
144,160,30030,1,2
256,72,30590,1,2
376,136,31150,5,0
376,136,31430,1,0
376,208,31710,2,0,B|352:280|272:352|216:376,1,210,2|2
112,192,33391,5,0
112,192,33671,1,0
112,120,33951,2,2,B|150:62|192:37|262:43|307:51|344:136,1,280
232,208,35631,2,2,B|270:266|312:291|382:285|427:277|464:192,1,280
456,136,37032,1,0
456,136,37312,1,2
40,328,39832,6,0,B|76:279|124:277|160:336,1,140
200,192,40953,2,2,B|236:241|284:243|320:184,1,140
392,72,42073,1,8
392,280,42913,5,2
112,280,44034,1,2
112,280,44314,1,8
112,72,45154,1,2
448,328,47675,6,0,B|349:270|411:201|455:170|344:88,1,280,0|2
72,64,49915,2,0,B|122:47|191:75|208:128,1,140
336,112,51036,1,2
240,216,51596,1,2
336,320,52156,2,0,B|331:351|262:379|212:362,1,140
256,192,53136,12,2,55517
112,312,56637,5,0
192,192,57197,1,0
112,80,57758,1,2
392,80,58878,5,0
312,192,59438,1,0
392,312,59998,1,4
184,312,65600,6,0,B|237:276|257:308|267:344|336:288,1,140
384,304,66440,1,2
184,16,67840,6,2,B|216:67|273:68|304:8,2,140
248,144,69521,1,0
248,144,69801,1,2
112,176,70361,5,0
24,288,70921,2,0,B|69:350|109:352|174:344|192:280,1,210,0|2
472,272,72882,5,2
400,272,73162,1,0
328,272,73442,1,2
400,72,74282,6,0,B|381:166|264:136,1,140
160,136,75403,1,2
56,312,76243,5,0
56,312,76523,1,2
192,312,77083,1,0
328,312,77643,1,0
328,312,77923,1,2
248,112,78764,6,0,B|186:31|120:128,2,140
464,48,81284,5,0
464,184,81844,1,0
464,320,82405,1,4
256,328,83245,6,0,B|392:236|224:152,1,210
136,248,84645,1,2
80,48,91927,5,2
152,48,92207,2,0,B|152:208,1,140
288,192,93328,1,2
432,48,94168,5,2
360,48,94448,2,0,B|360:208,1,140
224,192,95568,1,2
80,336,96409,5,2
152,336,96689,2,0,B|152:176,1,140
288,192,97809,1,2
360,16,98649,5,0
360,88,98929,1,2
432,88,99209,2,0,B|432:160,1,70,0|2
504,160,99770,1,0
504,232,100050,2,2,L|504:304|432:304|432:376|360:376,1,280
16,344,102570,5,0
48,280,102850,1,0
16,216,103130,1,0
48,152,103411,1,4
224,40,104251,5,0
304,152,104811,5,0
336,216,105091,1,2
304,280,105371,1,0
336,344,105651,1,8
128,344,106491,5,2
56,224,107052,5,0
104,176,107332,1,0
152,224,107612,1,2
208,176,107892,1,8
416,192,108732,5,2
256,328,109572,6,0,B|216:360|160:320,1,70
136,296,110132,2,2,B|64:248|136:160,2,140
184,160,111813,2,0,B|216:128|272:176,1,70
312,176,112373,2,2,B|384:224|312:312,2,140
472,48,114334,5,0
400,48,114614,2,2,B|392:104|416:144|504:120,1,140
472,264,115734,1,2
336,312,116294,5,0
336,312,116574,1,0
336,240,116854,2,2,B|304:200|248:192|208:256,1,140
216,312,117695,1,0
216,312,117975,1,8
144,312,118255,5,2
144,104,119095,1,2
352,104,119935,1,2
256,200,120495,6,0,B|256:48,1,140
256,200,121616,2,0,B|256:368,1,140
143,340,122596,1,2
256,192,123016,12,4,126097
256,192,127217,5,0
256,48,127778,1,4
392,80,128338,2,0,L|392:160,3,70
392,360,130018,1,4
248,360,130578,6,0,L|152:360,4,70
104,360,132259,1,0
104,360,132539,1,4
104,216,133099,1,0
104,72,133659,2,0,B|144:160|232:160|272:48,1,210,0|4
400,80,135060,5,0
480,192,135620,1,0
400,304,136180,1,4
320,192,136740,1,0
176,192,137300,6,2,B|48:192,1,105
72,264,138000,1,0
176,264,138421,2,2,B|304:264,1,105
280,192,139121,1,0
280,88,139541,5,4
368,192,140101,1,4
280,304,140661,1,0
488,304,141501,6,0,B|488:152,1,140
488,24,142622,1,0
368,88,143182,1,2
368,160,143462,1,2
240,224,144022,5,4
96,224,144582,1,4
168,344,145142,1,4
448,344,146263,5,0
304,344,146823,1,0
304,344,147103,1,2
376,144,147943,5,0
376,280,148503,2,0,B|376:208,3,70
304,208,149624,2,2,B|304:120,3,70
160,136,151024,1,0
16,136,151584,2,0,B|0:224|64:288|160:272,1,210
256,24,153545,5,0
256,160,154105,1,2
400,304,154945,5,0
256,304,155505,1,0
112,304,156066,1,0
120,24,157186,2,2,B|256:96|408:16,1,280
400,160,158866,6,0,B|320:160,2,70
256,160,159987,1,0
112,160,160547,1,2
400,352,161947,6,2,B|400:192,1,140
400,72,163068,1,2
192,72,163908,1,0
304,248,164748,1,0
304,176,165028,1,4
256,192,173150,5,0
256,192,173431,1,2
256,192,173711,1,0
256,192,173991,1,4
48,192,174831,5,0
112,64,175391,5,0
184,64,175671,1,2
256,64,175951,1,0
328,64,176231,1,2
397,66,176511,1,4
400,208,177072,5,0
400,208,177352,1,0
328,208,177632,2,0,B|240:280|192:152|112:232,1,210
56,216,178752,1,0
56,216,179032,1,4
256,272,179872,5,2
256,272,180152,1,0
256,272,180433,1,2
256,272,180713,1,0
256,272,180993,1,4
440,64,182113,6,0,B|368:136,1,70,0|2
344,160,182673,1,0
296,208,182953,1,4
56,64,184074,5,0
56,136,184354,2,0,B|136:136|112:64|184:56,1,140
304,64,185474,1,4
232,64,185754,1,2
352,240,186594,6,0,B|424:208|440:112,1,140
504,136,187435,1,4
384,64,187995,5,0
256,112,188555,1,0
256,184,188835,2,4,B|256:288,1,70
256,320,189395,1,4
184,320,189675,2,0,B|112:320|40:280|48:168,1,210,0|4
48,48,191076,6,2,B|104:32|152:64|160:136,1,140
224,112,191916,1,4
432,112,192756,1,0
288,112,193316,1,2
360,232,193876,6,0,B|360:328,2,70
360,88,194997,1,0
360,88,195277,1,2
360,232,195837,2,0,B|360:320,2,70,0|0|0
216,232,196957,5,0
216,232,197237,1,4
144,232,197517,2,0,B|144:376,1,140
24,304,198638,1,4
24,160,199198,6,0,B|8:104|40:48|120:64,1,140,0|4
256,192,200598,5,0
256,328,201158,1,2
464,328,201999,6,2,B|480:272|448:216|368:232,1,140
400,160,202839,1,0
472,160,203119,1,2
472,16,203679,1,2
328,16,204239,1,4
256,216,205080,5,2
256,288,205360,1,2
256,360,205640,1,2
256,192,206620,12,2,209841
