osu file format v5

[General]
AudioFilename: 03AllYourReasons.mp3
AudioLeadIn: 0
PreviewTime: -1
Countdown: 2
SampleSet: Normal
StackLeniency: 0
Mode: 0
LetterboxInBreaks: 1
EditorBookmarks: 690,14206,41237,54753,61511,81784,95300,108816,122333,135849,149365

[Metadata]
Title:All Your Reasons
Artist:Matchbox Twenty
Creator:buraimaster1234
Version:Luigi Normal
Source:
Tags:

[Difficulty]
HPDrainRate:3
CircleSize:3
OverallDifficulty:4
SliderMultiplier:1
SliderTickRate:1

[Events]
//Background and Video events
0,0,"albumcover.jpg"
//Break Periods
2,108195,110689
2,112420,114069
2,115800,117448
2,119179,119349
//Storyboard Layer 0 (Background)
//Storyboard Layer 1 (Failing)
//Storyboard Layer 2 (Passing)
//Storyboard Layer 3 (Foreground)
//Storyboard Sound Samples
//Background Colour Transformations
3,100,163,162,255

[TimingPoints]
695,422.445962120679,4,1,0,100,1

[Colours]
Combo1 : 213,191,128
Combo2 : 122,179,66
Combo3 : 112,112,207
Combo4 : 170,85,85

[HitObjects]
112,48,14213,2,0,B|232:176,1,150
328,128,15480,2,0,B|448:256,1,150
344,320,16747,1,0
264,320,17170,2,0,B|208:272,1,50
136,200,18015,6,0,B|160:144|200:104|248:104|312:112,1,200,0|8
224,256,19705,2,0,B|312:288|368:272|408:240|416:216,1,200,0|8
424,152,20972,5,0
320,96,21606,1,0
216,160,22239,1,0
96,160,22873,2,0,B|96:248|144:304|208:320,1,200
280,312,24140,1,0
360,296,24563,1,0
408,184,25196,6,0,B|416:128|384:96|360:88,1,100,0|8
296,80,26041,2,0,B|224:96|216:152,2,100,0|0|0
336,152,27309,1,8
280,208,27731,6,0,B|168:312,1,150
56,264,28998,2,0,B|166:162,1,150
256,88,30266,1,0
320,136,30688,2,0,B|360:176,1,50
440,248,31533,5,4
392,312,31956,2,0,B|280:312,1,100,0|8
208,312,32800,1,0
128,312,33223,1,4
128,232,33645,2,0,B|128:128,1,100,0|8
200,104,34490,6,0,B|272:104,1,50
288,104,34913,1,8
368,104,35335,2,0,B|368:160,1,50
368,192,35758,1,8
368,272,36180,2,0,B|304:272,1,50
280,272,36602,1,8
200,272,37025,2,0,B|200:216,1,50
200,184,37447,1,8
200,104,37870,6,0,B|128:104,1,50
152,144,38292,2,0,B|152:200,1,50
152,232,38715,2,0,B|216:232,1,50
240,232,39137,2,10,B|240:296,1,50
280,280,39560,2,0,B|344:280,1,50
368,280,39982,2,0,B|368:216,1,50,0|0
368,192,40404,2,0,B|368:128,1,50,0|0
368,104,40827,2,4,B|368:64,4,25,4|4|4|4|12
288,104,41672,5,0
288,104,41883,1,0
184,104,42305,1,0
184,104,42517,1,0
184,304,43362,1,0
184,304,43573,1,0
280,304,43995,1,0
280,304,44206,1,0
280,104,45051,5,0
280,104,45263,1,0
376,104,45685,1,0
376,104,45896,1,0
376,104,46107,2,0,B|376:272,1,150
296,312,47164,2,0,B|296:192,1,100
120,304,48431,5,0
120,304,48642,1,0
120,200,49065,1,0
120,200,49276,1,0
320,200,50121,1,0
320,200,50332,1,0
320,96,50754,1,0
320,96,50966,1,0
120,96,51810,5,0
120,96,52022,1,0
120,192,52444,1,0
120,192,52655,1,0
120,192,52867,2,0,B|288:192,1,150
232,280,53923,2,0,B|344:280,1,100
400,48,54768,6,0,B|280:176,1,150
184,128,56035,2,0,B|64:256,1,150
144,288,57091,1,0
216,312,57513,1,0
296,304,57936,1,4
376,200,58570,6,0,B|352:144|312:104|264:104|200:112,1,200,0|8
288,256,60259,2,0,B|200:288|144:272|104:240|96:216,1,200,0|8
88,152,61527,5,0
192,96,62160,1,0
296,160,62794,1,0
416,160,63428,2,0,B|416:248|368:304|304:320,1,200
232,312,64695,1,0
152,296,65118,1,4
104,184,65751,6,0,B|96:128|128:96|152:88,1,100,0|8
216,80,66596,2,0,B|288:96|296:152,2,100,0|0|0
176,152,67863,1,8
232,208,68286,6,0,B|344:312,1,150
456,264,69553,2,0,B|346:162,1,150
288,104,70609,1,0
208,112,71032,1,0
72,200,71877,1,4
120,312,72510,6,0,B|232:312,1,100,0|8
304,312,73355,1,0
384,312,73778,1,4
384,232,74200,2,0,B|384:128,1,100,0|8
312,104,75045,6,0,B|240:104,1,50
224,104,75467,1,8
144,104,75890,2,0,B|144:160,1,50
144,192,76312,1,8
144,272,76735,2,0,B|208:272,1,50
232,272,77157,1,8
312,272,77580,2,0,B|312:216,1,50
312,184,78002,1,8
312,104,78425,6,0,B|384:104,1,50
360,144,78847,2,0,B|360:200,1,50
360,232,79269,2,0,B|296:232,1,50
272,232,79692,2,10,B|272:296,1,50
232,280,80114,2,0,B|168:280,1,50
144,280,80537,2,0,B|144:216,1,50
144,192,80959,2,0,B|144:128,1,50
144,104,81382,2,4,B|144:64,4,25,4|4|4|4|12
224,104,82227,5,0
224,104,82438,1,0
328,104,82860,1,0
328,104,83071,1,0
328,304,83916,1,0
328,304,84128,1,0
232,304,84550,1,0
232,304,84761,1,0
232,104,85606,5,0
232,104,85817,1,0
136,104,86240,1,0
136,104,86451,1,0
136,104,86662,2,0,B|136:272,1,150
216,312,87718,2,0,B|216:248,2,50
392,304,88986,5,0
392,304,89197,1,0
392,200,89619,1,0
392,200,89831,1,0
192,200,90675,1,0
192,200,90887,1,0
192,96,91309,1,0
192,96,91520,1,0
392,96,92365,5,0
392,96,92576,1,0
392,192,92999,1,0
392,192,93210,1,0
392,192,93421,2,0,B|224:192,1,150
280,280,94478,2,0,B|216:280,2,50
256,192,95322,12,0,100392
72,88,101237,6,0,B|72:160,1,50
72,240,101870,1,0
224,240,102504,2,0,B|280:240,1,50
320,240,102926,1,4
320,88,103560,5,2
168,88,104194,2,0,B|104:88,1,50
64,88,104616,1,4
64,240,105250,5,2
216,240,105884,2,0,B|280:240,1,50
320,240,106306,1,4
432,144,106940,5,2
280,144,107362,2,0,B|208:144,3,50
280,136,112009,6,0,B|288:168,2,25
240,176,115389,6,0,B|216:216,2,25
288,184,118768,2,0,B|320:216,2,25
256,192,120669,12,4,122359
224,280,122781,5,0
224,280,122993,1,0
328,280,123415,1,0
328,280,123626,1,0
328,80,124471,1,0
328,80,124682,1,0
232,80,125105,1,0
232,80,125316,1,0
232,280,126161,5,0
232,280,126372,1,0
136,280,126795,1,0
136,280,127006,1,0
136,280,127217,2,0,B|136:112,1,150
216,72,128273,2,0,B|216:136,2,50,0|8|8
392,80,129541,5,0
392,80,129752,1,0
392,184,130174,1,0
392,184,130385,1,0
192,184,131230,1,0
192,184,131442,1,0
192,288,131864,1,0
192,288,132075,1,0
392,288,132920,5,0
392,288,133131,1,0
392,192,133554,1,0
392,192,133765,1,0
392,192,133976,2,0,B|224:192,1,150
280,104,135032,2,0,B|216:104,2,50,0|8|8
256,192,135877,12,0,141791
