osu file format v5

[General]
AudioFilename: 03AllYourReasons.mp3
AudioLeadIn: 0
PreviewTime: -1
Countdown: 2
SampleSet: Normal
StackLeniency: 0
Mode: 0
LetterboxInBreaks: 1
EditorBookmarks: 690,14206,41237,54753,61511,81784,95300,108816,122333,135849,149365

[Metadata]
Title:All Your Reasons
Artist:Matchbox Twenty
Creator:buraimaster1234
Version:Insane
Source:
Tags:

[Difficulty]
HPDrainRate:6
CircleSize:4
OverallDifficulty:6
SliderMultiplier:0.9
SliderTickRate:1

[Events]
//Background and Video events
0,0,"albumcover.jpg"
//Break Periods
2,54544,60475
//Storyboard Layer 0 (Background)
//Storyboard Layer 1 (Failing)
//Storyboard Layer 2 (Passing)
//Storyboard Layer 3 (Foreground)
//Storyboard Sound Samples
//Background Colour Transformations
3,100,163,162,255

[TimingPoints]
695,211.222981060339,4,2,0,100,1
14213,422.445962120679,4,1,0,100,1
34490,211.222981060339,4,1,0,100,1
37869,105.61149053017,4,1,0,100,1
39981,211.222981060339,4,1,0,100,1
54766,422.445962120679,4,1,0,100,1
75043,211.222981060339,4,1,0,100,1
77577,105.61149053017,4,1,0,100,1
78421,422.445962120679,4,1,0,100,1
81800,211.222981060339,4,1,0,100,1
108836,211.222981060339,4,2,0,40,1
120664,211.222981060339,4,1,0,65,1
122353,211.222981060339,4,1,0,100,1

[Colours]
Combo1 : 213,191,128
Combo2 : 122,179,66
Combo3 : 112,112,207
Combo4 : 170,85,85

[HitObjects]
256,256,14213,2,0,B|96:256,1,135
32,128,15480,2,0,B|192:128,1,135
336,128,16747,2,0,B|480:128,1,135
496,192,17592,1,0
480,256,17803,1,0
432,304,18015,1,0
368,296,18226,1,0
336,240,18437,1,0
192,256,18859,5,8
256,144,19282,5,0
224,88,19493,1,0
160,80,19704,1,0
112,128,19916,1,0
96,192,20127,1,4
168,256,20338,1,0
264,216,20549,5,8
416,80,20972,5,0
448,208,21394,1,0
384,224,21605,1,0
464,320,22028,1,0
400,336,22239,1,0
272,336,22661,5,0
224,288,22873,1,0
272,176,23295,1,0
384,128,23718,1,0
288,48,24140,1,0
160,48,24562,2,8,B|59:55|112:160,1,135,8|4
168,208,25407,1,0
256,192,25619,5,8
336,288,26041,5,0
400,256,26252,2,4,B|494:215|416:112,1,135,4|4
352,104,27097,1,0
280,160,27308,5,8
256,320,27731,5,0
64,320,28364,1,0
208,192,28998,1,0
64,80,29632,1,0
256,80,30265,1,0
384,80,30688,1,0
448,96,30899,1,0
496,144,31110,6,0,B|496:192,1,45
448,240,31533,2,0,B|400:240,1,45
352,192,31955,2,0,B|352:144,1,45
288,128,32378,1,2
240,80,32589,1,2
176,112,32800,2,0,B|112:128,1,45
96,176,33223,2,0,B|128:224,1,45
176,256,33645,2,0,B|192:176,2,45,0|0|2
248,256,34279,1,2
368,256,34490,6,0,B|368:160,1,90,0|0
368,48,34912,2,0,B|272:48,1,90
160,48,35334,2,0,B|160:144,1,90
240,240,35757,1,2
144,304,35968,1,2
48,208,36179,6,4,B|64:112,1,90
176,64,36602,2,4,B|288:96,1,90
368,144,37024,2,4,B|432:48,1,90
480,176,37447,1,2
384,256,37658,1,2
208,288,37869,6,0,B|112:128,1,180
288,64,38291,2,0,B|464:144,1,180
416,320,38713,2,0,B|240:368,1,180,0|0
112,240,39136,2,0,B|48:64,1,180,8|8
224,64,39558,2,4,B|368:192,1,180
256,240,39981,2,4,B|256:192,4,45,4|4|4|4|4
240,176,40509,2,4,B|208:176,6,22.5
384,352,41248,5,0
288,336,41459,2,0,L|168:300|272:240|176:144,1,360
112,96,42515,2,0,L|80:80|128:32,1,90
208,64,42938,2,0,L|272:48|288:80,1,90,0|0
368,112,43360,1,2
448,64,43571,1,2
480,256,43994,5,2
400,304,44205,2,0,L|384:320|336:272,1,90,0|0
288,192,44627,2,0,L|272:176|240:240,1,90
160,304,45050,1,2
64,304,45261,1,2
64,112,45684,1,2
160,112,45895,1,2
256,112,46106,2,4,L|352:112,1,90
480,48,46740,5,0
384,48,46951,2,0,L|288:48,1,90,4|0
192,48,47373,1,0
96,48,47585,2,4,B|217:49|288:112,1,180
320,176,48218,5,0
416,192,48429,1,8
416,192,48641,1,8
192,320,49063,1,2
192,320,49274,1,2
144,240,49486,1,0
144,240,49697,1,0
96,160,49908,1,0
176,112,50119,5,8
240,176,50330,1,8
432,192,50753,1,2
480,112,50964,1,2
416,32,51175,1,0
320,64,51387,1,0
336,160,51598,1,0
256,224,51809,1,8
336,288,52020,1,8
144,304,52443,5,2
112,208,52654,1,2
208,176,52865,2,0,B|80:160,1,90,4|0
48,96,53288,1,0
144,64,53499,2,4,B|240:32,1,90
336,40,53921,2,4,B|432:72,1,90
352,136,54344,1,0
464,336,61525,5,0
432,136,62158,1,0
256,32,62792,1,0
80,136,63426,1,0
32,264,63848,1,0
160,304,64271,1,0
208,176,64693,1,0
80,136,65115,1,0
192,80,65327,5,0
256,80,65538,1,0
320,80,65749,1,0
256,192,66172,5,8
256,304,66594,5,0
320,304,66805,1,4
192,304,67228,1,0
128,304,67439,1,4
128,240,67650,1,0
64,240,67861,1,0
64,176,68073,5,8
256,192,68284,5,0
320,304,68706,1,0
384,288,68917,1,0
352,160,69340,1,0
416,144,69551,1,0
304,80,69974,5,0
240,64,70185,1,0
176,176,70607,1,0
48,160,71030,1,0
288,256,71875,1,0
384,64,73564,5,4
384,64,73987,1,4
384,64,74198,1,4
384,64,74409,1,4
384,64,74620,1,4
448,320,75043,6,0,B|256:320,1,180
64,192,75887,2,0,B|256:192,1,180,0|8
448,64,76732,2,0,B|256:64,1,180
64,192,77577,2,0,B|256:192,1,180
416,192,77999,1,8
256,288,78421,6,4,B|160:288,1,90,4|0
166,288,79054,1,4
256,208,79477,1,0
320,208,79688,1,8
320,80,80110,1,0
256,80,80322,1,4
128,80,80744,1,0
128,144,80955,1,12
256,144,81378,1,4
128,352,81800,5,0
224,336,82011,2,0,L|344:300|240:240|336:144,1,360
400,96,83067,2,0,L|432:80|384:32,1,90
304,64,83489,2,0,L|240:48|224:80,1,90,0|0
144,112,83912,1,2
64,64,84123,1,2
32,256,84545,5,2
112,304,84757,2,0,L|128:320|176:272,1,90,0|0
224,192,85179,2,0,L|240:176|272:240,1,90
352,304,85602,1,2
448,304,85813,1,2
448,112,86235,1,2
352,112,86446,1,2
256,112,86658,2,4,L|160:112,1,90
32,48,87291,5,0
128,48,87503,2,0,L|224:48,1,90,4|0
320,48,87925,1,0
416,48,88136,2,4,B|295:49|224:112,1,180
192,176,88770,5,0
96,192,88981,1,8
96,192,89192,1,8
320,320,89615,1,2
320,320,89826,1,2
368,240,90037,1,0
368,240,90248,1,0
416,160,90460,1,0
336,112,90671,5,8
272,176,90882,1,8
80,192,91305,1,2
32,112,91516,1,2
96,32,91727,1,0
192,64,91938,1,0
176,160,92149,1,0
256,224,92361,1,8
176,288,92572,1,8
368,304,92994,5,2
400,208,93206,1,2
304,176,93417,2,0,B|432:160,1,90,4|0
464,96,93839,1,0
368,64,94050,2,4,B|272:32,1,90
176,40,94473,2,4,B|80:72,1,90
160,136,94895,1,0
256,192,95318,12,0,100387
256,192,100810,5,8
352,336,101232,1,0
432,272,101443,1,0
448,176,101654,1,0
432,80,101866,2,0,B|400:32|320:96|400:208,1,180
432,272,102499,1,0
160,336,102922,1,0
80,272,103133,1,8
64,176,103344,1,8
80,80,103555,2,0,B|112:32|192:96|112:208,1,180
80,272,104189,1,0
352,336,104612,5,0
432,272,104823,1,8
448,176,105034,1,8
432,80,105245,2,0,B|400:32|320:96|400:208,1,180
432,272,105879,1,8
160,336,106301,1,8
80,272,106513,1,8
64,176,106724,1,0
80,80,106935,2,8,B|112:32|192:96|112:208,1,180,8|0
80,272,107569,1,8
176,304,107780,5,0
272,304,107991,1,0
368,304,108202,1,0
368,208,108414,1,8
368,112,108625,1,0
272,80,108836,5,0
176,64,109047,1,0
80,96,109258,1,0
32,192,109469,2,0,B|144:208|160:96,1,180
64,64,110103,1,0
32,160,110314,1,0
96,240,110525,1,0
192,256,110737,1,0
288,224,110948,1,0
352,144,111159,6,0,B|240:128|240:256,1,180
320,320,111793,1,0
416,336,112004,1,0
496,272,112215,1,0
480,176,112426,1,0
384,144,112638,1,0
288,144,112849,2,0,B|240:240|368:288,1,180
448,240,113482,5,0
448,144,113694,2,0,B|352:144,1,90
256,144,114116,2,0,B|160:144,1,90
64,144,114539,2,0,B|64:48,1,90
160,48,114961,2,0,B|256:48,1,90
352,48,115383,1,0
448,64,115595,5,0
496,144,115806,1,0
432,224,116017,1,0
352,160,116228,2,0,B|256:80|192:224,1,180
176,288,116862,1,0
240,368,117073,1,0
336,320,117284,1,0
320,224,117496,1,0
224,192,117707,1,0
144,128,117918,6,0,B|80:48|144:0|224:32,1,180
288,80,118552,1,0
368,144,118763,1,0
400,240,118974,1,0
336,320,119185,1,0
240,336,119397,1,0
144,304,119608,2,0,B|59:263|108:163|208:224,1,180
272,240,120242,5,0
368,224,120453,2,0,B|432:224|432:160,1,90
432,80,120875,2,0,B|432:16|368:16,1,90
288,16,121297,2,0,B|224:16|224:80,1,90
224,160,121720,2,0,B|224:224|160:224,1,90
80,224,122142,1,0
80,112,122353,5,4
160,48,122564,1,0
240,112,122775,1,2
320,48,122986,1,2
480,192,123409,1,2
400,272,123620,1,2
320,192,123831,1,0
240,112,124042,1,0
160,192,124254,1,0
240,272,124465,5,2
320,192,124676,1,2
160,48,125098,1,2
272,48,125310,1,2
384,48,125521,2,0,B|480:48,2,90
384,160,126155,1,2
384,160,126366,1,2
176,160,126788,1,2
176,160,126999,1,2
176,272,127211,6,4,B|176:336|112:336,1,90
64,256,127633,2,0,B|64:192|128:192,1,90
224,192,128056,2,12,B|288:192|288:128,1,90
192,96,128478,2,8,B|192:32|256:32,1,90,0|0
352,48,128900,1,0
432,128,129112,5,4
464,240,129323,1,0
368,304,129534,1,8
368,304,129745,1,8
176,192,130168,1,2
176,192,130379,1,2
272,128,130590,1,0
272,128,130801,1,0
224,32,131013,1,0
112,48,131224,5,8
64,144,131435,1,8
208,304,131858,1,2
208,304,132069,1,2
304,272,132280,1,0
400,240,132491,1,0
368,144,132702,1,0
272,176,132914,1,8
240,80,133125,1,8
48,112,133547,5,8
96,192,133759,1,8
192,224,133970,2,0,B|256:144,1,90,0|4
336,96,134392,2,0,B|432:112,1,90,0|4
464,208,134815,2,0,B|352:224,1,90,4|0
288,272,135237,2,0,B|256:176,1,90,4|0
64,192,135871,5,0
160,192,136082,1,0
256,192,136293,1,0
352,192,136504,2,0,B|368:128|368:128|352:64|352:64|368:16,1,180
160,16,137349,2,0,B|144:80|144:80|192:112|192:112|192:176,1,180,0|0
384,192,138194,1,0
480,192,138405,2,0,B|480:288|480:288|384:320,1,180
160,288,139250,5,0
160,192,139462,1,0
64,192,139673,1,0
64,96,139884,2,0,B|112:80|112:80|192:112|192:112|240:96,1,180
432,96,140729,1,0
432,288,141151,1,0
240,288,141574,1,0
240,192,141785,2,0,B|240:96|240:96|256:128|256:128|320:128,1,180
416,272,142630,5,0
336,320,142841,1,0
240,320,143052,1,0
160,272,143264,2,0,B|123:247|123:247|175:187|175:187|104:192,1,180
304,112,144108,2,0,B|345:160|345:160|364:88|364:88|416:128,1,180
448,304,144953,1,0
368,256,145165,2,0,B|336:272|336:272|336:224|336:224|304:240,1,90
416,176,145587,1,8
80,104,146009,5,0
160,56,146221,1,0
256,56,146432,1,0
336,104,146643,2,0,B|373:129|373:129|321:189|321:189|392:184,1,180
192,264,147488,2,0,B|151:216|151:216|132:288|132:288|80:248,1,180,0|0
48,72,148333,1,0
144,88,148544,2,0,B|176:72|176:72|176:120|176:120|208:104,1,90
256,192,148808,12,4,149389
