osu file format v5

[General]
AudioFilename: 03AllYourReasons.mp3
AudioLeadIn: 0
PreviewTime: -1
Countdown: 2
SampleSet: Normal
StackLeniency: 0
Mode: 0
LetterboxInBreaks: 1
EditorBookmarks: 690,14206,41237,54753,61511,81784,95300,108816,122333,135849,149365

[Metadata]
Title:All Your Reasons
Artist:Matchbox Twenty
Creator:buraimaster1234
Version:Hard
Source:
Tags:

[Difficulty]
HPDrainRate:4
CircleSize:3
OverallDifficulty:5
SliderMultiplier:0.7
SliderTickRate:0.5

[Events]
//Background and Video events
0,0,"albumcover.jpg"
//Break Periods
2,37646,40048
2,54543,60325
//Storyboard Layer 0 (Background)
//Storyboard Layer 1 (Failing)
//Storyboard Layer 2 (Passing)
//Storyboard Layer 3 (Foreground)
//Storyboard Sound Samples
//Background Colour Transformations
3,100,163,162,255

[TimingPoints]
695,211.222981060339,4,2,0,100,1
14213,422.445962120679,4,1,0,100,1
34490,211.222981060339,4,1,0,100,1
37869,105.61149053017,4,1,0,100,1
39981,211.222981060339,4,1,0,100,1
54766,422.445962120679,4,1,0,100,1
75043,211.222981060339,4,1,0,100,1
77577,105.61149053017,4,1,0,100,1
78421,422.445962120679,4,1,0,100,1
81800,211.222981060339,4,1,0,100,1
108836,211.222981060339,4,2,0,40,1
120664,211.222981060339,4,1,0,65,1
122353,211.222981060339,4,1,0,100,1

[Colours]
Combo1 : 213,191,128
Combo2 : 122,179,66
Combo3 : 112,112,207
Combo4 : 170,85,85

[HitObjects]
256,128,14213,2,0,B|368:128,1,105
448,256,15480,2,0,B|336:256,1,105,0|0
192,256,16747,2,0,B|112:256,1,70
72,256,17381,1,0
24,256,17592,1,0
24,160,18015,1,0
120,160,18437,1,0
216,160,18859,5,8
216,256,19282,5,0
312,256,19704,1,0
408,256,20127,1,4
408,160,20549,5,4
312,160,20972,5,0
168,160,21605,1,0
168,304,22239,1,0
312,304,22873,1,0
232,240,23295,1,0
152,304,23718,1,0
72,240,24140,1,0
152,176,24562,2,0,B|152:96|232:96,1,105,8|4
312,144,25619,5,8
352,256,26252,6,0,B|352:336|272:336,1,105,4|4
208,280,27308,5,8
256,192,27731,5,0
368,96,28364,1,0
256,192,28998,1,0
368,288,29632,1,0
224,288,30265,1,0
128,288,30688,1,0
80,288,30899,1,0
48,256,31110,6,0,B|48:176,1,70,0|0
144,192,31955,2,0,B|144:272,1,70,0|2
240,272,32800,2,0,B|320:272,1,70,0|0
240,192,33645,2,0,B|320:192,1,70,0|2
240,64,34490,6,0,B|400:64,1,140,0|0
384,208,35334,2,0,B|240:208,1,140,0|2
272,320,36179,2,0,B|112:320,1,140,0|0
128,176,37024,2,0,B|272:176,1,140,0|2
96,128,41248,5,0
176,144,41459,2,0,B|288:176|288:176|176:240|176:240|288:320,1,350
400,240,42938,1,0
320,208,43149,2,0,B|256:192|256:192|240:208,1,70,0|2
224,272,43571,1,2
80,192,43994,5,2
96,112,44205,2,0,B|144:64|144:64|160:160,1,140
224,96,44839,1,0
304,112,45050,2,2,B|384:112,1,70
464,240,45684,1,2
384,240,45895,2,0,B|240:240,1,140,2|0
96,240,46740,5,0
96,320,46951,2,0,B|144:320|144:320|144:288,1,70,4|0
224,304,47373,1,0
304,304,47585,2,4,B|389:300|464:272,1,140
368,240,48218,5,0
288,224,48429,1,8
288,224,48641,1,8
224,80,49063,1,2
224,80,49274,1,2
96,160,49697,1,0
80,240,49908,1,0
144,288,50119,5,8
208,240,50330,1,8
384,160,50753,1,2
384,160,50964,1,2
464,288,51387,1,0
416,352,51598,1,0
336,320,51809,1,8
256,288,52020,1,8
304,112,52443,5,2
384,128,52654,1,2
336,192,52865,2,0,B|416:208,1,70,4|4
272,288,53499,2,4,B|128:288,2,140
80,96,61525,5,0
112,240,62158,1,0
256,288,62792,1,0
400,240,63426,1,0
432,144,63848,1,0
336,112,64271,1,0
304,208,64693,1,0
208,176,65115,1,0
272,304,65538,5,0
272,352,65749,1,0
256,192,66172,5,8
240,80,67228,5,4
240,32,67439,1,4
256,192,67861,5,12
256,192,68284,5,0
128,112,68917,1,0
80,256,69551,1,0
224,288,70185,1,0
288,208,70607,1,0
384,256,71030,1,0
224,128,71875,1,0
160,320,73564,5,4
160,320,73987,1,4
160,320,74198,1,4
160,320,74409,1,4
160,320,74620,1,4
96,48,75043,6,0,B|240:48,1,140
416,144,75887,2,0,B|272:144,1,140,0|8
96,240,76732,2,0,B|240:240,1,140
416,336,77577,2,0,B|272:336,1,140
144,336,77999,1,8
256,96,78421,6,0,B|128:96,1,105,4|4
256,176,79477,1,0
304,176,79688,1,8
304,272,80110,1,4
160,272,80744,1,0
160,224,80955,1,12
256,224,81378,1,4
416,128,81800,5,0
336,144,82011,2,0,B|224:176|224:176|336:240|336:240|224:320,1,350
112,240,83489,1,0
192,208,83701,2,0,B|256:192|256:192|272:208,1,70,0|2
288,272,84123,1,2
432,192,84545,5,2
416,112,84757,2,0,B|368:64|368:64|352:160,1,140
288,96,85390,1,0
208,112,85602,2,2,B|128:112,1,70
48,240,86235,1,2
128,240,86446,2,0,B|272:240,1,140,2|0
416,240,87291,5,0
416,320,87503,2,0,B|368:320|368:320|368:288,1,70,4|0
288,304,87925,1,0
208,304,88136,2,4,B|123:300|48:272,1,140
144,240,88770,5,0
224,224,88981,1,8
224,224,89192,1,8
288,80,89615,1,2
288,80,89826,1,2
416,160,90248,1,0
432,240,90460,1,0
368,288,90671,5,8
304,240,90882,1,8
128,160,91305,1,2
128,160,91516,1,2
48,288,91938,1,0
96,352,92149,1,0
176,320,92361,1,8
256,288,92572,1,8
208,112,92994,5,2
128,128,93206,1,2
176,192,93417,2,0,B|96:208,1,70,4|4
240,288,94050,2,4,B|384:288,2,140
256,192,95318,12,0,100387
32,64,101232,5,0
112,64,101443,1,0
272,64,101866,2,0,B|512:64,1,210
480,192,102922,5,0
400,192,103133,1,8
320,192,103344,1,8
240,192,103555,2,0,B|0:192,1,210
32,320,104612,5,0
112,320,104823,1,8
192,320,105034,1,8
272,320,105245,2,0,B|512:320,1,210,0|8
480,192,106301,5,8
400,192,106513,1,8
320,192,106724,1,0
240,192,106935,2,8,B|0:192,1,210
32,112,107780,5,0
112,112,107991,1,0
192,112,108202,1,0
272,112,108414,1,8
352,112,108625,1,0
432,128,108836,5,0
448,208,109047,1,0
400,272,109258,1,0
320,288,109469,2,0,B|208:320|176:224|240:160,1,210
368,112,110525,1,0
352,192,110737,1,0
288,240,110948,1,0
208,208,111159,6,0,B|176:128|272:64|352:96,1,210
416,224,112215,1,0
400,304,112426,1,0
320,320,112638,1,0
240,304,112849,2,0,B|272:192|432:208,1,210
464,144,113694,6,0,B|464:64,1,70,0|0
384,48,114116,2,0,B|304:48,1,70,0|0
232,48,114539,2,0,B|152:48,1,70,0|0
128,120,114961,2,0,B|208:120,1,70,0|0
280,120,115383,1,0
368,128,115595,5,0
368,128,115806,1,0
128,176,116651,1,0
64,240,116862,1,0
112,304,117073,1,0
192,288,117284,1,0
208,208,117496,1,0
336,112,117918,6,0,B|432:80|496:144|448:240,1,210
416,288,118763,1,0
336,304,118974,1,0
256,272,119185,1,0
224,192,119397,1,0
256,112,119608,6,0,B|336:96|368:176|336:240|256:208,1,210
192,176,120453,2,0,B|128:176|128:240,1,70,0|0
128,288,120875,2,0,B|128:352|192:352,1,70,0|0
240,352,121297,2,0,B|304:352|304:288,1,70
304,240,121720,2,0,B|304:176|368:176,1,70
416,176,122142,1,0
448,256,122353,5,4
384,304,122564,1,0
320,256,122775,1,2
256,304,122986,1,2
128,192,123409,1,2
192,144,123620,1,2
352,144,124042,1,0
416,192,124254,1,0
352,240,124465,5,2
288,192,124676,1,2
160,112,125098,1,2
96,160,125310,1,2
48,224,125521,2,0,B|48:304,2,70,0|0|0
96,160,126155,1,2
96,160,126366,1,2
224,80,126788,1,2
224,80,126999,1,2
304,80,127211,6,4,B|384:80,1,70
448,224,127844,2,4,B|288:224,1,140,4|4
320,304,128478,2,8,B|240:304,1,70
160,304,128900,1,0
80,272,129112,5,4
48,192,129323,1,0
112,128,129534,1,8
112,128,129745,1,8
272,112,130168,1,2
272,112,130379,1,2
272,272,130801,1,0
304,352,131013,1,0
384,336,131224,5,8
416,256,131435,1,8
336,96,131858,1,2
336,96,132069,1,2
176,112,132491,1,0
96,144,132702,1,0
128,224,132914,1,8
208,192,133125,1,8
368,304,133547,5,8
432,240,133759,1,8
368,176,133970,2,0,B|304:224,1,70,0|4
256,288,134392,2,0,B|152:272,1,70,0|4
112,224,134815,2,0,B|192:192,1,70,4|0
240,144,135237,2,0,B|288:208,1,70,4|0
448,192,135871,5,0
368,192,136082,1,0
288,192,136293,1,0
208,192,136504,2,0,B|192:240|192:240|208:288|208:288|192:336,1,140
352,320,137349,2,0,B|368:272|368:272|320:240|320:240|320:192,1,140
160,192,138194,1,0
80,192,138405,2,0,B|80:112|80:112|144:80,1,140,0|0
336,112,139250,5,0
336,192,139462,1,0
416,192,139673,1,0
416,272,139884,2,0,B|368:288|368:288|320:256|320:256|272:272,1,140
128,272,140729,1,0
128,112,141151,1,0
288,112,141574,1,0
288,192,141785,2,0,B|288:270|288:270|272:240|272:240|240:240,1,140
112,128,142630,5,0
184,88,142841,1,0
264,88,143052,1,0
336,128,143264,2,0,B|373:146|373:146|336:208|336:208|368:208,1,140
224,288,144108,2,0,B|190:245|190:245|176:304|176:304|144:272,1,140,0|0
16,192,144953,1,0
80,128,145165,2,0,B|112:120|112:120|90:199|90:199|128:176,1,140,0|8
408,280,146009,5,0
336,320,146221,1,0
256,320,146432,1,0
184,280,146643,2,0,B|147:262|147:262|184:200|184:200|152:200,1,140
296,120,147488,2,0,B|330:163|330:163|344:104|344:104|376:136,1,140,0|0
504,216,148333,1,0
430,267,148544,2,0,B|407:268|407:268|419:240|419:240|382:251,1,70
256,192,148808,12,4,149389
