osu file format v5

[General]
AudioFilename: 03 3 AM.mp3
AudioLeadIn: 0
PreviewTime: 43863
Countdown: 1
SampleSet: Soft
StackLeniency: 0.7
Mode: 0
LetterboxInBreaks: 1
EditorBookmarks: 17268,44971,45525,49541,61037,99412,100798,111612,173942,174634,174911,176989,179622,182806,185161,197210,197903,198041,198457,201781

[Metadata]
Title:3 AM
Artist:Matchbox Twenty
Creator:foulcoon
Version:Normal
Source:
Tags:

[Difficulty]
HPDrainRate:5
CircleSize:4
OverallDifficulty:6
SliderMultiplier:1.4
SliderTickRate:2

[Events]
//Background and Video events
0,0,"pay_phones_by_asthenia22.jpg"
//Break Periods
2,70933,78420
//Storyboard Layer 0 (Background)
//Storyboard Layer 1 (Failing)
//Storyboard Layer 2 (Passing)
//Storyboard Layer 3 (Foreground)
//Storyboard Sound Samples
//Background Colour Transformations
3,100,163,162,255

[TimingPoints]
8960,553.888760673898,4,1,0,100,1
71020,553.888760673898,4,1,0,100,1
130880,553.888760673898,4,2,0,100,1
155251,553.888760673898,4,2,0,100,1
177406,553.888760673898,4,1,0,100,1
184040,553.888760673898,4,1,0,100,1

[Colours]
Combo1 : 230,138,0
Combo2 : 4,200,4
Combo3 : 3,3,165
Combo4 : 202,4,4

[HitObjects]
72,160,17268,2,0,B|120:112|124:198|166:188|216:136,1,140,0|4
424,256,19483,6,0,B|464:296|432:336,2,70
360,224,20314,2,0,B|286:194|312:96,1,140
176,64,21422,2,0,B|80:104|190:198|40:240,1,210
200,288,22807,5,0
200,288,23084,1,0
408,248,23914,1,8
304,152,24468,1,0
416,72,25022,1,0
416,72,25299,1,0
208,80,26130,6,0,B|141:80|192:144|192:168|120:176,1,140,0|4
456,312,28069,6,0,B|376:264|488:232|368:192,1,140
320,192,28899,2,0,B|256:192|200:104,1,140
144,88,29730,1,0
56,192,30284,1,0
144,296,30838,1,0
352,280,31669,5,0
352,280,31946,1,0
160,192,32777,1,8
264,96,33331,1,0
392,152,33884,1,0
392,152,34161,1,0
208,48,34992,2,0,B|144:40|128:80|88:80|72:56,1,140,0|4
320,312,36931,6,0,B|416:320|416:144,1,210
272,152,38316,1,0
160,240,38869,1,0
160,312,39146,1,0
88,312,39423,1,0
88,240,39700,1,0
296,256,40531,5,0
296,256,40808,1,0
184,80,41639,1,8
320,104,42193,1,0
384,224,42747,1,0
384,224,43024,1,0
184,296,43854,5,0
184,296,44131,1,0
144,240,44408,2,0,B|104:192|144:144|192:120,1,140
248,96,45239,1,0
384,64,45793,2,0,B|432:96|448:144,1,70
448,184,46347,2,0,B|456:256|392:328,1,140
240,88,48009,6,0,B|200:46|152:104,1,70
128,128,48563,2,0,B|88:192|168:256,1,140
432,296,50224,1,0
384,240,50501,1,0
432,184,50778,1,0
384,56,51332,1,0
256,192,51609,12,6,53271
200,64,54655,5,0
336,96,55209,1,0
216,168,55763,2,0,B|288:168|328:184|312:232|287:254|239:248|239:248|280:256|343:277|349:352|232:352|184:336,1,420
136,296,57702,2,0,B|104:244|158:194|123:169|80:152,1,140
296,80,59086,5,0
408,160,59640,1,0
240,288,60471,1,8
136,104,61302,6,0,B|72:128|88:176,2,70
200,80,62133,2,2,B|248:64|288:96|312:96|336:72,1,140
448,248,63518,1,0
328,320,64071,1,0
144,208,64902,6,0,B|80:160|160:80,2,140
256,192,66287,12,0,67949
352,80,68503,6,0,B|384:104|392:144,1,70
408,208,69056,2,0,B|424:256|392:296,3,70
336,304,70164,2,0,B|272:328|184:256,1,140
72,224,79328,6,0,B|120:272|124:186|166:196|216:248,1,140,0|4
424,128,81543,6,0,B|464:88|432:48,4,70
320,312,83482,2,0,B|224:272|334:178|184:136,1,210
96,224,84867,5,0
96,224,85144,1,0
304,192,85974,1,8
200,288,86528,1,0
336,304,87082,1,0
336,304,87359,1,0
128,280,88190,6,0,B|61:280|112:216|112:192|40:184,1,140,0|4
456,72,90129,6,0,B|376:120|488:152|368:192,1,140
336,224,90959,2,0,B|288:272|248:272,2,70
352,152,91790,2,0,B|360:96|320:80,1,70
264,64,92344,2,0,B|208:64|217:118|221:141|136:152,1,140
256,192,93175,12,8,94837
264,288,95391,1,0
392,232,95944,1,0
392,232,96221,1,0
208,336,97052,2,0,B|144:344|128:304|88:304|72:328,1,140,0|4
320,72,98991,6,0,B|416:64|416:224,2,175
216,168,100929,2,0,B|168:176|136:136,2,70
256,224,101760,2,0,B|312:176|288:120|192:88|224:40|376:48,1,280
224,200,103699,5,8
352,256,104253,1,0
392,128,104807,1,0
392,128,105084,1,0
184,88,105914,5,0
184,88,106191,1,0
144,144,106468,2,0,B|104:192|144:240|192:264,1,140
248,288,107299,1,0
384,320,107853,2,0,B|432:288|448:240,1,70
448,200,108407,2,0,B|456:128|392:56,1,140
240,296,110069,6,0,B|200:338|152:280,1,70
128,256,110623,2,0,B|88:192|168:128,1,140
432,88,112284,1,0
384,144,112561,1,0
432,200,112838,1,0
384,328,113392,1,0
256,192,113669,12,6,115331
200,320,116715,5,0
336,288,117269,1,0
216,216,117823,2,0,B|296:220|339:197|343:137|291:119|227:127|227:127|264:119|309:105|349:32|232:32|184:56,1,420
136,88,119762,2,0,B|104:140|158:190|123:215|80:232,1,140
296,304,121146,5,0
408,224,121700,1,0
240,96,122531,1,8
208,160,122808,2,0,B|176:224,1,70
136,280,123362,6,0,B|72:256|88:208,2,70
200,304,124193,2,2,B|248:320|288:288|312:288|336:312,1,140
448,136,125578,1,0
328,64,126131,1,0
144,176,126962,6,0,B|80:224|160:304,2,140
256,192,128347,12,0,130009
352,304,130603,6,0,B|384:280|392:240,1,70,0|4
408,176,131156,2,0,B|424:128|392:88,3,70,4|0|0|0
336,80,132264,2,0,B|272:56|184:128,1,140
256,192,133095,12,0,134480
