osu file format v5

[General]
AudioFilename: Matchbox 20 - Real World .mp3
AudioLeadIn: 0
PreviewTime: 74517
Countdown: 1
SampleSet: Normal
StackLeniency: 0.7
Mode: 0
LetterboxInBreaks: 1
EditorBookmarks: 8923

[Metadata]
Title:Real World
Artist:Matchbox 20
Creator:LuigiHann
Version:Normal
Source:
Tags:

[Difficulty]
HPDrainRate:5
CircleSize:5
OverallDifficulty:5
SliderMultiplier:1.5
SliderTickRate:0.5

[Events]
//Background and Video events
0,0,"yourselforsomeonelikeyou.jpg"
//Break Periods
2,33657,40266
2,66303,71004
2,97345,105352
2,131378,136079
//Storyboard Layer 0 (Background)
//Storyboard Layer 1 (Failing)
//Storyboard Layer 2 (Passing)
//Storyboard Layer 3 (Foreground)
//Storyboard Sound Samples
//Background Colour Transformations
3,100,163,162,255

[TimingPoints]
1273,508.397024182752,4,1,0,100,1

[Colours]
Combo1 : 133,108,63
Combo2 : 116,147,108
Combo3 : 106,107,136
Combo4 : 137,88,86

[HitObjects]
416,240,8898,2,0,B|392:288|344:280,1,75
352,208,9407,1,0
288,168,9661,2,0,B|196:93|168:208,1,150
96,320,10678,5,0
56,176,11186,2,0,B|39:82|152:80,1,150
288,64,12203,1,0
440,48,12711,1,0
416,192,13220,1,0
416,192,13474,1,0
56,72,14745,5,0
96,216,15253,1,0
96,216,15508,1,0
440,72,16779,5,0
336,272,17541,2,0,B|248:296|208:288|168:264,1,150
120,240,18304,1,0
80,96,18812,1,0
152,72,19066,1,0
224,48,19321,1,0
368,80,19829,2,0,B|424:104|432:152,1,75
272,144,20592,2,0,B|224:192|280:256|352:248|376:296|312:336,1,225
312,56,22879,5,0
432,144,23388,1,0
432,144,23642,1,0
88,296,24913,5,0
64,144,25421,2,0,B|64:88|128:64,1,75
208,48,26057,1,4
320,48,26438,2,0,B|384:56|400:96,1,75
448,168,27074,1,4
376,256,27455,5,0
304,288,27709,2,0,B|163:350|96:216,1,225
56,136,28853,1,0
160,96,29234,2,0,B|208:80,1,37.5
304,48,29743,1,4
432,128,30251,1,0
312,224,30760,1,0
200,112,31268,1,0
312,88,31649,6,0,B|350:100|360:136,4,37.5
208,56,32539,2,0,B|128:56|73:98|48:136,1,150
48,176,33302,2,0,B|27:201|56:240,1,37.5
280,56,41436,6,0,B|328:64|344:96,1,75
400,144,41944,2,0,B|428:158|432:192,2,37.5
360,208,42453,1,0
320,272,42707,1,0
216,320,43088,6,0,B|176:320,1,37.5
88,256,43724,1,0
152,80,44232,1,0
336,104,44740,1,0
424,224,45249,2,0,B|392:320|304:312,1,150
120,96,47282,5,0
256,40,47791,1,0
320,72,48045,1,0
48,328,49316,5,0
128,200,49824,1,0
64,160,50079,2,0,B|106:86|184:96|216:96,1,150
264,96,50841,1,4
376,112,51223,2,0,B|402:117|416:136,1,37.5
440,192,51604,1,0
384,240,51858,6,0,B|314:327|334:180|256:272,1,150
144,352,52875,1,0
64,224,53383,2,0,B|151:206|-12:113|152:120,1,150
192,112,54146,1,0
400,320,55417,5,0
344,176,55925,1,0
280,216,56179,1,0
64,64,57450,5,0
128,208,58213,2,0,B|88:256|110:287|184:304,2,112.5
184,160,59230,2,0,B|232:136|256:160|264:216,2,112.5
208,232,60247,6,0,B|209:291|280:272,1,75
296,208,60755,2,0,B|344:216|352:264,1,75
384,184,61263,2,0,B|316:89|192:90|112:200,1,300
256,256,62789,5,0
392,192,63297,1,0
256,136,63805,1,0
112,192,64314,2,0,B|152:240|232:240,1,112.5
288,248,64949,1,0
288,248,65203,1,0
400,232,65585,2,0,B|448:208|480:96,1,150
256,192,72194,12,0,74227
256,344,74990,2,0,B|256:264,1,75,0|4
192,88,75753,5,0
256,56,76007,1,0
320,88,76261,1,0
424,200,76769,6,0,B|424:248|384:264,1,75
320,240,77278,2,0,B|272:240|256:304,1,75
200,320,77786,2,0,B|154:356|128:280,1,75
104,240,78295,1,4
72,96,78803,6,2,B|104:152|160:144,1,75
200,152,79311,1,2
272,160,79566,2,2,B|328:160|360:112,2,75
200,152,80328,1,6
56,96,80837,6,0,B|56:184,1,75
128,168,81345,2,0,B|128:256,1,75,0|0
200,240,81853,2,0,B|200:320,1,75
272,312,82362,1,0
440,64,83379,5,4
344,184,83887,1,2
264,184,84141,1,2
264,112,84395,1,2
120,64,84904,6,0,B|80:104|88:152,1,75
88,200,85412,2,0,B|96:256|160:256,2,75
216,280,86429,1,4
368,272,86937,5,0
432,232,87192,1,0
464,160,87446,1,0
456,88,87700,2,0,B|440:32|384:32,1,75
376,184,88463,1,0
224,136,88971,5,0
296,136,89225,1,0
224,136,89479,1,0
296,136,89734,1,0
224,136,89988,1,0
296,136,90242,1,0
224,136,90496,1,0
64,136,92276,6,0,B|32:176|64:208,1,75
448,136,94309,2,0,B|480:176|448:208,1,75
256,192,95834,12,0,97105
440,256,106511,6,0,B|392:296|352:280,1,75
296,288,107019,2,0,B|240:296|200:264,2,75
272,216,107782,1,0
264,104,108163,1,0
264,104,108290,1,0
120,136,108798,5,0
184,272,109307,1,0
336,272,109815,1,0
400,136,110324,1,0
248,120,110832,6,0,B|216:144|208:184,1,75
184,328,111595,1,0
64,136,112357,1,0
184,48,112866,2,0,B|221:25|288:48,1,75
400,80,113628,1,0
464,296,114391,1,0
320,336,114899,2,0,B|264:352|232:320,2,75
360,272,115662,5,0
392,200,115916,2,0,B|408:144|344:112|272:152|272:160,1,150
224,192,116679,2,0,B|155:210|112:152,1,112.5
56,72,117441,1,0
128,56,117695,1,0
128,56,117823,1,0
256,192,118204,12,0,119221
88,136,119729,5,0
224,312,120492,1,0
376,296,121000,2,0,B|416:256|464:272,1,75
408,120,121763,1,0
184,88,122525,6,0,B|136:112|128:160,2,75
256,72,123288,2,0,B|320:64|368:88,1,112.5
432,176,124050,1,0
440,248,124305,2,0,B|448:296|360:328,2,112.5
368,256,125321,6,0,B|320:248|312:192,1,75
288,136,125830,2,0,B|280:96|248:72|176:72,1,112.5
128,72,126465,1,0
72,128,126719,2,0,B|40:168|40:216|56:240,1,112.5
128,312,127609,1,4
160,64,129389,6,0,L|263:118|360:64,1,225
400,128,130405,2,0,B|429:140|416:184,2,37.5
448,272,131168,1,0
256,192,137269,12,0,139302
256,344,140065,2,0,B|256:264,1,75,0|4
320,88,140827,5,0
256,56,141082,1,0
192,88,141336,1,0
88,200,141844,6,0,B|88:248|128:264,1,75
192,240,142353,2,0,B|240:240|256:304,1,75
312,320,142861,2,0,B|358:356|384:280,1,75
408,240,143369,1,4
440,96,143878,6,2,B|408:152|352:144,1,75
312,152,144386,1,2
240,160,144640,2,2,B|184:160|152:112,2,75
312,152,145403,1,6
456,96,145911,6,0,B|456:184,1,75
384,168,146420,2,0,B|384:256,1,75,0|0
312,240,146928,2,0,B|312:320,1,75
240,312,147437,1,0
72,64,148453,5,4
168,184,148962,1,2
248,184,149216,1,2
248,112,149470,1,2
392,64,149979,6,0,B|432:104|424:152,1,75
424,200,150487,2,0,B|416:256|352:256,2,75
296,280,151504,1,4
144,272,152012,5,0
80,232,152266,1,0
48,160,152521,1,0
56,88,152775,2,0,B|72:32|128:32,1,75
168,176,153537,1,0
304,136,154046,5,0
232,136,154300,1,0
304,136,154554,1,0
232,136,154808,1,0
304,136,155063,1,0
232,136,155317,1,0
304,136,155571,1,4
24,272,156588,5,0
136,176,157096,1,0
248,72,157605,1,0
432,312,158621,5,0
296,240,159130,1,0
160,168,159638,1,0
40,72,160147,6,0,B|16:104|40:152,1,75
80,208,160655,2,0,B|120:248|128:280|88:352,1,150
216,256,161672,1,0
352,192,162180,2,0,B|384:160|384:104,1,75
304,120,162689,2,0,B|264:152|280:208,1,75
312,248,163197,2,0,B|288:312|240:336|184:328,1,150
64,264,164214,1,0
64,112,164722,5,0
192,184,165231,1,0
320,256,165739,1,0
448,72,166502,5,0
392,120,166756,1,0
208,248,167518,1,0
272,208,167773,1,0
144,56,169552,6,0,B|88:64|64:120,1,75
368,328,171586,2,0,B|424:320|448:264,1,75
256,192,173619,12,4,175907
