osu file format v5

[General]
AudioFilename: Matchbox 20 - Real World .mp3
AudioLeadIn: 0
PreviewTime: 74517
Countdown: 1
SampleSet: Normal
StackLeniency: 0.7
Mode: 0
LetterboxInBreaks: 1
EditorBookmarks: 8923,41446

[Metadata]
Title:Real World
Artist:Matchbox 20
Creator:LuigiHann
Version:Easy
Source:
Tags:

[Difficulty]
HPDrainRate:4
CircleSize:4
OverallDifficulty:4
SliderMultiplier:1.5
SliderTickRate:1

[Events]
//Background and Video events
0,0,"yourselforsomeonelikeyou.jpg"
//Break Periods
2,45967,48769
2,54355,56903
2,66303,73680
2,90706,90966
2,92740,92999
2,94773,94779
2,97315,105709
2,110534,113843
2,119430,121978
2,131378,138755
2,167983,168242
2,170016,170276
2,172050,172055
//Storyboard Layer 0 (Background)
//Storyboard Layer 1 (Failing)
//Storyboard Layer 2 (Passing)
//Storyboard Layer 3 (Foreground)
//Storyboard Sound Samples
//Background Colour Transformations
3,100,163,162,255

[TimingPoints]
1273,508.397024182752,4,1,0,100,1

[Colours]
Combo1 : 133,108,63
Combo2 : 116,147,108
Combo3 : 106,107,136
Combo4 : 137,88,86

[HitObjects]
136,64,41944,2,0,B|80:120|72:192|109:240|176:256,1,225
296,280,43215,2,0,B|384:264|416:168,1,150
328,40,44232,2,0,C|303:52|263:41|207:40|171:64|276:118|300:143|259:172|192:152,1,450
64,128,50079,6,0,B|56:208|96:248|160:232,1,150
208,224,50841,1,0
464,72,51858,2,0,B|397:161|341:21|248:112,1,225
216,168,52875,1,4
88,240,53383,2,0,B|155:329|211:189|304:280,1,225,0|0
184,208,58213,6,0,B|136:256|136:296|168:328|208:328,1,150
344,320,59230,2,0,B|384:280|384:240|352:200|312:184,1,150
464,256,60247,2,0,B|432:128|384:96|320:64|272:56|192:64|128:96|88:144|48:288,1,600
256,192,64060,12,0,66093
256,296,74990,2,0,B|256:208,1,75
112,168,75753,2,0,B|128:112|192:112,2,75
200,288,76769,6,0,B|264:296|320:272|344:224,2,150
80,192,78295,1,4
176,80,78803,5,2
248,80,79057,2,2,B|336:80,1,75
400,80,79566,1,6
400,160,79820,2,2,B|400:320,1,150
248,288,80837,6,0,B|176:248|160:152,1,150
264,56,81853,2,0,B|328:88|360:128|368:184,1,150
64,104,83379,5,4
192,176,83887,2,2,B|272:224,2,75
320,248,84904,2,0,B|336:328|256:344|176:336|136:296|88:240,1,300
64,104,86429,1,0
200,168,86937,6,0,B|232:216|352:192,1,150
416,176,87700,1,0
416,176,87954,1,0
288,256,88463,1,0
184,144,88971,6,0,B|336:144,3,150
408,256,92276,5,0
408,256,92530,1,0
72,96,94309,5,0
72,96,94563,1,0
256,192,96089,12,0,97105
72,88,107019,6,0,B|40:152|40:208|88:232,1,150
128,272,107782,1,0
272,312,108290,2,0,B|336:304|368:288|392:240|392:200,1,150
296,112,109307,5,0
144,136,109815,1,0
104,280,110324,1,0
384,64,115153,6,0,B|448:128|448:176|416:224,1,150
392,264,115916,1,0
248,304,116424,1,0
248,304,116679,1,0
136,288,117060,1,0
64,200,117441,6,0,B|40:128|112:56,1,150
176,40,118204,2,0,B|288:32|311:64|200:168|302:212|408:176,1,300
168,280,123288,6,0,B|96:240|80:144,1,150
200,72,124305,2,0,B|296:56|360:96,1,150
456,192,125321,2,0,B|424:264|376:328|256:328|184:296,2,300
256,192,129389,12,0,131168
256,296,140065,2,0,B|256:208,1,75
400,168,140828,2,0,B|384:112|320:112,2,75
312,288,141844,6,0,B|248:296|192:272|168:224,2,150
432,192,143370,1,4
336,80,143878,5,2
264,80,144132,2,2,B|176:80,1,75
112,80,144641,1,6
112,160,144895,2,2,B|112:320,1,150
264,288,145912,6,0,B|336:248|352:152,1,150
248,56,146928,2,0,B|184:88|152:128|144:184,1,150
448,104,148454,5,4
320,176,148962,2,2,B|240:224,2,75
192,248,149979,2,0,B|176:328|256:344|336:336|376:296|424:240,1,300
448,104,151504,1,0
312,168,152012,6,0,B|280:216|160:192,1,150
96,176,152775,1,0
96,176,153029,1,0
224,256,153538,1,0
336,144,154046,6,0,B|184:144,3,150
120,80,156588,6,0,B|40:141|104:224,2,150
416,144,158621,2,0,B|480:208|440:296,2,150
208,48,160401,6,0,B|192:112|256:200,1,150
296,248,161163,1,0
424,328,161672,1,0
408,176,162180,6,0,B|376:78|242:56|144:136,1,300
24,208,163705,2,0,B|48:264|112:288|168:280,1,150
136,128,164722,5,0
264,200,165231,1,0
392,280,165739,1,0
168,288,166502,5,0
168,288,166756,1,0
328,128,167518,1,0
328,128,167773,1,0
104,112,169552,5,0
104,112,169806,1,0
424,288,171586,5,0
424,288,171840,1,0
256,192,173365,12,0,176161
