osu file format v5

[General]
AudioFilename: 05IfIFall.mp3
AudioLeadIn: 0
PreviewTime: -1
Countdown: 1
SampleSet: Normal
StackLeniency: 0.7
Mode: 0
LetterboxInBreaks: 1
EditorBookmarks: 14318,21708,28216,35716,43216,49833,57002,63951,71010,77738,98032,105752,112701,119208,129907

[Metadata]
Title:If I Fall
Artist:Matchbox 20
Creator:kingcobra52
Version:Normal
Source:
Tags:

[Difficulty]
HPDrainRate:5
CircleSize:5
OverallDifficulty:5
SliderMultiplier:1.4
SliderTickRate:2

[Events]
//Background and Video events
0,0,"Matchbox_20.jpg"
//Break Periods
2,89629,97493
2,124923,129479
//Storyboard Layer 0 (Background)
//Storyboard Layer 1 (Failing)
//Storyboard Layer 2 (Passing)
//Storyboard Layer 3 (Foreground)
//Storyboard Sound Samples
//Background Colour Transformations
3,100,163,162,255

[TimingPoints]
1194,441.176470588235,4,1,0,100

[HitObjects]
328,48,14870,2,0,B|282:82|287:139|328:168,1,140
440,272,15973,1,0
304,328,16635,1,0
168,272,17296,1,0
104,136,17958,1,0
104,136,18399,1,0
176,72,18841,2,0,B|192:104|224:128|262:114|296:64,1,140
288,76,19502,1,0
408,160,20164,2,2,L|338:277|257:164|160:280,1,420
64,272,21929,6,0,B|23:232|23:180|96:136,1,140
192,64,23032,2,0,B|352:224,1,210
440,312,24355,2,0,B|384:368,6,70
440,264,25899,1,0
440,216,26120,1,0
440,120,26561,2,4,B|400:80|346:80|312:128,2,140
152,48,28767,6,0,B|264:48,1,105
328,48,29429,2,0,C|379:99|328:132|376:192,1,210
328,48,30752,1,0
232,48,31193,2,2,B|158:115|248:184,2,140
136,40,32517,6,0,B|72:96,1,70
48,120,32958,2,0,B|32:208|96:273|184:272,1,210
158,270,34061,1,0
304,272,34723,2,2,L|348:325|400:272,2,140
304,224,35826,5,0
360,176,36157,1,0
304,128,36488,2,0,B|257:47|183:58|168:208,1,210
176,272,37591,1,0
256,320,38032,1,0
400,320,38693,1,0
488,272,39135,1,0
440,184,39576,6,0,B|400:120,1,70
376,80,40017,2,0,B|344:40|290:19|219:42|184:88,1,210
128,152,41120,1,2
224,152,41561,1,2
416,152,42443,5,0
416,152,42664,1,0
416,152,42885,1,0
320,40,43546,2,4,C|355:98|281:66|290:134|214:93|236:184|166:128|184:208,1,560
48,40,46193,1,0
144,40,46635,1,0
96,128,47076,6,4,C|61:186|135:154|126:222|202:181|180:272|250:216|232:296,1,560
368,136,49723,1,0
464,136,50164,6,0,B|510:170|505:227|464:256,1,140
344,336,51267,1,0
192,336,51929,1,0
344,336,52590,1,0
192,336,53252,2,0,C|112:288,1,70
128,248,53693,2,0,C|200:216,1,70
240,200,54135,2,0,C|311:161|313:224|384:184,1,210
367,195,55238,1,0
376,48,55899,2,2,L|232:48,2,140
320,128,57223,6,0,B|293:178|241:178|208:128,1,140
80,56,58326,2,0,L|25:148|88:256,1,210
168,352,59649,1,0
312,352,60311,2,0,B|392:352,3,70
384,304,61193,1,0
384,256,61414,1,0
448,184,61855,2,4,B|408:144|354:144|320:192,2,140
384,48,63399,2,0,L|272:144,1,140
224,144,64061,6,0,L|136:64,1,105
80,112,64723,2,0,C|29:163|80:196|32:256,1,210
168,312,66046,1,0
264,304,66487,2,2,B|331:378|400:288,1,140
456,240,67370,1,2
488,200,67591,5,0
456,168,67811,2,0,B|384:120,1,70
352,112,68252,2,0,B|264:96|199:160|200:248,1,210
200,320,69355,1,0
88,224,70017,2,2,L|38:175|91:131,2,140
120,256,71120,5,0
192,256,71451,1,0
264,256,71782,2,0,L|344:255|295:200|368:200,1,210
448,200,72885,1,0
448,104,73326,2,0,B|416:33|312:64,1,140
329,60,73987,1,0
328,160,74429,1,0
328,208,74649,6,0,B|328:296,2,70
280,208,75311,2,0,B|256:260|204:270|144:256,1,140
161,259,75973,1,0
64,256,76414,1,4
64,160,76855,1,4
256,160,77737,5,0
256,160,77958,1,0
256,160,78179,1,0
256,8,78841,2,4,L|139:79|265:156|149:226|264:320,1,560
112,192,81487,1,0
112,96,81929,1,0
184,32,82370,6,4,L|301:103|175:180|291:250|176:344,1,560
280,344,84576,2,0,L|344:296,1,70
376,272,85017,2,0,L|440:224,1,70
256,192,85899,12,4,89429
64,56,98693,6,0,L|112:112,1,70
160,112,99135,2,0,L|208:56,1,70
288,112,99796,1,0
288,256,100458,1,2
192,256,100899,6,0,L|136:336,1,70
104,312,101341,2,0,L|64:240,1,70
72,104,102223,1,2
168,104,102664,2,0,L|248:104,2,70
168,160,103326,1,0
216,240,103767,2,0,B|252:276|301:287|344:240,1,140
339,244,104429,1,0
440,248,104870,1,0
440,192,105091,2,2,B|328:88,1,140
232,80,105973,5,0
184,80,106193,2,0,B|104:80,2,70
184,128,106855,1,0
184,272,107517,1,0
216,296,107738,1,0
256,264,107958,2,4,B|336:176,1,105
376,136,108620,1,4
256,48,109282,1,0
208,48,109502,1,0
208,96,109723,2,0,B|152:144,1,70
104,144,110164,2,0,B|32:96,1,70
32,200,110826,2,0,B|90:261|160:200,2,140
32,296,112149,2,2,B|96:344|176:288,1,140
264,288,113032,6,0,B|344:288,2,70
256,192,113914,12,4,115458
80,104,116341,6,0,B|256:104,1,140
256,104,117002,1,0
256,192,117443,12,4,118988
336,288,119870,6,0,B|184:288,1,140
144,288,120532,1,0
256,192,120973,12,4,124723
208,32,130679,1,0
208,32,130899,1,0
208,32,131120,1,0
56,32,131782,2,4,L|56:140|147:140|147:228|240:228|241:320|344:320,1,560
232,152,134429,2,2,L|352:56,1,140
432,32,135311,6,4,L|432:140|341:140|341:228|248:228|247:320|144:320,1,560
80,192,137738,1,0
120,160,137958,1,0
160,128,138179,1,0
280,32,138841,6,2,L|392:128,1,140
368,216,139723,2,2,L|256:312,1,140
261,306,140605,1,4
168,304,141046,1,0
120,296,141267,1,0
88,256,141488,1,0
88,208,141708,1,0
88,64,142370,6,2,L|232:64,1,140
328,64,143252,2,2,L|472:64,1,140
464,160,144135,2,2,L|320:160,1,140
224,160,145017,2,2,L|72:160,1,140
88,256,145899,2,2,L|232:256,1,140
328,256,146782,2,2,L|472:256,1,140
464,352,147664,1,2
368,352,148105,1,2
272,352,148546,1,2
176,352,148988,1,2
256,192,149429,12,4,152958
