osu file format v5

[General]
AudioFilename: 09Disease.mp3
AudioLeadIn: 0
PreviewTime: -1
Countdown: 1
SampleSet: Normal
StackLeniency: 0.7
Mode: 0
LetterboxInBreaks: 1

[Metadata]
Title:Disease
Artist:Matchbox 20
Creator:mtmcl
Version:Plague
Source:
Tags:

[Difficulty]
HPDrainRate:6
CircleSize:5
OverallDifficulty:7
SliderMultiplier:2.4
SliderTickRate:4

[Events]
//Background and Video events
0,0,"disease.jpg"
1,-2437,"disease.avi"
//Break Periods
2,49455,60616
2,77368,80703
2,96151,108616
2,152759,156616
2,183802,187920
//Storyboard Layer 0 (Background)
//Storyboard Layer 1 (Failing)
//Storyboard Layer 2 (Passing)
//Storyboard Layer 3 (Foreground)
//Storyboard Sound Samples
//Background Colour Transformations
3,100,163,162,255

[TimingPoints]
212,521.739130434783,4,1,0,50,1

[Colours]
Combo1 : 53,213,13
Combo2 : 128,128,255

[HitObjects]
256,192,15081,1,0
384,192,15342,1,0
320,80,15603,1,0
320,208,15864,1,0
320,336,16125,1,0
320,208,16385,1,0
320,80,16646,1,0
320,208,16907,1,0
256,192,19516,5,0
128,192,19777,1,0
192,80,20038,1,0
192,208,20298,1,0
192,336,20559,1,0
192,208,20820,1,0
448,208,21342,1,0
256,192,23690,5,0
256,64,23951,1,0
144,128,24212,1,0
272,128,24472,1,0
400,128,24733,1,0
272,128,24994,1,0
144,128,25255,1,0
272,128,25516,1,0
256,192,28125,5,0
256,320,28385,1,0
368,256,28646,1,0
240,256,28907,1,0
112,256,29168,1,0
240,256,29429,1,0
368,256,29690,1,0
256,192,32559,5,0
176,96,32820,1,0
96,192,33081,1,0
176,288,33342,2,2,C|176:160,1,120
272,80,33864,1,2
384,80,34125,1,2
384,320,34646,1,4
256,320,34907,1,4
48,192,35429,1,4
256,192,35951,5,0
256,64,36212,1,0
384,64,36472,1,0
384,192,36733,1,0
384,192,36864,1,0
384,320,37125,2,0,C|160:320,2,180
256,192,38298,1,2
112,320,38820,1,4
64,208,39081,1,4
144,16,39603,1,4
256,192,40255,5,0
256,192,40385,1,0
368,192,40646,1,0
272,128,40907,1,0
384,128,41168,1,0
288,64,41429,1,0
400,64,41690,1,0
320,160,41951,1,2
288,272,42212,1,2
176,208,42472,1,2
320,16,42994,1,4
176,16,43255,1,4
400,16,43777,1,4
256,192,44820,5,0
256,304,45081,1,0
192,192,45342,1,0
256,80,45603,1,0
320,192,45864,1,0
256,304,46125,1,2
256,192,46385,1,2
256,80,46646,1,2
32,192,47168,1,4
176,192,47429,1,4
256,192,47690,12,0,49255
256,48,61516,5,2
64,48,61777,1,2
240,112,62038,1,2
48,112,62298,1,2
144,272,62559,1,2
496,352,63081,5,6
272,64,63603,1,0
272,240,63864,1,0
432,160,64125,1,0
256,160,64385,1,0
432,160,64646,1,0
64,160,65168,5,6
432,160,65690,1,0
432,336,65951,1,0
432,160,66212,1,0
432,336,66472,1,0
432,160,66733,1,0
240,160,66994,6,6,L|112:160,1,120
128,336,67516,2,6,L|256:336,1,120
432,336,68038,2,6,L|304:336,1,120
304,160,68559,2,6,L|432:160,1,120
304,16,69081,2,2,L|368:16,2,60
304,192,69603,2,0,L|304:64,1,120
304,256,70125,2,0,C|304:384,1,120
304,192,70646,2,0,C|304:64,1,120
64,336,71429,5,2
400,192,71951,1,0
256,304,72212,1,0
112,192,72472,1,0
256,80,72733,1,0
256,256,72994,1,0
432,256,73255,5,6
432,80,73516,1,6
256,80,73777,1,6
256,256,74038,1,6
80,256,74298,1,6
80,80,74559,1,6
352,80,74951,1,4
352,256,75212,1,4
256,32,76125,5,6
256,160,76385,1,6
256,288,76646,1,6
256,160,76907,1,6
256,32,77168,1,6
256,192,81603,5,6
256,320,81864,1,6
160,256,82125,1,6
160,16,82646,1,4
160,128,82907,1,4
400,192,83429,1,4
160,192,83951,5,0
288,192,84212,1,0
288,192,84342,2,0,C|288:384,1,180
288,192,85125,1,0
288,192,85255,2,0,C|288:16,1,120
80,192,86038,1,6
208,192,86298,1,6
448,192,86820,1,4
448,64,87081,1,4
448,320,87603,1,4
256,192,88646,5,0
256,64,88907,1,0
256,240,89298,1,0
80,192,89559,1,0
256,192,89951,1,0
256,320,90212,2,0,C|448:320,1,180
432,144,90994,1,4
304,144,91255,1,4
64,144,91777,1,4
496,352,92820,5,0
496,224,93081,1,0
496,96,93342,1,0
384,160,93603,1,0
384,288,93864,1,0
272,224,94125,1,6
144,224,94385,1,6
16,224,94646,1,6
256,160,95168,1,4
256,32,95429,1,4
496,32,95951,1,4
256,192,109516,5,6
80,192,109777,1,6
80,16,110038,1,6
208,144,110298,1,6
336,272,110559,1,6
80,16,111081,5,2
384,192,111603,1,0
208,192,111864,1,0
288,32,112125,1,0
288,208,112385,1,0
464,208,112646,1,0
112,192,113168,5,2
464,192,113690,1,0
288,192,113951,1,0
112,192,114212,1,0
112,16,114472,2,0,C|240:16,1,120
240,192,114994,2,6,C|112:192,1,120
304,192,115516,2,6,C|432:192,1,120
416,368,116038,2,6,C|416:224,1,120
240,192,116559,2,6,C|96:192,1,120
304,192,117081,2,2,C|304:272,2,60
480,192,117603,2,4,C|480:48,1,120
304,64,118125,2,4,C|432:64,1,120
432,240,118646,2,4,C|432:400,1,120
112,192,119429,5,2
464,192,119951,1,0
288,192,120212,1,0
288,368,120472,1,0
112,368,120733,1,0
112,192,120994,1,0
112,16,121255,5,6
288,16,121516,1,6
288,192,121777,1,6
464,192,122038,1,6
464,368,122298,1,6
288,368,122559,1,6
16,368,122951,1,4
16,192,123212,1,4
256,32,124125,5,6
256,160,124385,1,6
256,288,124646,1,6
256,160,124907,1,6
256,32,125168,1,6
64,336,125690,5,0
240,336,125951,1,0
416,336,126212,1,0
416,160,126472,1,0
240,160,126733,1,0
64,160,126994,1,0
240,160,127255,1,0
512,352,127777,5,0
336,352,128038,1,0
416,192,128298,1,0
496,32,128559,1,0
320,32,128820,1,0
144,32,129081,1,0
304,96,129342,2,6,C|64:96,1,240
64,272,130125,1,0
240,272,130385,1,0
400,192,130646,2,6,C|400:0,1,180
192,192,131429,1,0
368,192,131951,6,6,C|368:320,1,120
368,128,132472,2,6,C|240:128,1,120
432,128,132994,2,6,C|432:256,1,120
432,64,133516,2,6,C|288:64,1,120
496,64,134038,2,6,C|496:208,1,120
496,0,134559,2,6,C|352:0,1,120
192,0,135081,2,6,C|192:144,2,120
256,192,136125,5,4
512,192,136646,1,4
288,320,137168,1,4
320,64,137690,1,0
192,64,137951,1,0
128,64,138081,1,0
160,112,138212,1,0
160,240,138472,1,0
48,176,138733,2,0,B|48:112,2,60
48,304,139255,1,0
176,304,139516,1,0
368,304,139907,1,0
256,192,140298,12,0,142516
144,352,143168,2,6,B|16:352,1,120
256,352,143690,2,6,B|384:352,1,120
368,112,144212,2,6,B|240:112,1,120
0,112,144733,2,6,B|128:112,1,120
256,192,145255,12,0,146690
16,0,147342,6,6,B|16:128,1,120
16,368,147864,2,6,B|16:224,1,120
256,256,148385,2,6,B|256:384,1,120
256,128,148907,2,6,B|256:-16,1,120
256,192,149429,12,0,152559
256,192,157516,1,6
464,80,157777,1,6
464,304,158038,1,6
256,192,158298,1,6
16,192,158559,1,6
256,32,159081,5,2
256,272,159603,1,0
160,208,159864,1,0
64,272,160125,1,0
160,336,160385,1,0
272,336,160646,1,0
464,192,161168,5,2
224,192,161690,1,0
304,112,161951,1,0
224,32,162212,1,0
144,112,162472,1,0
144,224,162733,1,0
144,336,162994,6,6,B|272:336,1,120
80,336,163516,2,6,B|80:208,1,120
256,272,164038,2,6,B|112:272,1,120
304,208,164559,2,6,B|176:208,1,120
16,272,165081,2,2,B|80:272,2,60
192,272,165603,2,4,B|192:144,1,120
368,144,166125,2,4,B|368:288,1,120
192,272,166646,2,4,B|192:128,1,120
256,352,167429,5,2
432,176,167951,1,0
432,48,168212,1,0
320,112,168472,1,0
208,176,168733,1,0
208,48,168994,1,0
320,112,169255,6,6,B|192:112,1,120
80,112,169777,1,6
80,240,170038,2,6,B|208:240,1,120
320,240,170559,1,6
320,48,170951,2,4,B|176:48,1,120
256,352,172125,5,6
416,192,172385,1,6
256,32,172646,1,6
96,192,172907,1,6
256,192,173168,1,6
256,192,173429,12,4,175255
256,192,175777,5,0
256,320,176038,1,0
192,208,176298,1,0
320,208,176559,1,0
256,320,176820,1,0
256,192,177081,1,0
256,320,177342,6,0,B|256:64,1,240
368,144,178125,2,0,B|368:272,1,120
144,272,178646,2,0,B|144:128,1,120
256,192,179168,1,0
256,192,179429,1,0
256,32,179951,6,6,B|368:112,1,120
256,352,180472,2,6,B|128:272,1,120
496,192,180994,2,6,B|400:304,1,120
16,192,181516,2,6,B|128:80,1,120
192,192,182038,5,6
320,192,182298,1,6
448,192,182559,1,6
320,192,182820,1,6
320,64,183081,2,6,B|464:64,2,120
256,192,188820,12,4,190646
256,192,191168,5,6
256,16,191429,1,6
416,96,191690,1,6
240,96,191951,2,6,B|-16:96,1,240
80,256,192733,1,6
432,256,193255,1,6
256,256,193516,1,6
80,256,193777,1,6
256,192,194038,12,0,194820
256,192,195342,1,6
256,16,195603,1,6
96,96,195864,1,6
272,96,196125,2,6,B|528:96,1,240
432,256,196907,1,6
80,256,197429,1,6
256,256,197690,1,6
432,256,197951,1,6
256,192,198212,12,4,200559
