osu file format v14

[General]
AudioFilename: BBC Match of the Day 2009-2010 TV Intro.mp3
AudioLeadIn: 0
PreviewTime: -1
Countdown: 0
SampleSet: None
StackLeniency: 0.7
Mode: 0
LetterboxInBreaks: 1
StoryFireInFront: 0
EpilepsyWarning: 1
WidescreenStoryboard: 1

[Editor]
DistanceSpacing: 0.5
BeatDivisor: 4
GridSize: 4
TimelineZoom: 2.2

[Metadata]
Title:Match Of The Day
TitleUnicode:Match Of The Day
Artist:Match Of The Day
ArtistUnicode:Match Of The Day
Creator:Lemonosity
Version:Gary Fookin Lineker
Source:Match of the day
Tags:Match Of The Day Theme
BeatmapID:761580
BeatmapSetID:344797

[Difficulty]
HPDrainRate:4
CircleSize:4
OverallDifficulty:7
ApproachRate:9
SliderMultiplier:2.5
SliderTickRate:4

[Events]
//Background and Video events
Video,0,"BBC_Match_of_the_Day_2009-2010_TV_Intro.avi"
0,0,"article-1313747-0113D70E000004B0-698_634x416.jpg",0,0
//Break Periods
//Storyboard Layer 0 (Background)
//Storyboard Layer 1 (Fail)
//Storyboard Layer 2 (Pass)
//Storyboard Layer 3 (Foreground)
//Storyboard Sound Samples

[TimingPoints]
0,500,4,1,0,100,1,0

[HitObjects]
48,204,6322,5,0,0:0:0:0:
212,104,6571,1,0,0:0:0:0:
368,204,6819,1,0,0:0:0:0:
140,312,7125,2,0,P|212:212|276:192,1,187.5
396,168,7593,2,0,P|432:116|436:36,2,125
436,312,8343,1,0,0:0:0:0:
224,116,8593,1,0,0:0:0:0:
188,124,8718,1,0,0:0:0:0:
156,148,8843,1,0,0:0:0:0:
128,176,8968,1,0,0:0:0:0:
120,280,9093,1,0,0:0:0:0:
384,280,9340,2,0,L|448:312,2,62.5
164,68,9861,2,0,L|96:32,2,62.5
100,272,10312,1,0,0:0:0:0:
248,168,10562,1,0,0:0:0:0:
80,112,10812,1,0,0:0:0:0:
348,104,11062,2,0,L|396:148,1,62.5
452,204,11312,1,0,0:0:0:0:
404,256,11437,1,0,0:0:0:0:
360,304,11562,1,0,0:0:0:0:
112,360,11781,2,0,P|36:336|20:320,3,62.5
40,304,12281,1,0,0:0:0:0:
36,260,12406,1,0,0:0:0:0:
52,220,12531,1,0,0:0:0:0:
220,296,12781,1,0,0:0:0:0:
312,304,13014,2,0,P|420:272|420:192,1,187.5
456,360,13509,1,0,0:0:0:0:
232,204,13757,1,0,0:0:0:0:
56,64,14005,1,0,0:0:0:0:
332,136,14253,2,0,P|392:160|344:240,2,125
80,296,15000,1,0,0:0:0:0:
140,72,15375,1,0,0:0:0:0:
140,72,15500,1,0,0:0:0:0:
388,64,15750,1,0,0:0:0:0:
420,312,16000,1,0,0:0:0:0:
172,308,16250,1,0,0:0:0:0:
124,56,16468,2,0,P|228:84|212:112,1,187.5
216,140,16968,1,0,0:0:0:0:
316,204,17218,1,0,0:0:0:0:
152,272,17468,1,0,0:0:0:0:
376,288,17718,2,0,P|440:260|432:184,2,125
56,292,18468,1,0,0:0:0:0:
176,176,18718,1,0,0:0:0:0:
36,72,18968,1,0,0:0:0:0:
408,64,19187,1,0,0:0:0:0:
408,64,19312,1,0,0:0:0:0:
208,168,19562,1,0,0:0:0:0:
208,168,19687,1,0,0:0:0:0:
400,152,19937,1,0,0:0:0:0:
92,256,20156,2,0,L|156:312,1,62.5
344,256,20531,2,0,L|288:324,1,62.5
100,96,20875,1,0,0:0:0:0:
376,184,21125,1,0,0:0:0:0:
336,144,21250,2,0,P|256:112|192:152,1,125
180,160,21625,1,0,0:0:0:0:
248,188,21906,1,0,0:0:0:0:
256,192,21937,12,0,22750,0:0:0:0:
384,112,23000,6,0,L|188:152,1,166.666666666667
176,216,23416,2,0,L|296:276,2,125
420,112,24125,1,0,0:0:0:0:
280,132,24375,2,0,L|280:200,1,62.5
164,136,24625,2,0,L|164:208,1,62.5
148,308,24875,1,0,0:0:0:0:
380,300,25125,1,0,0:0:0:0:
380,300,25250,1,0,0:0:0:0:
380,300,25375,2,0,P|400:208|352:160,2,125
224,208,26125,2,0,P|220:108|268:56,2,125
392,184,26875,1,0,0:0:0:0:
112,128,27250,1,0,0:0:0:0:
112,128,27375,1,0,0:0:0:0:
196,300,27625,1,0,0:0:0:0:
328,80,27875,1,0,0:0:0:0:
392,300,28125,1,0,0:0:0:0:
392,268,28250,1,0,0:0:0:0:
392,236,28375,1,0,0:0:0:0:
396,204,28500,1,0,0:0:0:0:
396,172,28625,1,0,0:0:0:0:
392,140,28750,1,0,0:0:0:0:
360,100,28875,2,0,L|304:164,1,62.5
440,152,29125,2,0,L|484:216,1,62.5
368,200,29375,2,0,L|324:268,1,62.5
432,256,29625,2,0,L|480:336,2,62.5
120,288,30125,2,0,P|176:200|168:164,2,125
324,264,30875,2,0,P|376:152|352:92,1,187.5
320,68,31375,1,0,0:0:0:0:
76,256,31625,2,0,P|188:296|224:280,1,125
252,276,32000,2,0,L|292:208,3,62.5
276,192,32500,1,0,0:0:0:0:
268,160,32625,1,0,0:0:0:0:
260,132,32750,1,0,0:0:0:0:
288,116,32875,2,0,P|376:152|368:244,1,187.5
456,108,33375,1,0,0:0:0:0:
272,204,33625,1,0,0:0:0:0:
68,304,33875,1,0,0:0:0:0:
152,72,34375,1,0,0:0:0:0:
368,68,34625,1,0,0:0:0:0:
160,208,34875,1,0,0:0:0:0:
320,216,35125,1,0,0:0:0:0:
408,152,35250,1,0,0:0:0:0:
176,212,35500,1,0,0:0:0:0:
196,132,35625,1,0,0:0:0:0:
320,280,35875,2,4,P|392:224|392:176,2,125
56,276,36625,1,0,0:0:0:0:
256,56,36875,1,0,0:0:0:0:
208,140,37125,1,0,0:0:0:0:
100,140,37250,1,0,0:0:0:0:
260,216,37500,1,0,0:0:0:0:
348,220,37625,1,0,0:0:0:0:
224,304,37875,1,0,0:0:0:0:
240,192,38875,1,0,0:0:0:0:
180,236,39875,2,0,P|148:248|72:316,1,125
196,172,40375,2,0,P|252:196|316:268,1,125
164,92,40875,2,0,P|72:132|36:196,1,125
452,44,41375,1,0,0:0:0:0:
460,340,41625,1,0,0:0:0:0:
168,168,41875,1,0,0:0:0:0:
256,192,42000,12,0,44625,0:0:0:0:
