osu file format v7

[General]
AudioFilename: Matanza---Ela-Roubou-Meu-Caminhao.mp3
AudioLeadIn: 0
PreviewTime: 6160
Countdown: 1
SampleSet: Normal
StackLeniency: 0.7
Mode: 0
LetterboxInBreaks: 1
SkinPreference:Default

[Editor]
DistanceSpacing: 0.800000011920929
BeatDivisor: 2
GridSize: 8

[Metadata]
Title:Ela Roubou Meu Caminhao
Artist:Matanza
Creator:Dragvon
Version:Drunk Truck
Source:MATANZA
Tags:pneu outlaw fabriciorby fabricio4p utena roxkyuubiforever lillychan bittersweet

[Difficulty]
HPDrainRate:8
CircleSize:5
OverallDifficulty:7
SliderMultiplier:1.8
SliderTickRate:1

[Events]
//Background and Video events
0,0,"carreta_tomba.jpg"
Video,0,"Matanza---Ela-Roubou-Meu-Caminhao.flv"
//Break Periods
2,58355,63078
//Storyboard Layer 0 (Background)
//Storyboard Layer 1 (Fail)
//Storyboard Layer 2 (Pass)
//Storyboard Layer 3 (Foreground)
Sprite,Foreground,Centre,"drag.png",320,240 F,0,0,725,0,1 M,0,0,227813,107,421,107,417 F,0,725,6348,1 F,0,6348,6749,1,0
//Storyboard Sound Samples
//Background Colour Transformations
3,100,163,162,255

[TimingPoints]
6750,401.606425702811,4,1,0,100,1,0

[Colours]
Combo1 : 0,0,255
Combo2 : 255,0,0
Combo3 : 255,128,0
Combo4 : 255,255,0
Combo5 : 0,0,128

[HitObjects]
408,72,6750,2,0,B|336:72|280:72|248:136|248:136,1,180,8|0
240,208,7352,1,0
304,184,7553,1,0
368,208,7754,1,0
440,184,7954,1,0
440,256,8155,1,0
440,256,8356,2,0,B|256:256|256:256,1,180,8|0
216,200,8958,5,0
288,200,9159,1,0
288,128,9360,1,0
216,128,9561,1,0
216,56,9762,1,0
216,56,9962,2,0,B|32:56|32:56,1,180,8|0
32,128,10565,5,0
32,200,10766,1,0
104,200,10966,1,0
176,200,11167,1,0
176,272,11368,1,0
176,272,11569,2,0,B|360:272|360:272,1,180,8|0
432,272,12171,5,0
432,200,12372,1,0
432,128,12573,1,0
360,128,12774,1,0
288,128,12974,1,0
288,128,13175,2,0,B|104:128|104:128,1,180,8|0
88,200,13778,5,0
88,272,13978,1,0
152,240,14179,1,0
208,200,14380,1,0
208,272,14581,2,0,B|336:272|336:272,1,90,0|12
256,56,16187,6,0,B|320:56|432:128|432:248,1,270,8|0
432,312,16990,1,0
376,264,17191,1,0
320,312,17392,1,0
264,264,17593,1,0
208,312,17794,2,0,B|208:216|208:216,1,90,0|12
72,56,19400,6,0,B|72:240|72:240,1,180,8|0
48,304,20003,1,0
120,304,20203,1,0
192,304,20404,1,8
160,240,20605,1,0
88,240,20806,1,0
128,176,21007,1,0
200,176,21207,1,8
232,240,21408,1,0
264,304,21609,1,0
336,304,21810,5,0
408,312,22011,2,0,B|448:200|448:200,1,90,8|0
456,160,22412,2,0,B|368:72|368:72,1,90
360,160,22814,2,0,B|288:88|288:88,1,90,8|0
264,160,23215,2,0,B|184:80|184:80,1,90
176,168,23617,2,0,B|88:80,1,90,8|0
64,160,24019,1,0
64,232,24219,2,0,B|160:232|160:232,1,90,0|12
408,48,26027,6,0,B|440:112|360:112|360:112,1,90,8|0
296,112,26428,1,0
224,112,26629,1,0
152,112,26830,1,8
104,168,27031,1,0
152,224,27231,1,0
224,232,27432,2,0,B|320:232|320:232,1,90,0|12
64,328,29039,6,0,B|64:304|64:304|80:320|80:320|72:296|72:296|88:312|88:312|80:288|80:288|96:304|96:304|88:280|88:280|104:296|104:296|96:272|96:272|112:288|112:288|104:264|104:264|120:256|120:256,1,270,8|0
176,256,29842,1,0
248,256,30043,1,8
320,256,30243,1,0
392,256,30444,1,0
464,264,30645,2,0,B|464:168|464:168,1,90,0|12
432,80,32252,6,0,B|280:200|280:200,1,180,8|0
288,112,32854,1,0
232,64,33055,1,0
160,56,33256,1,8
88,64,33456,1,0
32,112,33657,1,0
88,64,33858,1,0
160,56,34059,1,8
232,64,34260,1,0
288,112,34460,1,0
288,184,34661,5,0
216,192,34862,2,0,B|112:192|128:192,1,90,8|0
88,256,35264,2,0,B|192:256|192:256,1,90
224,192,35665,2,0,B|128:192|128:192,1,90,8|0
88,256,36067,2,0,B|192:256|192:256,1,90
208,312,36468,2,0,B|304:312,1,90,8|0
368,312,36870,1,0
296,312,37071,2,0,B|200:312|200:312,1,90,0|12
72,56,39079,6,0,B|56:176|168:184|168:184,1,180,8|0
240,184,39681,1,0
312,184,39882,2,0,B|416:192|440:280|400:312|400:312,1,180,0|8
272,264,40685,1,8
232,320,40886,1,0
192,264,41087,1,0
232,200,41288,1,8
272,136,41488,1,0
200,136,41689,1,0
232,72,41890,1,0
160,64,42091,2,0,B|64:64|64:64,2,90,8|0|12
440,56,45505,6,0,B|456:176|344:184|344:184,1,180,8|0
344,112,46107,1,0
272,112,46308,1,0
272,40,46509,2,0,B|368:40|368:40,2,90,0|8|0
200,40,47111,1,8
144,88,47312,1,0
184,152,47513,1,0
120,184,47713,1,8
176,232,47914,1,0
120,280,48115,1,0
176,328,48316,1,0
248,328,48517,5,8
392,328,48918,1,0
392,328,49119,1,0
392,256,49320,2,0,B|488:256|488:256,2,90
384,184,49922,1,0
312,184,50123,1,8
384,184,50324,1,0
312,184,50525,1,0
384,184,50725,1,8
312,184,50926,1,8
256,192,51027,12,12,51729
256,192,52332,5,8
256,192,52533,1,8
256,192,52633,12,12,53336
256,192,53938,5,8
256,192,54139,1,8
256,192,54239,12,12,54942
256,192,55545,5,8
256,192,55745,1,8
256,192,55846,12,12,56549
256,192,56749,5,0
256,192,56950,1,0
256,192,57151,1,0
256,192,57352,1,0
256,192,57553,1,0
256,192,57754,1,0
256,192,57954,1,0
256,192,58155,1,12
96,64,63978,6,0,B|152:88|144:120|120:136|64:144|48:160|64:176|104:200|104:200,1,180,8|0
168,192,64581,1,0
168,120,64782,1,0
240,120,64982,1,8
240,48,65183,1,0
312,48,65384,1,0
312,120,65585,1,0
384,120,65786,1,8
384,192,65986,1,0
456,192,66187,1,4
96,320,67191,6,0,B|152:296|144:264|120:248|64:240|48:224|64:208|104:184|104:184,1,180,8|0
168,192,67794,1,0
168,264,67994,1,0
240,264,68195,1,8
240,336,68396,1,0
312,336,68597,1,0
312,264,68798,1,0
384,264,68998,1,8
384,192,69199,1,0
456,192,69400,1,4
64,56,70806,5,8
112,112,71007,1,0
160,56,71207,1,0
208,104,71408,2,0,B|144:136|208:208,2,90,0|0|8
248,160,72011,2,0,B|304:136|264:72,2,90
176,168,72613,2,0,B|136:216|176:256,1,90,8|0
208,312,73015,2,0,B|256:344|312:304,1,90
328,248,73416,1,8
368,192,73617,1,0
328,136,73818,1,0
256,136,74019,6,0,B|192:104|240:48,1,90,0|8
256,136,74420,2,0,B|320:104|272:48,1,90
256,136,74822,2,0,B|192:168|240:224,1,90,0|8
256,136,75223,2,0,B|320:168|272:224,1,90
256,272,75625,1,0
256,344,75826,1,12
112,80,77231,5,8
48,136,77432,1,0
176,136,77633,1,0
24,200,77834,1,0
200,200,78035,1,0
48,256,78235,1,8
176,256,78436,1,0
112,296,78637,1,0
112,192,78838,1,0
112,192,79039,1,12
400,304,80444,5,8
464,248,80645,1,0
336,248,80846,1,0
488,184,81047,1,0
312,184,81247,1,0
464,128,81448,1,8
336,128,81649,1,0
400,88,81850,1,0
400,192,82051,1,0
400,192,82252,1,12
104,96,83557,6,0,B|64:144|88:208|104:232|104:232,1,135,0|8
168,232,84059,2,0,B|224:192|152:144|152:144,1,90
256,232,84460,2,0,B|200:272|272:320|272:320,1,90,0|8
320,232,84862,2,0,B|376:192|304:144|304:144,1,90
408,232,85264,2,0,B|352:272|424:320|424:320,1,90,0|8
480,304,85665,1,0
480,232,85866,1,0
448,168,86066,5,0
376,144,86268,2,0,B|376:88|440:88|440:88,2,90,8|0|0
376,216,86870,1,0
376,288,87071,2,0,B|376:344|440:344|440:344,2,90,8|0|0
304,216,87673,1,0
232,216,87874,2,0,B|136:216,1,90,8|0
72,216,88275,1,0
144,216,88476,2,0,B|240:216|240:216,1,90,0|12
