osu file format v6

[General]
AudioFilename: Makura Kouji.MP3
AudioLeadIn: 1996
PreviewTime: 15215
Countdown: 1
SampleSet: Soft
StackLeniency: 0.7
Mode: 0
LetterboxInBreaks: 1

[Editor]
Bookmarks: 149003,149347,149771
DistanceSpacing: 1.20000004768372
BeatDivisor: 4
GridSize: 8

[Metadata]
Title:Makura Kouji
Artist:Masuda Toshio
Creator:Suck
Version:Hard
Source:
Tags:Mushi shi Masuda Toshio 49937400

[Difficulty]
HPDrainRate:7
CircleSize:4
OverallDifficulty:8
SliderMultiplier:1.4
SliderTickRate:1

[Events]
//Background and Video events
0,0,"Makura Kouji.jpg"
//Break Periods
2,128412,132112
//Storyboard Layer 0 (Background)
//Storyboard Layer 1 (Fail)
//Storyboard Layer 2 (Pass)
//Storyboard Layer 3 (Foreground)
//Storyboard Sound Samples
//Background Colour Transformations
3,100,163,162,255

[TimingPoints]
335,465.008137642409,4,2,0,20,1,0
2195,-100,4,2,0,20,0,0
3590,-100,4,2,0,0,0,0
4055,-100,4,2,0,20,0,0
7542,-200,4,2,0,20,0,0
8007,-100,4,2,0,15,0,0
8937,-100,4,2,0,20,0,0
9867,-100,4,2,0,30,0,0
10797,-100,4,2,0,40,0,0
13355,-100,4,2,0,20,0,0
14750,-100,4,2,0,0,0,0
15215,-100,4,2,0,20,0,0
20562,-100,4,2,0,20,0,0
21492,-100,4,2,0,0,0,0
21725,-100,4,2,0,20,0,0
28235,-100,4,2,0,20,0,0
29630,-100,4,2,0,0,0,0
30095,-100,4,2,0,20,0,0
35443,-100,4,2,0,20,0,0
36373,-100,4,2,0,0,0,0
36605,-100,4,2,0,20,0,0
42418,-100,4,2,0,10,0,0
43348,-100,4,2,0,20,0,0
44278,-100,4,2,0,30,0,0
44975,-200,4,2,0,20,0,0
45440,-100,4,2,0,20,0,0
50323,-100,4,2,0,20,0,0
51253,-100,4,2,0,0,0,0
51485,-100,4,2,0,20,0,0
65203,-100,4,2,0,20,0,0
66133,-100,4,2,0,0,0,0
66366,-100,4,2,0,20,0,0
72643,-100,4,2,0,20,0,0
73573,-100,4,2,0,0,0,0
73806,-200,4,2,0,20,0,0
110541,-100,4,2,0,20,0,0
113796,-100,4,2,0,20,0,0
115192,-100,4,2,0,0,0,0
115657,-100,4,2,0,20,0,0
117982,-100,4,2,0,40,0,0
119144,-200,4,2,0,40,0,0
119609,-100,4,2,0,20,0,0
119609,-100,4,2,0,40,0,0
120539,-100,4,2,0,30,0,0
121469,-100,4,2,0,20,0,0
122167,-100,4,2,0,15,0,0
123562,-100,4,2,0,20,0,0
128677,-100,4,2,0,20,0,0
130072,-100,4,2,0,0,0,0
130537,-100,4,2,0,20,0,0
134722,-100,4,2,0,15,0,0
135652,-100,4,2,0,20,0,0
136582,-100,4,2,0,30,0,0
137512,-100,4,2,0,40,0,0
140302,-100,4,2,0,20,0,0
143557,-100,4,2,0,20,0,0
144952,-100,4,2,0,0,0,0
145417,495.867768595041,4,2,0,20,1,0
146904,521.467060664001,4,2,0,20,1,0
147425,545.454545454545,4,2,0,20,1,0
147970,635.930047694754,4,2,0,20,1,0
151785,-100,4,2,0,20,0,0
154965,-100,4,2,0,0,0,0

[HitObjects]
256,32,335,1,0
488,192,800,1,0
256,352,1265,1,0
24,192,1730,1,2
256,208,2195,12,0,3590
112,192,4055,5,0
392,192,4520,1,0
112,192,4985,1,0
392,192,5450,1,2
128,288,6380,5,0
128,144,6612,1,0
248,72,6845,1,0
368,144,7077,1,0
368,288,7310,1,0
248,360,7542,2,2,B|248:320,1,35
248,184,8007,5,2
264,216,8240,1,2
256,264,8472,1,2
208,288,8705,1,2
144,280,8937,1,2
88,232,9170,1,2
64,160,9402,1,2
88,80,9635,1,2
168,32,9867,1,2
264,24,10100,1,2
360,64,10332,1,2
408,160,10565,1,2
384,280,10797,1,2
272,344,11030,1,2
136,328,11262,1,2
48,216,11495,5,2
120,80,11960,1,0
248,32,12425,1,0
376,80,12890,1,0
256,208,13355,12,0,14750
32,320,15215,6,2,B|232:392|448:320,1,420
248,128,17540,5,0
248,272,17772,1,0
368,344,18005,1,0
488,272,18237,1,0
488,128,18470,1,0
368,56,18702,1,2
400,72,18819,1,2
432,56,18935,2,2,B|232:-16|16:56,1,420
256,208,20562,12,2,21492
360,360,21725,6,2,B|432:374|489:312,1,140
440,40,22655,2,2,B|313:-22|182:95|23:39,1,420,2|2
488,360,24980,5,0
384,264,25212,1,0
304,152,25445,1,0
256,24,25677,1,0
208,152,25910,1,0
128,264,26142,1,0
24,360,26375,5,2
24,80,26840,1,2
304,80,27305,1,2
304,360,27770,1,2
256,208,28235,12,2,29630
480,32,30095,6,2,B|480:264|184:264,1,420
344,32,32420,5,0
448,128,32653,1,0
448,264,32885,1,0
344,352,33118,1,0
200,352,33350,1,0
88,264,33583,1,0
88,264,33815,5,2
88,264,34280,1,2
88,192,34745,1,2
88,120,35210,1,2
256,208,35443,12,2,36373
320,360,36605,6,2,B|480:360|480:168,1,280,2|2
256,336,38000,1,2
256,56,38465,1,2
256,336,38930,1,2
472,152,39860,5,0
328,152,40093,1,0
184,152,40325,1,0
40,152,40558,1,0
184,152,40790,1,0
328,152,41023,1,0
472,152,41255,5,2
256,336,41720,1,2
256,56,42185,1,2
256,200,42418,5,2
360,296,42650,1,2
456,200,42883,1,2
352,104,43115,1,2
256,200,43348,1,2
160,104,43580,1,2
56,200,43813,1,2
160,296,44045,1,2
256,200,44278,1,2
256,200,44510,1,2
256,272,44743,1,2
256,272,44975,6,2,B|256:312,1,35
464,304,45440,1,0
184,304,45905,1,0
32,72,46370,2,2,B|95:35|169:72,1,140
448,72,47300,5,0
448,208,47533,1,0
304,208,47765,1,0
304,344,47998,1,0
160,344,48230,1,0
160,203,48463,1,2
160,171,48579,1,2
160,131,48695,1,2
232,128,49160,5,2
304,128,49625,1,2
304,200,50090,1,2
256,208,50323,12,2,51253
464,360,51485,6,2,B|501:297|464:223,1,140
240,64,52415,2,2,B|265:29|300:25,1,70
233,151,52880,2,2,B|258:116|293:112,1,70
224,239,53345,2,2,B|249:204|284:200,1,70
216,327,53810,2,2,B|257:272|337:256,1,140
73,360,54740,5,0
73,216,54973,1,0
73,360,55205,1,0
73,216,55438,1,0
73,72,55670,1,0
209,72,55903,1,0
345,72,56135,5,2
209,312,56600,1,2
209,32,57065,1,2
440,192,57531,2,2,B|240:120|24:192,1,420
304,192,59856,5,0
56,328,60321,1,0
56,48,60786,1,0
336,48,61251,2,2,B|399:11|473:48,1,140
472,328,62181,5,0
328,328,62413,1,0
328,184,62646,1,0
184,184,62878,1,0
184,40,63111,1,0
184,40,63343,1,0
48,40,63576,6,2,B|11:103|48:177,1,140,0|0
288,312,64506,1,2
288,32,64971,1,2
256,208,65203,12,2,66133
464,360,66366,6,0,B|501:297|464:223,1,140
184,224,67296,1,0
463,224,67761,1,0
184,224,68226,1,0
48,136,68691,2,2,B|11:199|48:273,1,140,0|2
328,304,69621,6,2,B|303:339|268:343,1,70
336,216,70086,2,2,B|311:251|276:255,1,70
344,128,70551,2,2,B|319:163|284:167,1,70
344,40,71016,2,2,B|303:95|223:111,1,140
480,224,71946,1,2
224,344,72411,1,2
256,208,72643,12,2,73573
32,224,73806,6,2,B|16:183|33:152,1,70
136,56,74736,2,2,B|297:4|488:62,1,350
480,200,77526,5,0
480,232,77758,1,0
480,264,77991,1,0
480,304,78223,1,0
480,335,78456,2,2,B|321:394|128:341,1,350
272,296,81246,5,0
272,152,81711,1,0
408,152,82176,1,0
408,152,82641,1,0
408,80,83106,1,0
472,112,83571,2,2,B|472:24|384:24,1,140
248,24,84966,5,0
216,24,85198,1,0
176,24,85431,1,0
144,24,85663,1,0
104,24,85896,2,2,B|45:183|98:376,1,350
232,368,88686,6,2,B|273:382|304:364,1,70
440,368,89616,2,2,B|492:207|434:16,1,350
304,72,92406,5,0
240,96,92639,1,0
176,128,92871,1,0
112,160,93104,1,0
48,192,93336,2,2,B|207:133|400:186,1,350
480,72,96126,5,0
480,208,96591,1,0
480,344,97056,1,0
336,344,97521,1,0
192,344,97986,1,0
192,200,98451,2,2,B|104:200|104:288,1,140
232,240,99846,5,0
296,216,100079,1,0
360,192,100311,1,0
424,168,100544,1,0
480,136,100776,2,2,B|321:195|128:142,1,350
256,216,103566,6,2,B|256:360,1,140
376,288,104961,1,2
256,216,105426,1,2
136,288,105891,1,2
32,32,106821,5,0
104,32,107054,1,0
176,32,107286,1,2
256,144,107751,5,0
328,144,107984,1,0
400,144,108216,1,2
400,280,108681,5,0
328,280,108914,1,0
256,280,109146,1,2
144,360,109611,6,2,B|72:360,1,70,0|2
48,80,110541,5,0
184,80,110774,1,0
320,80,111006,1,0
456,80,111239,1,0
320,80,111471,1,0
320,80,111704,1,0
456,80,111936,5,0
456,360,112401,1,2
176,360,112866,1,2
176,80,113331,1,2
256,208,113796,12,2,115192
256,32,115657,5,0
488,192,116122,1,0
256,352,116587,1,0
24,192,117052,1,2
136,248,117982,5,0
136,104,118214,1,0
256,32,118447,1,0
376,104,118679,1,0
376,248,118912,1,0
256,320,119144,2,2,B|256:360,1,35
256,352,119609,5,2
136,296,119842,1,2
88,184,120074,1,2
144,80,120307,1,2
248,32,120539,1,2
352,56,120772,1,2
400,136,121004,1,2
408,224,121237,1,2
368,296,121469,1,2
296,328,121702,1,2
224,312,121934,1,2
176,272,122167,1,2
176,216,122399,1,2
200,176,122632,1,2
240,168,122864,1,2
272,192,123097,5,2
272,192,123562,1,0
275,261,124027,1,0
275,333,124492,1,0
32,192,125422,5,0
168,192,125654,1,0
304,192,125887,1,0
440,192,126119,1,0
304,192,126352,1,0
168,192,126584,1,0
32,192,126817,5,0
256,24,127282,1,2
480,192,127747,1,2
256,360,128212,1,2
472,192,132862,5,0
328,192,133094,1,0
472,192,133327,1,0
328,192,133559,1,0
184,192,133792,1,0
40,192,134024,1,0
184,192,134257,1,0
464,192,134722,5,2
392,312,134954,1,2
256,352,135187,1,2
120,312,135419,1,2
48,192,135652,1,2
120,72,135884,1,2
256,32,136117,1,2
392,72,136349,1,2
464,192,136582,1,2
392,312,136814,1,2
256,352,137047,1,2
120,312,137279,1,2
48,192,137512,1,2
120,72,137744,1,2
256,32,137977,5,2
24,192,138442,1,0
256,352,138907,1,0
488,192,139372,1,0
256,32,140302,5,0
256,168,140534,1,0
112,168,140767,1,0
112,304,140999,1,0
112,304,141232,1,0
112,168,141464,1,0
112,304,141697,5,0
392,304,142162,1,2
384,24,142627,1,2
104,24,143092,1,2
256,208,143557,12,2,144952
40,248,145417,5,2
128,136,145664,1,2
208,232,145912,1,2
288,152,146160,1,2
360,216,146408,1,2
432,168,146656,1,2
392,96,146904,5,2
320,56,147164,1,2
240,48,147425,1,2
160,72,147697,5,2
112,120,147970,1,2
112,120,148287,1,2
112,120,148605,1,2
112,224,149003,1,2
200,224,149347,1,2
312,224,149771,1,2
256,208,151785,12,0,154965
