osu file format v6

[General]
AudioFilename: Ghost Hunt - Main Theme.mp3
AudioLeadIn: 0
PreviewTime: -1
Countdown: 1
SampleSet: Soft
StackLeniency: 0.7
Mode: 0
LetterboxInBreaks: 1

[Editor]
DistanceSpacing: 0.800000011920929
BeatDivisor: 4
GridSize: 8

[Metadata]
Title:Main Theme
Artist:Masuda Toshio
Creator:Polaris03
Version:Spectre
Source:Ghost Hunt
Tags:

[Difficulty]
HPDrainRate:4
CircleSize:5
OverallDifficulty:4
SliderMultiplier:1.3
SliderTickRate:2

[Events]
//Background and Video events
0,0,"Ghost Hunt.png"
//Break Periods
//Storyboard Layer 0 (Background)
//Storyboard Layer 1 (Fail)
//Storyboard Layer 2 (Pass)
//Storyboard Layer 3 (Foreground)
//Storyboard Sound Samples
//Background Colour Transformations
3,100,0,128,0

[TimingPoints]
8710,500,4,2,0,100,1,0
16723,-100,4,2,0,100,0,0
24709,-100,4,2,0,100,0,0
32695,-100,4,2,0,100,0,0
40681,-100,4,2,0,100,0,0
48667,-100,4,2,0,100,0,0
56653,-100,4,2,0,100,0,0
64639,-100,4,2,0,100,0,0
72625,-100,4,2,0,100,0,0
78710,-100,4,2,0,100,0,0

[Colours]
Combo1 : 0,64,0
Combo2 : 0,128,0
Combo3 : 0,128,64

[HitObjects]
320,64,8710,1,0
240,128,9210,1,0
320,192,9710,1,0
224,224,10209,1,0
272,128,10709,5,0
192,80,11209,1,0
144,160,11709,1,0
80,80,12209,1,0
80,176,12709,5,0
160,240,13209,1,0
240,192,13709,2,2,B|224:160|208:128|320:128,1,130
400,160,14709,1,0
336,224,15209,2,2,B|320:160|256:128|240:192,1,130
208,256,16209,1,0
128,208,16709,6,2,B|80:144|208:176,1,130
272,160,17460,1,0
336,192,17709,2,2,B|320:240|256:192|272:288,1,130
336,304,18460,1,0
384,272,18709,1,0
416,224,18960,1,0
416,160,19209,2,2,B|416:128|320:192|304:272|176:128,1,260
96,96,20710,5,0
160,96,20960,1,0
128,160,21210,2,2,B|64:176|144:224|192:240|128:288,1,130
208,288,21960,1,0
256,240,22210,1,0
240,128,22710,6,2,B|192:96|176:144,1,65
144,176,23210,1,0
96,144,23460,1,0
112,80,23710,2,2,B|144:32|240:32|240:96,1,130
256,192,24710,12,2,26210
304,112,26710,6,2,B|304:96|336:80,7,43.3333333333333
416,80,28210,1,0
456,184,28710,2,2,B|472:152|424:136,1,65
368,152,29210,1,0
320,112,29460,1,0
256,112,29710,2,2,B|224:112|208:160,1,65
208,208,30210,1,0
176,256,30460,1,0
128,208,30710,6,2,B|48:208|176:160|64:64|0:96|96:256,1,260
88,240,31876,1,0
160,272,32210,1,0
160,272,32376,1,0
256,192,32710,12,0,34210
128,96,34710,5,0
112,160,34960,2,2,C|80:224|288:208,1,260
320,208,36210,2,2,C|352:192|368:160,1,65
320,128,36710,6,2,C|272:64|272:64|224:104|136:16,1,260
96,64,37960,1,0
136,112,38210,1,0
256,192,38710,12,2,40709
336,80,41209,6,6,C|368:128|320:192,1,130,2|6
208,176,42209,2,6,C|176:128|240:64,1,130,2|6
272,176,43209,2,6,C|272:32,2,130,2|6|6
272,272,44709,5,2
192,192,45209,1,2
288,144,45709,1,2
352,224,46209,1,2
256,272,46709,2,10,C|240:240|224:272|208:240|192:272|176:240|160:272|144:240|128:272|112:240|96:272|80:240|80:112,1,520,8|4
208,120,49460,5,2
192,64,49709,1,4
320,128,50460,1,2
272,80,50709,2,0,B|240:32|288:0|416:16|480:48|496:128|464:176|352:176,1,390
272,192,52709,5,4
176,96,53460,1,2
176,160,53709,1,4
240,272,54460,5,2
256,208,54709,2,2,C|304:192|256:176|320:160|256:144|320:128|256:112|320:96|256:80,1,455
256,48,56709,1,4
112,80,57460,1,2
160,128,57709,1,4
320,192,58460,1,2
256,176,58709,2,2,C|272:160|256:144|272:128|256:112|272:96|256:80|272:64|256:48|272:32|288:48|304:32|320:48|336:32|352:48|368:32|384:48|400:32|416:48|400:64|384:80|400:80|384:96|400:96|384:112|384:112|384:112|384:112|384:112,1,520,2|6
448,112,60960,1,0
400,160,61209,1,0
464,176,61460,1,0
416,224,61709,5,6
352,224,61960,1,2
320,160,62210,1,2
256,128,62460,1,2
208,80,62709,2,2,B|192:16|160:32,1,65
112,48,63209,2,2,B|96:64|160:112,1,65
176,144,63710,1,2
224,192,63960,2,2,B|256:224|208:240,1,65
144,224,64460,1,2
256,192,64709,12,2,66209
128,80,66709,6,2,C|144:144|144:144|208:64|208:64|256:144|256:144|320:64|320:64|368:144,1,520
352,176,68960,1,0
288,208,69209,2,0,C|256:176|224:192,1,65
192,224,69709,1,0
144,176,69960,2,0,C|112:144|128:128,1,65
176,96,70460,1,0
128,48,70709,1,0
64,80,70960,1,0
64,144,71209,6,0,C|64:224,1,65
128,208,71709,2,0,C|128:112,1,65
192,144,72209,2,0,C|192:224,1,65
192,272,72709,1,0
192,144,73210,2,2,C|224:112|272:96|280:256,1,260,2|2
336,240,74460,1,0
352,304,74710,1,2
400,256,74960,2,2,C|432:176|352:128|336:160|432:112,1,325
416,64,76460,5,0
352,32,76710,1,2
304,80,76960,1,2
336,144,77210,1,2
272,160,77460,1,0
224,112,77709,2,2,C|160:96|96:112,2,130
256,192,78876,12,2,82710
208,208,83210,6,2,C|272:224|336:208,1,130
336,144,83960,1,2
272,112,84210,1,2
208,144,84460,1,2
272,176,84710,1,2
272,320,85710,5,4
