osu file format v6

[General]
AudioFilename: Ghost Hunt - Main Theme.mp3
AudioLeadIn: 0
PreviewTime: -1
Countdown: 1
SampleSet: Soft
StackLeniency: 0.7
Mode: 0
LetterboxInBreaks: 1

[Editor]
DistanceSpacing: 0.800000011920929
BeatDivisor: 3
GridSize: 8

[Metadata]
Title:Main Theme
Artist:Masuda Toshio
Creator:Polaris03
Version:Phantom
Source:Ghost Hunt
Tags:

[Difficulty]
HPDrainRate:5
CircleSize:5
OverallDifficulty:6
SliderMultiplier:1.6
SliderTickRate:1

[Events]
//Background and Video events
0,0,"Ghost Hunt.png"
//Break Periods
//Storyboard Layer 0 (Background)
//Storyboard Layer 1 (Fail)
//Storyboard Layer 2 (Pass)
//Storyboard Layer 3 (Foreground)
//Storyboard Sound Samples
//Background Colour Transformations
3,100,0,128,0

[TimingPoints]
8710,500,4,2,0,100,1,0
16723,-100,4,2,0,100,0,0
24709,-100,4,2,0,100,0,0
32695,-100,4,2,0,100,0,0
40681,-100,4,2,0,100,0,0
48667,-100,4,2,0,100,0,0
56653,-100,4,2,0,100,0,0
64639,-100,4,2,0,100,0,0
72625,-100,4,2,0,100,0,0

[Colours]
Combo1 : 0,64,0
Combo2 : 0,128,0
Combo3 : 0,128,64

[HitObjects]
192,80,8710,5,0
240,128,8876,1,0
288,80,9043,2,0,B|320:64|352:80|320:208,1,160
272,224,9710,1,2
320,272,9876,1,2
256,288,10043,1,2
208,240,10209,1,2
224,176,10376,1,2
304,112,10709,6,0,B|336:48|432:144|352:208,1,160
304,240,11543,1,0
256,208,11709,2,0,B|224:128|144:256,1,160
80,176,12709,5,0
128,128,12876,1,0
144,64,13043,1,0
80,48,13209,2,0,B|80:96|16:144,1,106.666666666667
16,192,13709,2,2,B|48:256|128:240,1,106.666666666667
160,208,14209,1,2
272,112,14709,5,0
320,160,14876,1,0
272,208,15043,1,0
336,224,15209,2,2,B|384:208|448:272,1,106.666666666667
384,304,15709,2,2,B|304:288|208:304,1,160
176,176,16709,5,0
224,128,16876,2,0,B|256:96|256:64,1,53.3333333333333
224,128,17209,1,0
176,176,17376,2,0,B|144:192|112:192,1,53.3333333333333
80,144,17709,2,2,B|48:112|64:80|112:48|176:112,1,160
272,160,18709,6,0,B|320:128|336:144,1,53.3333333333333
384,160,19043,1,0
432,208,19209,1,0
464,160,19376,2,2,B|464:48|368:112,1,106.666666666667,0|2
352,96,19876,2,2,B|304:96|240:32,1,106.666666666667
128,48,20710,5,0
64,80,20876,1,0
48,144,21043,1,0
112,160,21210,2,2,B|112:112|192:96,1,106.666666666667
176,160,21710,2,2,B|240:160|208:256|304:256,1,160
432,224,22710,5,0
464,176,22876,1,0
384,176,23043,2,2,B|416:128,1,53.3333333333333
352,112,23376,2,0,B|384:64,1,53.3333333333333
320,32,23710,2,2,B|272:96|272:96|240:80|240:80|192:128,1,160
256,192,24710,12,2,26210
128,80,26710,5,0
224,80,27043,1,2
288,80,27210,1,2
384,144,27543,1,2
400,208,27710,1,2
320,272,28043,2,2,B|256:256,2,53.3333333333333
288,176,28710,5,0
192,96,29043,2,2,B|144:128,1,53.3333333333333
112,176,29376,1,2
160,208,29543,1,0
112,240,29710,2,0,B|80:272|80:272|192:368,1,160,0|2
208,256,30543,6,2,B|240:192,1,53.3333333333333
288,192,30876,2,2,B|320:128,1,53.3333333333333
272,96,31210,2,2,B|304:32,1,53.3333333333333
352,48,31543,2,2,B|400:48|400:48|320:176,1,160
288,192,32210,1,2
256,192,32710,12,2,34210
256,96,34710,5,0
256,160,34876,2,0,B|320:160,2,53.3333333333333
256,224,35376,2,0,B|192:224,3,53.3333333333333,0|0|0|2
202,224,36043,1,2
202,224,36210,1,2
192,288,36376,2,0,B|256:288,1,53.3333333333333
304,288,36710,2,0,B|336:240,1,53.3333333333333
333,243,37043,1,2
333,243,37210,1,2
384,192,37376,6,0,B|352:144,1,53.3333333333333
400,96,37710,2,0,B|448:48,1,53.3333333333333
437,58,38043,1,2
437,58,38210,1,2
437,58,38376,1,0
368,32,38543,2,0,B|288:32|288:32|320:80,1,106.666666666667
336,96,39043,2,0,B|368:144|368:144|304:144,1,106.666666666667
272,144,39543,2,0,B|240:144|240:144|288:224,1,106.666666666667
336,224,40043,5,2
384,272,40209,1,2
320,288,40376,1,2
256,192,40709,12,2,41709
128,160,42709,6,4,B|128:64|256:48|368:64|368:192,1,320
256,192,44709,12,2,45709
128,256,46709,6,0,B|176:208,1,53.3333333333333
128,256,47043,2,0,B|80:208,1,53.3333333333333
128,256,47376,2,0,B|80:304,1,53.3333333333333
128,256,47709,2,0,B|176:304,1,53.3333333333333
128,256,48043,2,0,B|176:208,2,53.3333333333333
256,256,48709,6,4,B|256:160|80:112,1,213.333333333333
64,160,49543,1,2
77,216,49709,2,4,B|224:256|224:352,1,213.333333333333
288,336,50543,1,2
336,288,50709,2,0,B|400:272|400:272|336:256|336:256|400:240|400:240|336:224|336:224|400:208|400:208|336:192|336:192|400:176|400:176|336:160|336:160|400:144,1,586.666666666667,0|4
432,96,52709,1,4
304,48,53543,2,0,B|256:48|256:48|256:64,1,53.3333333333333,2|4
176,64,54543,5,2
112,80,54709,2,2,B|80:96|80:96|112:112|112:112|80:128|80:128|112:144|112:144|80:160|80:160|112:176|112:176|80:192|80:192|112:208|112:208|80:224|80:224|112:240|112:240|80:256|80:256|112:272|112:272|80:288|80:288|112:304|112:304|80:320|80:320|112:336|112:336|80:352,1,586.666666666667
160,336,56709,1,4
288,288,57543,1,4
320,240,57709,1,4
304,112,58543,5,2
256,160,58709,1,2
240,96,58876,1,2
192,144,59043,2,2,B|144:144|144:112,1,53.3333333333333
96,80,59376,1,2
32,96,59543,2,2,B|16:128|48:160,1,53.3333333333333
80,192,59876,1,2
128,240,60043,2,2,B|176:224,3,53.3333333333333
240,208,60709,5,4
320,128,61209,1,2
368,208,61543,1,0
400,264,61709,1,4
464,192,62209,1,2
400,96,62709,2,2,B|384:160|352:320|256:320|208:208,1,320
208,112,64209,1,0
256,192,64709,12,2,67709
160,64,68709,5,0
256,128,69043,2,0,B|192:80,1,53.3333333333333
160,64,69376,2,0,B|112:96,1,53.3333333333333
80,144,69709,1,0
144,176,69876,1,0
96,208,70043,2,0,B|48:256,1,53.3333333333333
112,288,70376,1,0
176,256,70543,1,0
240,224,70709,6,0,B|304:224,2,53.3333333333333
240,160,71209,2,0,B|176:160,2,53.3333333333333
304,160,71709,2,0,B|368:160,3,53.3333333333333
416,128,72376,2,0,B|368:80,1,53.3333333333333
336,48,72709,5,0
240,80,73043,1,0
176,80,73209,2,2,B|128:80|112:112,1,53.3333333333333
176,192,73709,1,0
288,224,74209,1,0
368,256,74543,5,2
432,272,74709,1,2
432,176,75043,1,0
336,112,75543,1,2
288,64,75709,1,2
192,112,76209,1,0
208,208,76709,6,2,B|256:192|288:192|240:256,1,106.666666666667
208,288,77209,6,2,B|160:304|128:304|176:240,1,106.666666666667
144,192,77709,6,2,L|48:96|240:144,1,320
320,160,79043,1,2
384,176,79210,1,2
384,256,79543,1,2
320,240,79710,1,2
240,208,80043,1,2
240,144,80210,1,2
240,48,80543,1,2
240,48,80710,6,2,L|240:256,1,160,6|2
184,72,81710,2,2,L|184:264,1,160,6|2
240,304,82710,2,2,L|240:368,3,53.3333333333333
240,304,83376,1,4
240,240,83543,1,2
240,176,83710,2,4,L|240:112,1,53.3333333333333
240,64,84043,1,2
304,80,84210,6,6,L|304:128|176:128|176:96,1,160,2|10
96,128,85043,5,2
112,192,85210,1,2
160,240,85376,1,2
256,256,85710,1,4
