osu file format v7

[General]
AudioFilename: Ghost Hunt - Main Theme.mp3
AudioLeadIn: 0
PreviewTime: -1
Countdown: 1
SampleSet: Soft
StackLeniency: 0.7
Mode: 0
LetterboxInBreaks: 1

[Editor]
DistanceSpacing: 0.800000011920929
BeatDivisor: 4
GridSize: 16

[Metadata]
Title:Main Theme
Artist:Masuda Toshio
Creator:Polaris03
Version:Ghost
Source:Ghost Hunt
Tags:

[Difficulty]
HPDrainRate:3
CircleSize:4
OverallDifficulty:3
SliderMultiplier:0.8
SliderTickRate:2

[Events]
//Background and Video events
0,0,"Ghost Hunt.png"
//Break Periods
//Storyboard Layer 0 (Background)
//Storyboard Layer 1 (Fail)
//Storyboard Layer 2 (Pass)
//Storyboard Layer 3 (Foreground)
//Storyboard Sound Samples
//Background Colour Transformations
3,100,0,128,0

[TimingPoints]
8710,500,4,2,0,71,1,0
16723,-100,4,2,0,100,0,0
24709,-100,4,2,0,100,0,0
32695,-100,4,2,0,100,0,0
40681,-100,4,2,0,100,0,0
48667,-100,4,2,0,100,0,0
56653,-100,4,2,0,100,0,0
64639,-100,4,2,0,100,0,0
72625,-100,4,2,0,100,0,0
81610,-100,4,2,0,100,0,0
84085,-50,4,2,0,100,0,0

[Colours]
Combo1 : 0,64,0
Combo2 : 0,128,0
Combo3 : 0,128,64

[HitObjects]
128,80,8710,1,0
208,176,9710,1,0
304,96,10710,2,2,B|352:80|384:96|416:160|400:192,1,160
320,288,12710,5,0
224,192,13710,1,0
128,288,14710,2,2,B|64:272|80:208|144:208|144:160,1,160
128,288,16710,5,0
176,240,17210,1,0
112,224,17710,1,2
192,128,18710,5,0
240,80,19210,2,0,B|272:96|288:112|256:144,1,80
192,128,20210,1,2
128,120,20710,5,0
160,184,21210,1,0
112,224,21710,2,0,B|64:240|96:304|192:224|224:272,1,160,2|0
272,240,23210,2,2,B|272:208|288:192|336:192,1,80
384,224,24210,1,4
256,192,24710,12,2,26210
256,192,26710,12,2,28210
176,96,28710,6,2,B|112:96|128:160,1,80
176,192,29710,2,2,B|240:176|224:128,1,80
240,80,30710,2,2,B|256:48|288:48|304:96|288:176|320:192|368:176|368:80,1,240
256,192,32710,12,2,34210
256,192,34710,12,2,36210
304,176,36710,6,2,B|336:192|256:240,1,80
304,176,37710,2,2,B|256:176|352:112,1,80
304,176,38710,2,2,B|256:96|192:224|80:96,1,240
144,64,40710,5,0
192,112,41210,1,0
256,80,41710,1,2
304,128,42210,1,0
280,192,42710,5,2
224,224,43210,1,0
160,208,43710,1,2
144,272,44210,1,2
192,320,44710,6,2,B|240:288|224:240|192:224|272:176,1,160
320,176,46210,1,0
256,192,46710,12,4,48710
240,80,49710,5,4
176,192,50710,2,2,B|256:192|256:192|192:240|192:240|272:240|272:240|192:304,1,320,2|6
384,240,53710,1,4
368,112,54710,2,2,B|352:48|288:144|320:256|288:160,1,160
256,120,56210,1,2
192,112,56710,5,4
64,112,57710,1,4
144,208,58710,6,2,B|160:144|192:144,1,80
256,144,59710,1,2
240,208,60210,1,2
296,248,60710,5,4
400,176,61710,1,4
480,272,62710,2,2,B|464:320|432:352|320:336|384:272|432:272|496:240|352:256,1,240
304,272,64710,5,0
240,272,65210,1,0
176,272,65710,1,0
112,272,66210,1,0
112,208,66710,5,0
176,208,67210,1,0
240,208,67710,1,0
304,208,68210,1,0
368,160,68710,6,0,B|400:144|368:80,1,80
304,96,69710,2,0,B|272:112|304:176,1,80
368,160,70710,2,0,B|400:144|368:96,3,40
336,112,71710,2,0,B|304:128|336:176,3,40
288,128,72710,6,2,B|256:80|208:112,1,80,2|0
192,160,73710,2,2,B|240:176|256:240,1,80,2|0
192,256,74710,2,2,B|144:224|128:192,1,80,2|0
176,160,75710,2,2,B|192:112|160:80,1,80,2|0
96,80,76710,6,2,B|64:48|64:144,1,80,2|0
88,184,77710,1,2
128,240,78210,1,2
256,192,78710,12,2,80710
344,120,81710,5,2
288,160,82210,1,2
240,112,82710,2,2,B|208:80|128:128|160:192|208:208,1,160
256,240,84085,2,2,B|288:224|320:192,3,66.6666666666667
160,160,85710,5,4
