osu file format v13

[General]
AudioFilename: Mastin The Ekstrak Kulit Manggis.mp3
AudioLeadIn: 2000
PreviewTime: 14189
Countdown: 0
SampleSet: Soft
StackLeniency: 0.7
Mode: 0
LetterboxInBreaks: 0
WidescreenStoryboard: 1

[Editor]
Bookmarks: 9701,10409
DistanceSpacing: 1.2
BeatDivisor: 4
GridSize: 4
TimelineZoom: 2.899999

[Metadata]
Title:Ekstrak Kulit Manggis
TitleUnicode:Ekstrak Kulit Manggis
Artist:Mastin
ArtistUnicode:Mastin
Creator:17day
Version:nopesane
Source:
Tags:Mastin, Kabar Gembira, Mastin Good, Winda, TheLastRaiderz, ZomBerGers
BeatmapID:458353
BeatmapSetID:189280

[Difficulty]
HPDrainRate:6
CircleSize:4
OverallDifficulty:7
ApproachRate:9.4
SliderMultiplier:2.9
SliderTickRate:1

[Events]
//Background and Video events
0,0,"MemeCenter_1404328610422_712.jpg",0,0
//Break Periods
//Storyboard Layer 0 (Background)
//Storyboard Layer 1 (Fail)
//Storyboard Layer 2 (Pass)
//Storyboard Layer 3 (Foreground)
//Storyboard Sound Samples
//Background Colour Transformations
3,100,163,162,255

[TimingPoints]
-1165,472.44094488189,4,2,0,40,1,0
0,-100,4,2,0,40,0,0
2850,-200,4,2,0,40,0,0
3795,-100,4,2,0,40,0,0
6630,-200,4,2,0,40,0,0
7575,-100,4,2,0,40,0,0
10173,-200,4,2,0,40,0,0
11354,-100,4,2,0,40,0,0
13953,-83.3333333333333,4,2,0,40,0,0
14897,-76.9230769230769,4,2,0,40,0,1
17023,-142.857142857143,4,2,0,40,0,1
17732,-76.9230769230769,4,2,0,40,0,1
20803,-153.846153846154,4,2,0,40,0,1
21512,-76.9230769230769,4,2,0,40,0,1
24583,-133.333333333333,4,2,0,40,0,1
25527,-83.3333333333333,4,2,0,40,0,1
27889,-100,4,2,0,40,0,0
28953,-50,4,2,0,40,0,0
30015,-100,4,2,0,5,0,0

[Colours]
Combo1 : 149,74,181
Combo2 : 128,128,192
Combo3 : 255,128,192
Combo4 : 128,128,255

[HitObjects]
40,128,16,6,0,P|80:60|160:36,1,145
240,128,488,2,0,B|176:164|176:164|152:232,1,145
40,144,960,1,0,0:0:0:0:
132,136,1433,6,0,L|256:228,1,145
112,28,1905,2,0,L|248:124,1,145
120,216,2378,2,0,L|240:308,1,145
376,212,2850,2,0,B|404:192|404:192|364:116|244:100,1,217.5
124,200,3795,6,0,P|176:268|248:284,1,145
388,184,4268,2,0,P|336:116|264:100,1,145
332,236,4740,1,0,0:0:0:0:
196,128,4976,1,0,0:0:0:0:
188,280,5212,2,0,P|108:280|44:232,1,145
316,192,5685,2,0,P|236:192|172:144,1,145
456,100,6157,2,0,P|376:100|312:52,1,145
176,136,6630,2,0,P|148:180|256:280,1,217.5
440,140,7575,6,0,B|392:80|392:80|312:32,1,145
208,148,8047,2,0,B|156:200|156:200|84:220,1,145
200,344,8756,1,0,0:0:0:0:
312,232,8992,2,0,B|344:256|344:256|384:268,1,72.5
412,252,9228,2,0,B|394:186|394:186|328:137,1,145
376,88,9701,2,0,B|332:140|332:140|252:156,1,145
400,160,10173,1,0,0:0:0:0:
420,240,10409,2,0,B|359:209|359:209|192:244,1,217.5
132,336,11354,6,0,B|100:352|100:352|40:360,2,72.5,0|0|0,0:0|0:0|0:0,0:0:0:0:
304,336,11827,1,0,0:0:0:0:
276,152,12063,2,0,B|304:100|296:40|296:40|276:84,1,145
236,220,12535,2,0,B|208:272|216:332|216:332|236:288,1,145
280,236,13008,2,0,B|244:280|244:280|148:280,1,145
268,96,13480,2,0,B|304:52|304:52|400:52,1,145
108,304,14189,6,0,P|200:312|288:300,1,173.999994689942
416,160,14661,1,0,0:0:0:0:
184,176,14897,1,0,0:0:0:0:
288,316,15134,2,0,B|320:332|320:332|404:288|420:196,1,188.499991371155
256,192,15606,1,0,0:0:0:0:
224,68,15842,2,0,B|192:52|192:52|108:96|92:188,2,188.499991371155,0|0|0,0:0|0:0|0:0,0:0:0:0:
120,248,16551,1,0,0:0:0:0:
336,248,16787,1,0,0:0:0:0:
424,112,17023,2,0,B|428:92|428:92|380:100|332:92,1,101.499996902466
208,216,17496,2,0,L|316:196,1,101.499996902466,0|0,0:0|0:0,0:0:0:0:
144,308,17968,6,0,B|196:324|196:324|260:312|260:312|332:332,1,188.499991371155
392,160,18441,2,0,P|292:196|208:188,1,188.499991371155
392,160,18913,1,0,0:0:0:0:
136,252,19149,1,0,0:0:0:0:
224,244,19386,6,0,B|93:283|93:283|167:227,1,188.499991371155
308,112,19858,2,0,B|418:31|418:31|367:109,1,188.499991371155
256,240,20331,2,0,B|179:351|179:351|201:261,1,188.499991371155
208,160,20803,2,0,B|258:33|258:33|256:126,1,188.499991371155
100,116,21748,6,0,B|48:120|48:120|-8:108,2,94.2499956855776,0|0|0,0:0|0:0|0:0,0:0:0:0:
352,92,22220,2,0,B|396:88|396:88|472:136|472:136|408:160,1,188.499991371155
388,312,22693,2,0,P|304:232|308:148,1,188.499991371155
128,104,23401,1,0,0:0:0:0:
128,132,23520,1,0,0:0:0:0:
128,160,23638,1,0,0:0:0:0:
192,312,23874,1,0,0:0:0:0:
384,212,24110,1,0,0:0:0:0:
224,72,24346,1,0,0:0:0:0:
184,224,24583,2,0,B|203:202|228:196|228:196|252:190|276:161,1,108.750004148483
372,40,25055,2,0,P|352:84|380:148,1,108.750004148483
372,40,25527,6,0,P|288:40|236:124,1,173.999994689942
328,292,26000,2,0,P|240:336|160:340,2,173.999994689942,0|0|0,0:0|0:0|0:0,0:0:0:0:
96,308,26945,5,0,0:0:0:0:
148,56,27181,1,0,0:0:0:0:
416,204,27417,1,0,0:0:0:0:
240,80,27653,2,0,B|168:128|168:128|76:116,1,173.999994689942
96,332,28362,6,0,B|160:308|160:308|264:300,1,145
400,336,28953,2,0,B|400:320|400:320|384:328|384:328|392:308|392:308|368:320|368:320|380:304|380:304|360:308|360:308|380:296|380:296|356:296|356:296|388:284|388:284|368:280|368:280|394:275|394:275|376:272|376:272|400:264|400:264|380:264|380:264|404:256|404:256|380:252|380:252|400:244|400:244|380:240|380:240|396:232|396:232|378:233|378:233|392:220|392:220|364:228|364:228|379:213|379:213|344:220|344:220|352:200|352:200|308:216|308:216|320:172|320:172|248:200|248:200|296:40|200:24|64:56,1,1015
