osu file format v13

[General]
AudioFilename: Mastin The Ekstrak Kulit Manggis.mp3
AudioLeadIn: 2000
PreviewTime: 14189
Countdown: 0
SampleSet: None
StackLeniency: 0.7
Mode: 0
LetterboxInBreaks: 0
WidescreenStoryboard: 1

[Editor]
DistanceSpacing: 1.2
BeatDivisor: 3
GridSize: 4
TimelineZoom: 0.9

[Metadata]
Title:Ekstrak Kulit Manggis
TitleUnicode:Ekstrak Kulit Manggis
Artist:Mastin
ArtistUnicode:Mastin
Creator:17day
Version:Manggis
Source:
Tags:Mastin, Kabar Gembira, Mastin Good, Winda, TheLastRaiderz,
BeatmapID:455232
BeatmapSetID:189280

[Difficulty]
HPDrainRate:6
CircleSize:4
OverallDifficulty:7
ApproachRate:8
SliderMultiplier:2.3
SliderTickRate:1

[Events]
//Background and Video events
Video,0,"Iklan Mastin Good - YouTube_x264.avi"
0,0,"MemeCenter_1404328610422_712.jpg",0,0
//Break Periods
//Storyboard Layer 0 (Background)
//Storyboard Layer 1 (Fail)
//Storyboard Layer 2 (Pass)
//Storyboard Layer 3 (Foreground)
//Storyboard Sound Samples
//Background Colour Transformations
3,100,163,162,255

[TimingPoints]
-1165,472.44094488189,4,2,0,40,1,0
14897,472.44094488189,4,2,0,40,1,1
27889,-100,4,2,0,40,0,0
30015,-100,4,2,0,5,0,0

[Colours]
Combo1 : 149,74,181
Combo2 : 128,128,192
Combo3 : 255,128,192
Combo4 : 128,128,255

[HitObjects]
122,120,16,6,0,P|190:120|228:188,1,115
390,264,488,2,0,P|322:264|284:196,1,115,0|2,0:0|0:0,0:0:0:0:
291,232,960,1,0,0:0:0:0:
220,151,1197,1,0,0:0:0:0:
391,264,1433,1,0,0:0:0:0:
123,119,1669,5,0,0:0:0:0:
340,91,1905,1,0,0:0:0:0:
247,52,2142,1,0,0:0:0:0:
219,151,2378,1,0,0:0:0:0:
322,193,2614,6,0,P|359:235|355:291,1,115,2|0,0:0|0:0,0:0:0:0:
218,148,3086,2,0,P|181:106|185:50,1,115,0|0,0:0|0:0,0:0:0:0:
437,57,3559,2,0,P|381:53|339:91,1,115,0|0,0:0|0:0,0:0:0:0:
130,280,4031,2,0,P|186:284|229:247,1,115,0|0,0:0|0:0,0:0:0:0:
221,148,4504,5,2,0:0:0:0:
305,111,4661,1,0,0:0:0:0:
332,199,4819,1,0,0:0:0:0:
230,247,4976,2,0,B|178:293|209:343|209:343|258:307|120:307,1,230,0|0,0:0|0:0,0:0:0:0:
126,203,5685,5,0,0:0:0:0:
214,146,5921,1,0,0:0:0:0:
317,146,6157,1,0,0:0:0:0:
367,236,6394,6,0,P|443:198|444:151,1,76.6666666666667,2|0,0:0|0:0,0:0:0:0:
503,149,6709,1,0,0:0:0:0:
413,127,6866,1,0,0:0:0:0:
349,60,7023,1,0,0:0:0:0:
261,72,7181,1,0,0:0:0:0:
317,146,7338,1,0,0:0:0:0:
213,151,7575,6,0,P|179:213|134:214,1,115,0|0,0:0|0:0,0:0:0:0:
117,115,8047,1,0,0:0:0:0:
213,152,8283,2,0,P|289:188|292:262,1,153.333333333333,2|0,0:0|0:0,0:0:0:0:
204,241,8756,1,0,0:0:0:0:
245,323,8992,5,0,0:0:0:0:
245,323,9228,2,0,P|309:353|367:311,1,115,0|0,0:0|0:0,0:0:0:0:
421,266,9701,2,0,B|448:213|413:181|441:112,1,115
328,137,10173,6,0,L|250:137,1,76.6666666666667,2|0,0:0|0:0,0:0:0:0:
250,229,10488,1,0,0:0:0:0:
170,181,10646,1,0,0:0:0:0:
106,247,10803,2,0,L|57:309,2,76.6666666666667,0|0|0,0:0|0:0|0:0,0:0:0:0:
178,171,11354,5,0,0:0:0:0:
261,232,11590,2,0,P|305:189|376:203,1,115
351,294,12063,1,2,0:0:0:0:
437,237,12299,1,0,0:0:0:0:
433,133,12535,1,0,0:0:0:0:
346,187,12772,1,0,0:0:0:0:
344,93,13008,6,0,B|279:93|279:93|228:121,1,115
166,39,13480,1,0,0:0:0:0:
129,135,13716,2,0,P|96:197|96:250,1,115,0|2,0:0|0:0,0:0:0:0:
348,186,14189,6,0,P|381:124|381:71,1,115,0|0,0:0|0:0,0:0:0:0:
289,259,14661,1,0,0:0:0:0:
245,165,14897,6,0,B|194:132|194:132|146:179|80:131|100:53,1,230,2|0,0:0|0:0,0:0:0:0:
289,259,15605,2,0,L|205:347,1,115
168,234,16078,1,0,0:0:0:0:
100,312,16314,1,0,0:0:0:0:
245,163,16550,1,0,0:0:0:0:
290,258,16786,6,0,B|349:258|377:212|377:212|377:212|445:252|496:155,1,230,2|0,0:0|0:0,0:0:0:0:
424,103,17416,1,0,0:0:0:0:
349,48,17574,1,0,0:0:0:0:
339,139,17731,1,0,0:0:0:0:
273,203,17967,6,0,L|175:270,1,115
338,138,18440,1,0,0:0:0:0:
238,108,18676,5,2,0:0:0:0:
145,108,18834,1,0,0:0:0:0:
189,188,18991,1,0,0:0:0:0:
97,188,19148,2,0,P|99:259|162:274,1,115
283,191,19621,6,0,P|291:245|248:280,1,115
189,188,20093,1,0,0:0:0:0:
241,97,20330,2,0,P|303:93|359:131,1,115,0|2,0:0|0:0,0:0:0:0:
283,191,20723,5,0,0:0:0:0:
372,208,20881,1,0,0:0:0:0:
314,281,21038,1,0,0:0:0:0:
221,281,21196,1,0,0:0:0:0:
240,95,21353,6,0,P|160:95|128:228,1,230
206,180,21983,2,0,L|368:198,1,115
422,213,22456,6,0,P|413:273|349:297,1,115,2|0,0:0|0:0,0:0:0:0:
425,117,22928,2,0,P|419:61|372:32,1,115
344,161,23400,1,0,0:0:0:0:
270,234,23637,1,0,0:0:0:0:
244,133,23873,5,0,0:0:0:0:
173,209,24109,1,0,0:0:0:0:
145,109,24345,2,0,P|86:58|9:58,1,153.333333333333,2|0,0:0|0:0,0:0:0:0:
31,147,24818,6,0,L|35:223,2,76.6666666666667,0|0|0,0:0|0:0|0:0,0:0:0:0:
128,221,25290,2,0,L|132:297,2,76.6666666666667,0|0|0,0:0|0:0|0:0,0:0:0:0:
118,128,25763,6,0,P|195:118|238:150,1,115
208,237,26235,2,0,L|354:208,1,115,2|0,0:0|0:0,0:0:0:0:
421,190,26708,1,0,0:0:0:0:
343,121,26944,6,0,P|306:78|328:24,1,115
421,190,27416,1,0,0:0:0:0:
321,214,27652,1,0,0:0:0:0:
224,252,27889,5,2,0:0:0:0:
224,252,28361,6,0,L|104:300,1,115,2|0,0:0|0:0,0:0:0:0:
256,192,28834,12,0,30015,0:0:0:0:
