osu file format v13

[General]
AudioFilename: Mastin The Ekstrak Kulit Manggis.mp3
AudioLeadIn: 2000
PreviewTime: 14189
Countdown: 0
SampleSet: Soft
StackLeniency: 0.7
Mode: 0
LetterboxInBreaks: 0
WidescreenStoryboard: 0

[Editor]
DistanceSpacing: 0.7
BeatDivisor: 4
GridSize: 4
TimelineZoom: 0.6999999

[Metadata]
Title:Ekstrak Kulit Manggis
TitleUnicode:Ekstrak Kulit Manggis
Artist:Mastin
ArtistUnicode:Mastin
Creator:17day
Version:Ga Tau Nama Diffnya
Source:
Tags:Mastin, Kabar Gembira, Mastin Good, Winda, TheLastRaiderz,
BeatmapID:451407
BeatmapSetID:189280

[Difficulty]
HPDrainRate:5
CircleSize:4
OverallDifficulty:5.5
ApproachRate:7
SliderMultiplier:2
SliderTickRate:1

[Events]
//Background and Video events
Video,0,"Iklan Mastin Good - YouTube_x264.avi"
0,0,"MemeCenter_1404328610422_712.jpg",0,0
//Break Periods
//Storyboard Layer 0 (Background)
//Storyboard Layer 1 (Fail)
//Storyboard Layer 2 (Pass)
//Storyboard Layer 3 (Foreground)
//Storyboard Sound Samples
//Background Colour Transformations
3,100,163,162,255

[TimingPoints]
-1165,472.44094488189,4,2,0,40,1,0
14897,472.44094488189,4,2,0,40,1,1
27889,-100,4,2,0,40,0,0
30015,-100,4,2,0,5,0,0

[Colours]
Combo1 : 149,74,181
Combo2 : 128,128,192
Combo3 : 255,128,192
Combo4 : 128,128,255

[HitObjects]
84,133,16,6,0,L|184:133,1,100,0|0,0:0|0:0,0:0:0:0:
197,232,488,2,0,L|297:232,1,100,0|2,0:0|0:0,0:0:0:0:
293,132,960,2,0,P|341:132|378:272,1,200
291,243,1669,1,0,0:0:0:0:
211,182,1905,5,0,0:0:0:0:
170,273,2142,2,0,P|110:243|100:208,1,100
80,117,2614,2,0,P|95:69|171:59,1,100,2|0,0:0|0:0,0:0:0:0:
237,51,3086,1,0,0:0:0:0:
199,144,3323,6,0,L|211:255,1,100
319,339,3795,2,0,L|309:240,1,100,0|0,0:0|0:0,0:0:0:0:
295,140,4268,1,0,0:0:0:0:
384,183,4504,6,0,P|438:192|452:323,1,200,2|0,0:0|0:0,0:0:0:0:
362,288,5212,1,0,0:0:0:0:
263,269,5449,1,0,0:0:0:0:
287,172,5685,1,0,0:0:0:0:
188,152,5921,1,0,0:0:0:0:
170,250,6157,6,0,L|142:348,1,100,0|2,0:0|0:0,0:0:0:0:
43,329,6630,2,0,P|79:242|36:148,1,200
114,85,7338,1,0,0:0:0:0:
166,170,7575,6,0,P|207:245|227:248,1,100
312,247,8047,1,0,0:0:0:0:
270,155,8283,2,0,B|303:111|303:111|377:158|436:108,1,200,2|0,0:0|0:0,0:0:0:0:
478,198,8992,1,0,0:0:0:0:
382,228,9228,5,0,0:0:0:0:
459,290,9464,1,0,0:0:0:0:
363,320,9701,2,0,L|258:334,1,100
285,235,10173,6,0,L|180:249,1,100,2|0,0:0|0:0,0:0:0:0:
86,261,10646,1,0,0:0:0:0:
116,165,10882,2,0,P|179:153|215:107,1,100
258,45,11354,6,0,P|321:57|357:103,1,100,0|0,0:0|0:0,0:0:0:0:
279,156,11827,1,0,0:0:0:0:
359,215,12063,2,0,L|437:285,1,100,2|0,0:0|0:0,0:0:0:0:
363,353,12535,6,0,L|285:283,1,100,0|0,0:0|0:0,0:0:0:0:
265,188,13008,2,0,P|224:143|171:142,1,100
172,236,13480,2,0,P|127:280|82:277,1,100
88,180,13953,1,2,0:0:0:0:
149,101,14189,6,0,B|184:63|184:63|235:63,1,100
245,162,14661,1,0,0:0:0:0:
256,261,14897,6,0,P|311:259|363:198,1,100,2|0,0:0|0:0,0:0:0:0:
419,165,15369,1,0,0:0:0:0:
459,256,15605,1,0,0:0:0:0:
360,237,15841,6,0,P|353:287|298:307,1,100
212,308,16314,2,0,P|169:284|164:236,1,100
263,223,16786,5,2,0:0:0:0:
324,143,17022,1,0,0:0:0:0:
224,133,17259,2,0,P|180:103|133:103,1,100
143,202,17731,1,0,0:0:0:0:
144,301,17967,6,0,P|82:299|51:271,1,100
47,175,18440,1,0,0:0:0:0:
143,199,18676,2,0,B|176:155|176:155|250:202|309:152,1,200,2|0,0:0|0:0,0:0:0:0:
395,99,19385,5,0,0:0:0:0:
474,159,19621,2,0,P|426:194|376:188,1,100
308,131,20093,2,0,P|276:168|274:217,1,100
295,315,20566,6,0,B|253:340|253:340|196:340|196:279|111:295,1,200,2|0,0:0|0:0,0:0:0:0:
84,199,21274,2,0,B|51:151|51:151|137:117|199:163|205:121,1,200
291,137,21983,1,0,0:0:0:0:
236,53,22219,1,0,0:0:0:0:
291,137,22456,6,0,P|289:191|233:209,1,100,2|0,0:0|0:0,0:0:0:0:
153,205,22928,2,0,L|158:310,1,100
257,307,23400,2,0,L|366:304,1,100
457,298,23873,1,0,0:0:0:0:
396,218,24109,1,0,0:0:0:0:
494,199,24345,6,0,P|457:112|360:118,1,200,2|0,0:0|0:0,0:0:0:0:
280,171,25054,1,0,0:0:0:0:
324,260,25290,1,0,0:0:0:0:
224,250,25526,6,0,P|180:275|132:271,1,100
31,269,25999,2,0,L|36:168,1,100,0|2,0:0|0:0,0:0:0:0:
44,69,26471,1,0,0:0:0:0:
129,121,26708,1,0,0:0:0:0:
228,123,26944,6,0,P|282:123|322:150,1,100
250,219,27416,1,0,0:0:0:0:
195,302,27652,2,0,L|297:307,1,100,0|2,0:0|0:0,0:0:0:0:
481,233,28361,6,0,L|379:228,1,100,2|0,0:0|0:0,0:0:0:0:
256,192,28834,12,0,30015,0:0:0:0:
