osu file format v13

[General]
AudioFilename: Mastin The Ekstrak Kulit Manggis.mp3
AudioLeadIn: 2000
PreviewTime: 14189
Countdown: 0
SampleSet: Soft
StackLeniency: 0.7
Mode: 2
LetterboxInBreaks: 0
WidescreenStoryboard: 0

[Editor]
DistanceSpacing: 0.7
BeatDivisor: 4
GridSize: 4
TimelineZoom: 3.299999

[Metadata]
Title:Ekstrak Kulit Manggis
TitleUnicode:Ekstrak Kulit Manggis
Artist:Mastin
ArtistUnicode:Mastin
Creator:17day
Version:Cuma Tukang Buah manggis
Source:
Tags:Mastin, Kabar Gembira, Mastin Good, Winda, TheLastRaiderz,
BeatmapID:451287
BeatmapSetID:189280

[Difficulty]
HPDrainRate:9
CircleSize:4
OverallDifficulty:10
ApproachRate:9
SliderMultiplier:3.59999990463257
SliderTickRate:2

[Events]
//Background and Video events
Video,0,"Iklan Mastin Good - YouTube_x264.avi"
0,0,"MemeCenter_1404328610422_712.jpg",0,0
//Break Periods
//Storyboard Layer 0 (Background)
//Storyboard Layer 1 (Fail)
//Storyboard Layer 2 (Pass)
//Storyboard Layer 3 (Foreground)
//Storyboard Sound Samples
//Background Colour Transformations
3,100,163,162,255

[TimingPoints]
-1165,472.44094488189,4,2,0,40,1,0
14897,472.44094488189,4,2,0,40,1,1
27889,-100,4,2,0,40,0,0
30015,-100,4,2,0,5,0,0

[Colours]
Combo1 : 149,74,181
Combo2 : 128,128,192
Combo3 : 255,128,192
Combo4 : 128,128,255

[HitObjects]
88,160,16,6,0,L|224:160,1,134.999996423721
456,160,488,2,0,L|264:160,1,179.999995231629,0|0,0:0|0:0,0:0:0:0:
88,88,960,1,0,0:0:0:0:
464,88,1433,6,0,B|288:64|376:256|296:216,1,179.999995231629,0|0,0:0|0:0,0:0:0:0:
88,328,1905,1,0,0:0:0:0:
224,312,2142,1,0,0:0:0:0:
272,200,2378,1,0,0:0:0:0:
344,24,2614,2,0,B|488:72|264:120|536:152|288:192|364:192,1,179.999995231629,0|0,0:0|0:0,0:0:0:0:
144,64,3795,6,0,B|280:56|120:176|296:240|288:72|316:144,1,179.999995231629
368,304,4268,2,0,L|112:256,1,179.999995231629,0|0,0:0|0:0,0:0:0:0:
16,192,5212,1,0,0:0:0:0:
192,152,5449,1,0,0:0:0:0:
312,56,5685,2,0,L|468:200,1,179.999995231629
248,224,6157,1,0,0:0:0:0:
344,120,6394,2,0,L|80:192,1,270.000003147125,0|0,0:0|0:0,0:0:0:0:
160,320,7575,6,0,L|416:240,1,179.999995231629
328,48,8047,2,0,L|72:88,1,179.999995231629
488,48,8992,1,0,0:0:0:0:
320,48,9228,2,0,L|52:300,1,359.999990463257
96,136,9937,2,0,L|344:184,1,179.999995231629
336,280,10409,2,0,L|80:232,1,179.999995231629
192,224,11118,1,0,0:0:0:0:
192,224,11354,6,0,L|408:72,1,179.999995231629
80,168,11827,1,0,0:0:0:0:
256,128,12063,2,0,L|460:296,3,179.999995231629,0|0|0|0,0:0|0:0|0:0|0:0,0:0:0:0:
276,256,13008,2,0,P|268:216|4:64,1,359.999990463257
280,256,13716,2,0,P|280:200|372:40,1,179.999995231629
104,288,14189,6,0,L|280:112,1,179.999995231629,0|0,0:0|0:0,0:0:0:0:
368,240,14661,2,0,L|144:112,1,179.999995231629
224,192,15133,1,0,0:0:0:0:
344,88,15369,1,0,0:0:0:0:
168,32,15605,1,0,0:0:0:0:
168,32,15841,2,0,P|168:160|80:228,1,179.999995231629
232,224,16314,1,0,0:0:0:0:
344,8,16550,1,0,0:0:0:0:
280,112,16786,2,0,P|328:128|492:48,1,179.999995231629
232,224,17259,1,0,0:0:0:0:
36,272,17495,2,0,L|148:120,1,179.999995231629
240,176,17967,6,0,L|456:312,1,179.999995231629
464,152,18440,2,0,B|400:56|216:32|160:104,1,337.500003933907,0|0,0:0|0:0,0:0:0:0:
24,304,19385,2,0,L|192:112,1,179.999995231629
96,232,19857,2,0,L|312:96,1,179.999995231629
264,72,20330,1,0,0:0:0:0:
264,72,20566,2,0,L|408:292,1,179.999995231629,0|0,0:0|0:0,0:0:0:0:
156,84,21038,1,0,0:0:0:0:
304,64,21274,2,0,B|48:392|304:8|512:336,1,540.000006294251
392,216,22219,6,0,P|256:216|176:148,1,179.999995231629
248,280,22692,2,0,P|208:184|76:128,1,179.999995231629
124,248,23164,1,0,0:0:0:0:
264,360,23400,2,0,P|240:232|424:144,1,359.999990463257
192,304,24109,2,0,L|36:104,1,179.999995231629,0|0,0:0|0:0,0:0:0:0:
256,64,24582,1,0,0:0:0:0:
408,272,25526,6,0,P|376:168|252:88,1,179.999995231629
104,72,25999,2,0,P|88:200|188:256,1,179.999995231629
320,144,26471,1,0,0:0:0:0:
88,72,26944,2,0,P|120:80|208:260,1,179.999995231629
288,260,27416,1,0,0:0:0:0:
280,56,27652,2,0,P|344:184|432:220,1,179.999995231629
200,288,28243,6,0,P|288:272|320:136,1,202.500002360344
320,184,28834,2,0,B|496:336|320:136|424:200|264:312|32:32,1,472.50000550747,0|0,0:0|0:0,0:0:0:0:
256,192,29542,12,0,30015,0:0:0:0:
