osu file format v14

[General]
AudioFilename: Mastermind - Dreadnought.mp3
AudioLeadIn: 0
PreviewTime: 93766
Countdown: 0
SampleSet: None
StackLeniency: 0.7
Mode: 3
LetterboxInBreaks: 0
SpecialStyle: 0
WidescreenStoryboard: 1

[Editor]
Bookmarks: 23766,105016
DistanceSpacing: 2
BeatDivisor: 3
GridSize: 16
TimelineZoom: 2.4

[Metadata]
Title:Dreadnought
TitleUnicode:Dreadnought
Artist:Mastermind(xi+nora2r)
ArtistUnicode:Mastermind(xi+nora2r)
Creator:PyaKura
Version:Normal
Source:BMS
Tags:bof bofu 2015 bms of fighters ultimate daikeesen
BeatmapID:801856
BeatmapSetID:361643

[Difficulty]
HPDrainRate:7
CircleSize:7
OverallDifficulty:7.3
ApproachRate:5
SliderMultiplier:1.4
SliderTickRate:1

[Events]
//Background and Video events
0,0,"17956-spaceship-1920x1080-fantasy-wallpaper.jpg",0,0
Video,188,"[BOFU2015] [BMS] Mastermind(xi+nora2r) - Dreadnought.avi"
//Break Periods
//Storyboard Layer 0 (Background)
//Storyboard Layer 1 (Fail)
//Storyboard Layer 2 (Pass)
//Storyboard Layer 3 (Foreground)
//Storyboard Sound Samples

[TimingPoints]
16,312.5,4,3,1,17,1,0
13766,-100,4,3,1,22,0,0
23766,-100,4,3,1,27,0,0
93766,-100,4,3,1,27,0,1
113453,-100,4,3,1,27,0,0
123766,-100,4,3,1,27,0,1
133453,-100,4,3,1,27,0,0

[HitObjects]
109,192,1266,5,2,0:0:0:0:
402,192,1266,1,0,0:0:0:0:
182,192,2516,1,0,0:0:0:0:
109,192,3141,1,0,0:0:0:0:
182,192,3453,1,0,0:0:0:0:
475,192,3766,1,0,0:0:0:0:
402,192,4391,1,0,0:0:0:0:
182,192,5016,1,0,0:0:0:0:
256,192,5641,1,0,0:0:0:0:
182,192,6266,1,2,0:0:0:0:
329,192,6266,1,0,0:0:0:0:
109,192,7516,1,0,0:0:0:0:
402,192,8141,1,0,0:0:0:0:
182,192,8766,1,2,0:0:0:0:
36,192,8766,1,0,0:0:0:0:
256,192,10016,1,2,0:0:0:0:
402,192,10016,1,0,0:0:0:0:
475,192,11266,1,0,0:0:0:0:
109,192,13141,128,0,13766:0:0:0:0:
402,192,13453,128,0,13766:0:0:0:0:
256,192,13766,1,4,0:0:0:0:
329,192,14234,1,0,0:0:0:0:
182,192,14703,1,0,0:0:0:0:
475,192,15172,1,0,0:0:0:0:
329,192,15641,1,0,0:0:0:0:
475,192,15953,1,0,0:0:0:0:
36,192,16266,1,4,0:0:0:0:
109,192,16266,1,0,0:0:0:0:
256,192,16578,1,0,0:0:0:0:
182,192,17047,1,0,0:0:0:0:
475,192,17516,1,0,0:0:0:0:
402,192,17984,1,0,0:0:0:0:
36,192,18297,1,0,0:0:0:0:
109,192,18453,1,0,0:0:0:0:
182,192,18609,1,0,0:0:0:0:
256,192,18687,1,0,0:0:0:0:
329,192,18766,1,4,0:0:0:0:
475,192,18766,1,0,0:0:0:0:
109,192,19078,1,0,0:0:0:0:
256,192,19234,1,0,0:0:0:0:
402,192,19391,1,0,0:0:0:0:
182,192,19703,1,0,0:0:0:0:
329,192,19859,1,0,0:0:0:0:
109,192,20016,1,4,0:0:0:0:
36,192,20016,1,0,0:0:0:0:
402,192,20328,1,4,0:0:0:0:
329,192,20484,1,0,0:0:0:0:
109,192,20641,1,0,0:0:0:0:
182,192,20797,1,0,0:0:0:0:
475,192,20953,1,0,0:0:0:0:
402,192,21109,1,0,0:0:0:0:
329,192,21266,1,4,0:0:0:0:
182,192,21266,1,0,0:0:0:0:
475,192,21422,1,8,0:0:0:0:
36,192,21578,1,0,0:0:0:0:
182,192,21891,1,4,0:0:0:0:
329,192,21891,1,0,0:0:0:0:
36,192,22047,1,8,0:0:0:0:
475,192,22203,1,0,0:0:0:0:
329,192,22516,128,0,22672:0:0:0:0:
182,192,22828,128,0,22984:0:0:0:0:
475,192,23141,128,0,23766:0:0:0:0:
36,192,23453,128,0,23766:0:0:0:0:
182,192,23766,1,4,0:0:0:0:
329,192,23766,1,0,0:0:0:0:
402,192,24078,1,8,0:0:0:0:
475,192,24078,1,0,0:0:0:0:
329,192,24234,1,0,0:0:0:0:
256,192,24391,128,0,24547:0:0:0:0:
36,192,24547,1,0,0:0:0:0:
109,192,24703,1,8,0:0:0:0:
182,192,24859,1,0,0:0:0:0:
402,192,25016,128,0,25172:0:0:0:0:
36,192,25172,1,0,0:0:0:0:
329,192,25328,1,8,0:0:0:0:
109,192,25484,1,0,0:0:0:0:
256,192,25641,1,0,0:0:0:0:
329,192,25797,1,0,0:0:0:0:
182,192,25953,1,8,0:0:0:0:
109,192,26109,1,0,0:0:0:0:
36,192,26266,1,4,0:0:0:0:
329,192,26266,1,0,0:0:0:0:
182,192,26578,1,0,0:0:0:0:
402,192,26891,1,4,0:0:0:0:
109,192,26891,1,0,0:0:0:0:
256,192,27203,1,0,0:0:0:0:
475,192,27516,1,4,0:0:0:0:
182,192,27516,1,0,0:0:0:0:
402,192,27672,1,0,0:0:0:0:
329,192,27828,1,0,0:0:0:0:
36,192,27828,1,0,0:0:0:0:
109,192,27984,1,0,0:0:0:0:
182,192,28062,1,0,0:0:0:0:
256,192,28141,1,4,0:0:0:0:
475,192,28141,1,0,0:0:0:0:
182,192,28453,1,8,0:0:0:0:
109,192,28453,1,0,0:0:0:0:
402,192,28609,1,0,0:0:0:0:
329,192,28687,1,0,0:0:0:0:
256,192,28766,1,4,0:0:0:0:
36,192,28766,1,0,0:0:0:0:
329,192,29078,1,4,0:0:0:0:
109,192,29078,1,0,0:0:0:0:
402,192,29391,1,4,0:0:0:0:
182,192,29391,1,0,0:0:0:0:
475,192,29703,1,4,0:0:0:0:
256,192,29703,1,0,0:0:0:0:
36,192,30016,1,4,0:0:0:0:
182,192,30172,1,8,0:0:0:0:
329,192,30328,1,4,0:0:0:0:
475,192,30484,1,8,0:0:0:0:
36,192,30641,1,4,0:0:0:0:
109,192,30719,1,0,0:0:0:0:
182,192,30797,1,4,0:0:0:0:
256,192,30875,1,0,0:0:0:0:
475,192,30953,1,4,0:0:0:0:
402,192,31031,1,0,0:0:0:0:
329,192,31109,1,4,0:0:0:0:
256,192,31187,1,0,0:0:0:0:
36,192,31266,128,0,32516:0:0:0:0:
402,192,31891,128,0,32203:0:0:0:0:
329,192,32203,1,0,0:0:0:0:
182,192,32359,1,0,0:0:0:0:
475,192,32516,1,0,0:0:0:0:
402,192,32594,1,0,0:0:0:0:
329,192,32672,1,0,0:0:0:0:
256,192,32750,1,0,0:0:0:0:
182,192,32828,1,0,0:0:0:0:
36,192,32984,1,0,0:0:0:0:
109,192,33062,1,0,0:0:0:0:
182,192,33141,1,0,0:0:0:0:
256,192,33219,1,0,0:0:0:0:
329,192,33297,1,0,0:0:0:0:
475,192,33453,1,8,0:0:0:0:
36,192,33453,1,0,0:0:0:0:
256,192,33766,128,0,34703:0:0:0:0:
402,192,33766,1,0,0:0:0:0:
109,192,34078,1,0,0:0:0:0:
475,192,34391,1,0,0:0:0:0:
329,192,34703,1,0,0:0:0:0:
402,192,34859,1,0,0:0:0:0:
182,192,35016,128,0,36266:0:0:0:0:
109,192,35016,1,0,0:0:0:0:
475,192,35328,1,0,0:0:0:0:
402,192,35641,1,0,0:0:0:0:
329,192,35953,1,0,0:0:0:0:
109,192,36266,128,0,37203:0:0:0:0:
402,192,36266,1,0,0:0:0:0:
475,192,36578,1,0,0:0:0:0:
402,192,36891,1,0,0:0:0:0:
256,192,37203,1,0,0:0:0:0:
329,192,37359,1,0,0:0:0:0:
36,192,37516,128,0,38766:0:0:0:0:
475,192,37516,1,0,0:0:0:0:
109,192,37828,1,0,0:0:0:0:
402,192,38141,1,0,0:0:0:0:
182,192,38453,1,0,0:0:0:0:
329,192,38609,1,0,0:0:0:0:
256,192,38766,1,4,0:0:0:0:
475,192,38766,128,0,39078:0:0:0:0:
329,192,39078,128,0,39391:0:0:0:0:
182,192,39078,1,0,0:0:0:0:
109,192,39391,128,0,39703:0:0:0:0:
36,192,39391,1,0,0:0:0:0:
475,192,39703,1,0,0:0:0:0:
256,192,39859,1,0,0:0:0:0:
182,192,40016,128,0,40328:0:0:0:0:
402,192,40016,1,0,0:0:0:0:
36,192,40328,128,0,40641:0:0:0:0:
475,192,40328,1,0,0:0:0:0:
256,192,40641,128,0,40953:0:0:0:0:
402,192,40641,1,0,0:0:0:0:
475,192,40953,128,0,41266:0:0:0:0:
109,192,40953,1,0,0:0:0:0:
182,192,41266,1,4,0:0:0:0:
36,192,41266,1,0,0:0:0:0:
402,192,41422,1,0,0:0:0:0:
329,192,41500,1,0,0:0:0:0:
256,192,41578,1,0,0:0:0:0:
475,192,41891,1,4,0:0:0:0:
329,192,41891,1,0,0:0:0:0:
36,192,42047,1,0,0:0:0:0:
109,192,42125,1,0,0:0:0:0:
182,192,42203,1,0,0:0:0:0:
109,192,42516,1,4,0:0:0:0:
475,192,42516,1,0,0:0:0:0:
256,192,42672,1,0,0:0:0:0:
36,192,42828,1,4,0:0:0:0:
402,192,42828,1,0,0:0:0:0:
182,192,42984,1,0,0:0:0:0:
256,192,43141,1,8,0:0:0:0:
329,192,43297,1,0,0:0:0:0:
36,192,43453,1,4,0:0:0:0:
402,192,43453,1,0,0:0:0:0:
109,192,43531,1,0,0:0:0:0:
182,192,43609,1,0,0:0:0:0:
256,192,43687,1,0,0:0:0:0:
329,192,43766,128,0,44391:0:0:0:0:
36,192,44078,1,0,0:0:0:0:
109,192,44391,1,0,0:0:0:0:
182,192,44547,1,0,0:0:0:0:
256,192,44625,1,0,0:0:0:0:
329,192,44703,1,0,0:0:0:0:
402,192,44859,1,0,0:0:0:0:
256,192,45016,128,0,45328:0:0:0:0:
36,192,45016,1,0,0:0:0:0:
329,192,45328,1,0,0:0:0:0:
475,192,45432,1,0,0:0:0:0:
402,192,45536,1,0,0:0:0:0:
329,192,45641,1,0,0:0:0:0:
256,192,45745,1,0,0:0:0:0:
182,192,45875,1,0,0:0:0:0:
109,192,45953,128,0,46266:0:0:0:0:
329,192,46266,128,0,46734:0:0:0:0:
475,192,46266,1,0,0:0:0:0:
182,192,46578,1,0,0:0:0:0:
36,192,46891,1,0,0:0:0:0:
109,192,46969,1,0,0:0:0:0:
182,192,47047,1,0,0:0:0:0:
475,192,47125,1,0,0:0:0:0:
402,192,47359,1,0,0:0:0:0:
109,192,47516,128,0,47828:0:0:0:0:
182,192,47516,1,0,0:0:0:0:
475,192,47828,1,0,0:0:0:0:
402,192,47932,1,0,0:0:0:0:
329,192,48036,1,0,0:0:0:0:
256,192,48141,128,0,48453:0:0:0:0:
36,192,48453,128,0,48766:0:0:0:0:
329,192,48453,1,0,0:0:0:0:
402,192,48609,1,0,0:0:0:0:
182,192,48766,1,4,0:0:0:0:
475,192,48766,128,0,50016:0:0:0:0:
256,192,49078,1,0,0:0:0:0:
36,192,49234,1,0,0:0:0:0:
109,192,49312,1,0,0:0:0:0:
182,192,49391,1,0,0:0:0:0:
402,192,49703,1,0,0:0:0:0:
329,192,49859,1,0,0:0:0:0:
36,192,50016,128,0,51266:0:0:0:0:
256,192,50016,1,0,0:0:0:0:
182,192,50328,1,0,0:0:0:0:
256,192,50641,1,0,0:0:0:0:
329,192,50953,1,0,0:0:0:0:
182,192,51109,1,0,0:0:0:0:
475,192,51266,1,4,0:0:0:0:
402,192,51266,1,0,0:0:0:0:
329,192,51422,1,0,0:0:0:0:
109,192,51578,1,4,0:0:0:0:
36,192,51578,1,0,0:0:0:0:
182,192,51734,1,0,0:0:0:0:
475,192,51891,1,4,0:0:0:0:
402,192,51969,1,0,0:0:0:0:
329,192,52047,1,0,0:0:0:0:
256,192,52125,1,0,0:0:0:0:
36,192,52203,1,0,0:0:0:0:
109,192,52281,1,0,0:0:0:0:
182,192,52359,1,0,0:0:0:0:
256,192,52437,1,0,0:0:0:0:
329,192,52516,1,4,0:0:0:0:
109,192,52828,1,8,0:0:0:0:
402,192,52932,1,8,0:0:0:0:
182,192,53036,1,8,0:0:0:0:
329,192,53141,1,8,0:0:0:0:
256,192,53297,1,8,0:0:0:0:
36,192,53453,1,4,0:0:0:0:
475,192,53453,1,0,0:0:0:0:
182,192,53766,1,4,0:0:0:0:
329,192,53766,128,0,54859:0:0:0:0:
109,192,54859,128,0,55641:0:0:0:0:
182,192,55641,128,0,56266:0:0:0:0:
256,192,56266,128,0,57203:0:0:0:0:
36,192,57203,128,0,57516:0:0:0:0:
475,192,57516,128,0,58141:0:0:0:0:
402,192,58141,128,0,58766:0:0:0:0:
329,192,58766,128,0,60016:0:0:0:0:
36,192,60016,128,0,60641:0:0:0:0:
109,192,60641,128,0,61266:0:0:0:0:
256,192,61266,128,0,61891:0:0:0:0:
182,192,61891,128,0,62516:0:0:0:0:
36,192,62516,128,0,63766:0:0:0:0:
475,192,62516,128,0,63766:0:0:0:0:
329,192,63766,128,0,64391:0:0:0:0:
109,192,64391,128,0,65016:0:0:0:0:
182,192,65016,128,0,65641:0:0:0:0:
256,192,65641,128,0,66266:0:0:0:0:
329,192,66266,128,0,66891:0:0:0:0:
182,192,66891,128,0,67203:0:0:0:0:
256,192,67203,128,0,67516:0:0:0:0:
329,192,67516,128,0,68141:0:0:0:0:
402,192,68141,128,0,68766:0:0:0:0:
36,192,68766,128,0,70016:0:0:0:0:
182,192,70016,128,0,70328:0:0:0:0:
256,192,70328,128,0,70641:0:0:0:0:
475,192,70641,128,0,70849:0:0:0:0:
402,192,70849,128,0,71057:0:0:0:0:
329,192,71057,128,0,71266:0:0:0:0:
256,192,71266,128,0,72203:0:0:0:0:
475,192,72203,128,0,72516:0:0:0:0:
36,192,72516,128,0,73141:0:0:0:0:
109,192,73141,1,8,0:0:0:0:
182,192,73245,1,0,0:0:0:0:
256,192,73349,1,0,0:0:0:0:
475,192,73453,1,8,0:0:0:0:
402,192,73505,1,0,0:0:0:0:
329,192,73557,1,0,0:0:0:0:
256,192,73609,1,0,0:0:0:0:
182,192,73661,1,0,0:0:0:0:
109,192,73713,1,0,0:0:0:0:
36,192,73766,1,4,0:0:0:0:
329,192,74078,1,8,0:0:0:0:
402,192,74078,1,0,0:0:0:0:
256,192,74391,1,0,0:0:0:0:
475,192,74547,1,0,0:0:0:0:
402,192,74703,1,0,0:0:0:0:
182,192,74859,1,0,0:0:0:0:
36,192,75016,1,8,0:0:0:0:
329,192,75016,1,0,0:0:0:0:
256,192,75172,1,0,0:0:0:0:
182,192,75328,1,8,0:0:0:0:
475,192,75328,1,0,0:0:0:0:
109,192,75641,1,0,0:0:0:0:
475,192,75797,1,0,0:0:0:0:
402,192,75875,1,0,0:0:0:0:
329,192,75953,1,0,0:0:0:0:
256,192,76031,1,0,0:0:0:0:
182,192,76109,1,0,0:0:0:0:
109,192,76187,1,0,0:0:0:0:
36,192,76266,1,4,0:0:0:0:
475,192,76266,1,0,0:0:0:0:
256,192,76422,1,0,0:0:0:0:
109,192,76578,1,8,0:0:0:0:
402,192,76578,1,0,0:0:0:0:
182,192,76891,1,0,0:0:0:0:
329,192,77047,1,0,0:0:0:0:
475,192,77203,1,0,0:0:0:0:
402,192,77281,1,0,0:0:0:0:
329,192,77359,1,0,0:0:0:0:
256,192,77437,1,0,0:0:0:0:
182,192,77516,1,8,0:0:0:0:
109,192,77516,1,0,0:0:0:0:
402,192,77672,1,8,0:0:0:0:
182,192,77828,1,8,0:0:0:0:
109,192,77828,1,0,0:0:0:0:
402,192,78141,1,0,0:0:0:0:
109,192,78297,1,0,0:0:0:0:
402,192,78453,1,0,0:0:0:0:
109,192,78609,1,0,0:0:0:0:
182,192,78766,1,4,0:0:0:0:
329,192,78766,1,0,0:0:0:0:
402,192,78922,1,0,0:0:0:0:
109,192,79078,1,8,0:0:0:0:
475,192,79078,1,0,0:0:0:0:
329,192,79391,1,0,0:0:0:0:
109,192,79547,1,0,0:0:0:0:
402,192,79703,1,0,0:0:0:0:
36,192,80016,1,4,0:0:0:0:
329,192,80016,1,0,0:0:0:0:
256,192,80172,1,8,0:0:0:0:
182,192,80328,1,8,0:0:0:0:
475,192,80328,1,0,0:0:0:0:
402,192,80484,1,8,0:0:0:0:
329,192,80641,1,8,0:0:0:0:
182,192,81266,1,4,0:0:0:0:
329,192,81266,1,0,0:0:0:0:
109,192,81422,1,8,0:0:0:0:
402,192,81422,1,0,0:0:0:0:
36,192,81578,1,8,0:0:0:0:
475,192,81578,1,0,0:0:0:0:
36,192,81891,1,4,0:0:0:0:
475,192,81891,1,0,0:0:0:0:
109,192,82047,1,8,0:0:0:0:
402,192,82047,1,0,0:0:0:0:
182,192,82203,1,8,0:0:0:0:
329,192,82203,1,0,0:0:0:0:
475,192,82516,128,8,82672:0:0:0:0:
36,192,82516,1,0,0:0:0:0:
109,192,82828,128,8,82984:0:0:0:0:
402,192,82828,1,0,0:0:0:0:
182,192,83141,1,0,0:0:0:0:
329,192,83297,1,0,0:0:0:0:
256,192,83766,128,2,90016:0:0:0:0:
182,192,90016,128,0,91266:0:0:0:0:
329,192,90016,128,0,91266:0:0:0:0:
182,192,91578,1,8,0:0:0:0:
329,192,91578,1,0,0:0:0:0:
402,192,93141,128,0,93453:0:0:0:0:
109,192,93453,1,0,0:0:0:0:
182,192,93531,1,0,0:0:0:0:
256,192,93609,1,0,0:0:0:0:
329,192,93687,1,0,0:0:0:0:
109,192,93766,128,0,93922:0:0:0:0:
402,192,93766,1,4,0:0:0:0:
182,192,94078,128,0,94234:0:0:0:0:
402,192,94234,128,0,94391:0:0:0:0:
329,192,94547,128,0,94703:0:0:0:0:
109,192,94703,128,0,94859:0:0:0:0:
182,192,94859,128,0,95016:0:0:0:0:
402,192,95016,128,0,95328:0:0:0:0:
329,192,95016,1,0,0:0:0:0:
256,192,95328,128,0,95641:0:0:0:0:
182,192,95328,1,0,0:0:0:0:
109,192,95641,128,0,95953:0:0:0:0:
475,192,95641,1,0,0:0:0:0:
329,192,95953,128,0,96266:0:0:0:0:
402,192,95953,1,0,0:0:0:0:
182,192,96266,128,0,96422:0:0:0:0:
109,192,96578,128,0,96734:0:0:0:0:
329,192,96734,128,0,96891:0:0:0:0:
256,192,97047,128,0,97203:0:0:0:0:
36,192,97203,128,0,97359:0:0:0:0:
182,192,97359,128,0,97516:0:0:0:0:
329,192,97516,128,0,97828:0:0:0:0:
402,192,97516,1,0,0:0:0:0:
475,192,97828,128,0,98141:0:0:0:0:
109,192,97828,1,0,0:0:0:0:
402,192,98141,128,0,98453:0:0:0:0:
182,192,98141,1,0,0:0:0:0:
109,192,98453,1,8,0:0:0:0:
182,192,98531,1,8,0:0:0:0:
256,192,98609,1,8,0:0:0:0:
329,192,98687,1,8,0:0:0:0:
402,192,98766,1,4,0:0:0:0:
36,192,98766,128,0,98922:0:0:0:0:
109,192,99078,128,0,99234:0:0:0:0:
329,192,99234,128,0,99391:0:0:0:0:
402,192,99547,128,0,99703:0:0:0:0:
109,192,99703,128,0,99859:0:0:0:0:
256,192,99859,128,0,100016:0:0:0:0:
402,192,100016,128,0,100172:0:0:0:0:
182,192,100328,128,0,100484:0:0:0:0:
475,192,100641,128,0,100797:0:0:0:0:
36,192,100797,1,0,0:0:0:0:
109,192,100849,1,0,0:0:0:0:
182,192,100901,1,0,0:0:0:0:
256,192,100953,1,0,0:0:0:0:
329,192,101109,1,0,0:0:0:0:
36,192,101266,128,0,101578:0:0:0:0:
402,192,101266,1,4,0:0:0:0:
475,192,101578,128,0,101891:0:0:0:0:
182,192,101578,1,0,0:0:0:0:
109,192,101891,1,4,0:0:0:0:
329,192,101891,1,0,0:0:0:0:
36,192,102125,1,4,0:0:0:0:
256,192,102125,1,0,0:0:0:0:
109,192,102359,1,4,0:0:0:0:
329,192,102359,1,0,0:0:0:0:
182,192,102594,1,4,0:0:0:0:
402,192,102594,1,0,0:0:0:0:
109,192,102828,1,4,0:0:0:0:
329,192,102828,1,0,0:0:0:0:
182,192,103062,1,4,0:0:0:0:
402,192,103062,1,0,0:0:0:0:
475,192,103297,1,0,0:0:0:0:
256,192,103297,1,0,0:0:0:0:
402,192,103453,1,0,0:0:0:0:
109,192,103609,1,0,0:0:0:0:
256,192,103766,128,0,104078:0:0:0:0:
109,192,104078,128,0,104234:0:0:0:0:
402,192,104234,128,0,104391:0:0:0:0:
256,192,104547,128,0,104703:0:0:0:0:
109,192,104703,128,0,104859:0:0:0:0:
402,192,104859,128,0,105016:0:0:0:0:
475,192,105016,128,0,105328:0:0:0:0:
36,192,105016,1,0,0:0:0:0:
329,192,105328,128,0,105641:0:0:0:0:
256,192,105328,1,0,0:0:0:0:
182,192,105641,128,0,105953:0:0:0:0:
109,192,105641,1,0,0:0:0:0:
36,192,105953,128,0,106266:0:0:0:0:
475,192,105953,1,0,0:0:0:0:
256,192,106266,1,4,0:0:0:0:
402,192,106266,1,0,0:0:0:0:
36,192,106578,1,4,0:0:0:0:
182,192,106578,1,0,0:0:0:0:
329,192,106734,1,8,0:0:0:0:
475,192,106734,1,0,0:0:0:0:
182,192,107047,1,8,0:0:0:0:
329,192,107047,1,0,0:0:0:0:
36,192,107203,1,4,0:0:0:0:
475,192,107203,1,0,0:0:0:0:
256,192,107359,1,8,0:0:0:0:
329,192,107516,1,4,0:0:0:0:
109,192,107516,1,0,0:0:0:0:
182,192,107724,1,4,0:0:0:0:
402,192,107724,1,0,0:0:0:0:
256,192,107932,1,4,0:0:0:0:
475,192,107932,1,0,0:0:0:0:
182,192,108141,1,4,0:0:0:0:
402,192,108141,1,0,0:0:0:0:
109,192,108349,1,4,0:0:0:0:
329,192,108349,1,0,0:0:0:0:
36,192,108557,1,4,0:0:0:0:
256,192,108557,1,0,0:0:0:0:
182,192,108766,128,0,109703:0:0:0:0:
475,192,108766,1,4,0:0:0:0:
329,192,109078,1,0,0:0:0:0:
402,192,109391,1,0,0:0:0:0:
36,192,109703,1,0,0:0:0:0:
402,192,109859,1,0,0:0:0:0:
329,192,109937,1,0,0:0:0:0:
256,192,110016,128,0,110953:0:0:0:0:
109,192,110016,1,4,0:0:0:0:
402,192,110328,1,0,0:0:0:0:
109,192,110641,1,0,0:0:0:0:
402,192,110953,1,0,0:0:0:0:
182,192,111109,1,0,0:0:0:0:
256,192,111187,1,0,0:0:0:0:
329,192,111266,128,0,111891:0:0:0:0:
36,192,111266,1,4,0:0:0:0:
109,192,111422,1,0,0:0:0:0:
182,192,111578,1,0,0:0:0:0:
109,192,111734,1,0,0:0:0:0:
475,192,111891,128,0,112516:0:0:0:0:
36,192,111891,1,4,0:0:0:0:
256,192,112047,1,0,0:0:0:0:
109,192,112203,1,0,0:0:0:0:
329,192,112359,1,0,0:0:0:0:
182,192,112516,1,4,0:0:0:0:
36,192,112516,1,0,0:0:0:0:
402,192,112828,1,4,0:0:0:0:
182,192,113141,1,8,0:0:0:0:
36,192,113141,1,0,0:0:0:0:
329,192,113297,1,8,0:0:0:0:
475,192,113297,1,0,0:0:0:0:
109,192,113453,1,4,0:0:0:0:
256,192,113453,1,0,0:0:0:0:
36,192,113766,128,0,115016:0:0:0:0:
329,192,113766,1,0,0:0:0:0:
475,192,114078,1,0,0:0:0:0:
329,192,114391,1,0,0:0:0:0:
475,192,114703,1,0,0:0:0:0:
109,192,115016,128,0,116266:0:0:0:0:
256,192,115016,1,0,0:0:0:0:
329,192,115328,1,0,0:0:0:0:
402,192,115641,1,0,0:0:0:0:
475,192,115953,1,0,0:0:0:0:
182,192,116266,128,0,117516:0:0:0:0:
402,192,116266,1,0,0:0:0:0:
329,192,116578,1,0,0:0:0:0:
475,192,116891,1,0,0:0:0:0:
402,192,117203,1,0,0:0:0:0:
256,192,117516,128,0,118766:0:0:0:0:
36,192,117516,1,0,0:0:0:0:
109,192,117828,1,0,0:0:0:0:
182,192,118141,1,0,0:0:0:0:
329,192,118453,1,0,0:0:0:0:
402,192,118766,128,0,119391:0:0:0:0:
109,192,118766,1,4,0:0:0:0:
182,192,119078,1,0,0:0:0:0:
109,192,119391,1,0,0:0:0:0:
329,192,119547,1,0,0:0:0:0:
182,192,119703,1,0,0:0:0:0:
402,192,119859,1,0,0:0:0:0:
256,192,120016,128,0,121266:0:0:0:0:
109,192,120016,1,4,0:0:0:0:
402,192,120328,1,0,0:0:0:0:
109,192,120641,1,0,0:0:0:0:
402,192,120953,1,0,0:0:0:0:
36,192,121266,1,4,0:0:0:0:
109,192,121266,1,0,0:0:0:0:
329,192,121266,128,0,121891:0:0:0:0:
402,192,121891,1,4,0:0:0:0:
475,192,121891,1,0,0:0:0:0:
182,192,121891,128,0,122516:0:0:0:0:
256,192,122516,128,0,122984:0:0:0:0:
36,192,122516,1,0,0:0:0:0:
475,192,122516,1,4,0:0:0:0:
402,192,122828,1,0,0:0:0:0:
182,192,122984,1,8,0:0:0:0:
329,192,123062,1,8,0:0:0:0:
109,192,123141,1,8,0:0:0:0:
402,192,123297,1,8,0:0:0:0:
36,192,123453,1,0,0:0:0:0:
109,192,123531,1,0,0:0:0:0:
182,192,123609,1,0,0:0:0:0:
256,192,123687,1,0,0:0:0:0:
329,192,123766,128,0,123922:0:0:0:0:
182,192,124078,128,0,124234:0:0:0:0:
402,192,124234,128,0,124391:0:0:0:0:
329,192,124547,128,0,124703:0:0:0:0:
36,192,124703,128,0,124859:0:0:0:0:
256,192,124859,128,0,125016:0:0:0:0:
475,192,125016,128,0,125328:0:0:0:0:
182,192,125016,1,0,0:0:0:0:
329,192,125328,128,0,125641:0:0:0:0:
109,192,125328,1,0,0:0:0:0:
36,192,125641,128,0,125953:0:0:0:0:
402,192,125641,1,0,0:0:0:0:
182,192,125953,128,0,126266:0:0:0:0:
475,192,125953,1,0,0:0:0:0:
402,192,126266,1,0,0:0:0:0:
329,192,126266,1,4,0:0:0:0:
182,192,126578,1,0,0:0:0:0:
109,192,126578,1,4,0:0:0:0:
329,192,126734,1,8,0:0:0:0:
402,192,126734,1,0,0:0:0:0:
329,192,127047,1,8,0:0:0:0:
402,192,127047,1,0,0:0:0:0:
109,192,127203,1,4,0:0:0:0:
182,192,127203,1,0,0:0:0:0:
402,192,127359,1,8,0:0:0:0:
36,192,127516,1,4,0:0:0:0:
256,192,127516,1,0,0:0:0:0:
329,192,127724,1,4,0:0:0:0:
109,192,127724,1,0,0:0:0:0:
182,192,127932,1,4,0:0:0:0:
402,192,127932,1,0,0:0:0:0:
256,192,128141,1,4,0:0:0:0:
475,192,128141,1,0,0:0:0:0:
402,192,128349,1,4,0:0:0:0:
182,192,128349,1,0,0:0:0:0:
329,192,128557,1,4,0:0:0:0:
109,192,128557,1,0,0:0:0:0:
36,192,128766,128,0,129703:0:0:0:0:
475,192,128766,1,4,0:0:0:0:
256,192,128766,1,0,0:0:0:0:
402,192,129078,1,0,0:0:0:0:
182,192,129078,1,0,0:0:0:0:
256,192,129391,1,0,0:0:0:0:
475,192,129391,1,0,0:0:0:0:
402,192,129703,1,0,0:0:0:0:
182,192,129703,1,0,0:0:0:0:
182,192,130016,128,0,130953:0:0:0:0:
329,192,130016,1,4,0:0:0:0:
36,192,130016,1,0,0:0:0:0:
256,192,130328,1,0,0:0:0:0:
402,192,130328,1,0,0:0:0:0:
475,192,130641,1,0,0:0:0:0:
329,192,130641,1,0,0:0:0:0:
109,192,130953,1,0,0:0:0:0:
402,192,130953,1,0,0:0:0:0:
329,192,131266,128,0,131891:0:0:0:0:
36,192,131266,1,0,0:0:0:0:
475,192,131266,1,4,0:0:0:0:
109,192,131422,1,0,0:0:0:0:
182,192,131578,1,0,0:0:0:0:
36,192,131734,1,0,0:0:0:0:
109,192,131812,1,0,0:0:0:0:
475,192,131891,128,0,132516:0:0:0:0:
182,192,131891,128,0,132516:0:0:0:0:
36,192,132516,1,4,0:0:0:0:
256,192,132516,128,0,133141:0:0:0:0:
182,192,133141,1,8,0:0:0:0:
109,192,133141,1,0,0:0:0:0:
329,192,133297,1,8,0:0:0:0:
402,192,133297,1,0,0:0:0:0:
475,192,133453,1,4,0:0:0:0:
36,192,133453,1,0,0:0:0:0:
256,192,133766,128,0,134078:0:0:0:0:
109,192,134078,128,0,136578:0:0:0:0:
402,192,134078,128,0,136578:0:0:0:0:
